osu file format v9

[General]
AudioFilename: Magic Girl.mp3
AudioLeadIn: 0
PreviewTime: -1
Countdown: 1
SampleSet: Normal
StackLeniency: 0.8
Mode: 0
LetterboxInBreaks: 1

[Editor]
DistanceSpacing: 1
BeatDivisor: 4
GridSize: 8

[Metadata]
Title:Magic Girl
Artist:Orange Caramel
Creator:minyeob
Version:orange
Source:
Tags:

[Difficulty]
HPDrainRate:8
CircleSize:5
OverallDifficulty:6
ApproachRate:7
SliderMultiplier:1.4
SliderTickRate:0.5

[Events]
//Background and Video events
//Break Periods
2,73268,84522
2,143861,149821
//Storyboard Layer 0 (Background)
//Storyboard Layer 1 (Fail)
//Storyboard Layer 2 (Pass)
//Storyboard Layer 3 (Foreground)
//Storyboard Sound Samples
//Background Colour Transformations
3,100,163,162,255

[TimingPoints]
2475,441.208912420031,4,1,1,100,1,0
14801,-100,4,2,1,100,0,0
30573,-133.333333333333,4,2,1,100,0,0
37743,-100,4,1,1,100,0,0
86834,-200,4,2,1,70,0,0
94224,-100,4,1,1,70,0,0
94445,-100,4,2,1,100,0,0
101062,-100,4,1,1,100,0,0
101504,-133.333333333333,4,2,1,100,0,0
108232,-100,4,1,1,100,0,0
156126,-100,4,2,1,70,0,0
157780,-200,4,2,1,70,0,0

[HitObjects]
264,224,2475,1,0
333,225,2695,1,0
334,155,2916,2,0,B|424:155,1,70,8|0
405,85,3357,2,0,B|237:85,1,140,0|8
214,36,4019,1,0
161,82,4239,1,0
161,82,4681,5,8
211,136,4901,1,0
158,192,5122,1,0
158,226,5232,1,0
158,260,5342,1,0
228,262,5563,2,0,B|271:227|322:281|391:246,1,140,8|0
432,239,6225,5,0
382,189,6445,1,8
382,189,6887,1,0
434,142,7107,2,0,B|434:61,2,70,0|8|0
383,190,7769,1,0
332,141,7990,1,0
281,189,8210,1,8
229,142,8431,1,0
193,142,8541,1,0
158,142,8651,1,0
87,142,8872,1,0
87,142,9093,6,0,B|87:57,2,70,8|0|0
176,282,9975,1,8
176,282,10416,1,0
256,194,10857,2,0,B|256:95,2,70,8|0|0
340,283,11740,1,8
340,283,12181,1,0
426,148,12622,1,8
256,192,13064,12,0,14608
423,56,15049,5,0
387,116,15270,1,2
435,166,15490,1,0
391,220,15711,2,0,B|391:275,2,35
330,184,16152,2,0,B|316:141|265:131,1,70,2|0
225,94,16593,5,0
176,144,16814,1,0
115,109,17034,1,0
87,173,17255,2,0,B|115:204|174:213,1,70
114,269,17696,2,0,B|72:263|46:223,2,70
176,297,18358,1,0
176,297,18799,1,0
207,234,19020,1,0
266,269,19240,2,0,B|417:269,1,140
466,233,19902,1,0
492,297,20123,5,0
372,97,20564,1,0
257,298,21005,1,0
374,245,21446,6,0,B|374:328,2,70
168,192,22329,1,0
376,137,22770,1,0
168,84,23211,1,0
168,84,23653,6,0,B|101:132,1,70
161,181,24094,2,0,B|132:248,1,70
196,275,24535,2,0,B|239:343,2,70
254,236,25197,1,0
254,236,25417,2,0,B|292:160|244:92,1,140
181,102,26079,2,0,B|140:169|187:252,1,140
179,305,26741,2,0,B|143:305,2,35
241,337,27182,5,0
281,279,27403,1,0
339,317,27623,2,0,B|510:317,2,140
339,177,28947,2,0,B|339:28,2,140
315,243,30050,1,0
257,202,30271,1,0
200,242,30491,1,0
166,180,30712,5,0
167,75,31153,2,0,B|42:74,2,104.999996870756
257,127,32477,1,0
362,127,32918,2,0,B|437:127,1,52.4999984353781
479,209,33580,2,0,B|510:262|472:332,1,104.999996870756
429,310,34242,6,0,B|316:310,2,104.999996870756
478,217,35565,1,0
424,126,36006,1,0
370,216,36448,1,0
370,216,36668,1,0
315,126,37109,2,0,B|315:56,2,52.4999984353781
284,189,37771,5,0
247,129,37992,1,0
210,188,38212,1,8
174,127,38433,1,0
86,236,38874,5,0
126,293,39095,1,8
189,323,39315,1,0
256,306,39536,2,0,B|255:220,2,70,0|0|8
256,306,40198,1,0
323,324,40418,1,0
384,291,40639,1,0
422,232,40860,1,8
257,65,41301,5,0
197,102,41521,2,0,B|162:84,2,35
245,154,41963,1,0
245,154,42183,2,0,B|216:216|108:229,1,140
145,121,42845,1,0
94,71,43066,5,0
151,30,43286,1,0
151,30,43397,1,0
151,30,43507,1,0
207,70,43728,1,0
268,103,43948,1,0
330,71,44169,1,0
390,36,44389,1,4
428,152,44831,6,0,B|478:146|481:87,2,70,0|0|8
460,213,45492,2,0,B|464:252|512:265,2,70
427,150,46154,1,8
384,205,46375,1,0
384,205,46816,1,0
420,264,47037,1,8
361,302,47257,1,0
311,253,47478,2,0,B|311:204,2,35
248,286,47919,6,0,B|162:275|151:174,1,140,8|0
84,195,48581,1,0
115,132,48801,1,8
185,133,49022,1,0
185,133,49463,1,0
217,194,49684,1,8
287,196,49904,1,0
288,125,50125,2,0,B|372:125,2,70,0|0|8
289,55,50787,2,0,B|360:21|446:68,1,140
424,57,51449,1,8
132,60,51890,6,0,B|87:127|136:201,1,140,4|8
60,192,52552,2,0,B|232:192,1,140
241,135,53214,1,8
297,175,53434,1,0
261,235,53655,2,0,B|261:314,2,70,0|0|8
327,258,54317,2,0,B|409:258,2,70
326,188,54978,2,0,B|398:148|490:207,1,140,8|4
435,254,55640,5,0
462,318,55861,1,0
408,362,56081,2,0,B|240:362,1,140
197,362,56743,1,0
196,291,56964,2,0,B|116:291,2,70
259,261,57626,5,0
368,193,58067,1,0
256,107,58508,1,0
144,191,58949,5,4
142,120,59170,2,0,B|62:120,1,70,0|8
70,190,59611,2,0,B|35:253|72:331,1,140
139,327,60273,1,8
137,257,60493,2,0,B|173:233|223:271,1,70
205,328,60935,2,0,B|242:349|291:320,1,70,0|8
272,258,61376,2,0,B|338:219|437:273,1,140
399,327,62038,5,8
463,298,62258,2,0,B|499:316|509:358,2,70
408,257,62920,1,8
470,225,63141,1,0
409,189,63361,2,0,B|405:97|313:65,1,140,0|8
338,76,64023,1,0
290,126,64244,2,0,B|251:148|209:114,1,70
164,86,64685,2,0,B|124:59|73:103,1,70,8|0
122,151,65126,1,0
108,219,65347,1,0
158,267,65567,1,8
454,185,66009,6,0,B|451:268|343:289,1,140,4|8
369,352,66670,1,0
369,352,66891,2,0,B|368:200,1,140,0|8
306,179,67553,2,0,B|312:88|417:84,1,140
394,16,68215,1,8
394,16,68435,2,0,B|394:182,1,140
395,226,69097,2,0,B|483:225,2,70,8|0|4
395,296,69759,2,0,B|317:296,1,70,0|0
274,246,70200,2,0,B|108:246,1,140,4|0
82,198,70862,2,0,B|4:198,2,70
85,127,71524,2,0,B|84:78,2,35
155,128,71965,2,0,B|202:123|211:59,1,70
257,38,72406,2,0,B|308:34|324:102,1,70
313,211,73068,1,4
256,192,85422,12,4,86745
102,70,87187,5,2
410,70,88069,1,2
138,171,88951,1,2
353,170,89834,1,2
137,280,90716,5,2
189,326,91157,1,0
256,344,91599,2,0,B|256:261,2,70,0|2|0
319,324,92922,1,0
374,280,93364,5,2
412,221,93584,1,0
436,155,93805,1,2
441,85,94025,1,0
386,41,94246,6,0,B|229:42,1,140,4|2
213,103,94908,2,0,B|123:103,2,70
283,104,95570,2,0,B|283:188,1,70,2|0
232,222,96011,1,0
232,222,96231,1,0
168,192,96452,1,2
168,192,96673,1,0
115,238,96893,2,0,B|115:313,1,70
185,309,97334,2,0,B|256:339|352:300,1,140,2|0
323,240,97996,5,0
323,240,98217,1,2
323,100,98658,2,0,B|474:100,2,140,0|2|0
191,149,99982,2,0,B|43:149,2,140,2|0|2
192,289,101305,5,4
192,289,101526,1,0
244,291,101747,2,0,B|304:287|319:215,1,104.999996870756
408,175,102629,2,0,B|401:111|319:95,1,104.999996870756
237,101,103511,1,0
237,101,103732,2,0,B|108:101,2,104.999996870756
239,159,104835,5,0
164,233,105276,1,0
164,233,105717,1,2
238,306,106159,1,0
315,235,106600,2,0,B|379:221|382:158,2,104.999996870756,0|0|2
243,157,107923,2,0,B|236:90|168:72,1,104.999996870756
115,47,108585,5,0
80,108,108806,1,8
115,168,109026,1,0
184,169,109247,1,0
148,108,109468,1,0
148,108,109688,2,0,B|314:108,1,140,8|0
320,46,110350,5,0
390,46,110571,1,8
422,107,110791,1,0
351,107,111012,2,0,B|266:130|267:232,1,140,0|8
321,252,111674,2,0,B|321:293,2,35
391,252,112115,2,0,B|391:196,1,35
392,146,112446,2,0,B|392:106,1,35
322,100,112777,2,0,B|322:38|397:27,2,105
281,157,113659,5,0
239,100,113880,1,0
198,156,114100,1,0
158,98,114321,1,0
200,43,114542,1,0
200,268,114983,1,0
388,270,115424,5,0
388,200,115645,1,0
317,198,115865,2,0,B|317:108,2,70,8|0|0
246,200,116527,1,0
212,188,116637,1,0
180,202,116748,1,8
180,272,116968,2,0,B|271:272,2,70,0|0|0
117,303,117630,1,8
117,303,117851,2,0,B|80:226|131:146,1,140
155,108,118512,6,0,B|152:60|89:52,2,70,8|0|0
214,144,119174,1,0
214,144,119395,2,0,B|254:203|363:215,1,140,8|0
310,110,120057,1,0
407,92,120277,2,0,B|369:23|270:10,1,140,8|0
234,47,120939,2,0,B|232:96|156:96,1,70,0|8
187,163,121380,2,0,B|187:222,2,35
122,134,121822,1,0
122,134,122042,2,0,B|116:51|14:33,2,140,8|4|8
120,204,123145,6,0,B|119:277,1,70
189,276,123586,1,0
223,268,123697,1,0
256,277,123807,1,8
258,347,124028,2,0,B|295:381|346:327,1,70
324,277,124469,1,0
376,230,124689,2,0,B|420:243|436:296,2,70,8|0|0
326,180,125351,1,0
326,180,125572,2,0,B|328:97|436:72,2,140,8|4|8
211,260,126895,6,0,B|120:247|119:135,1,140,0|8
51,165,127557,2,0,B|215:166,1,140
252,131,128219,1,8
280,194,128440,1,0
345,169,128660,1,0
362,169,128771,1,0
379,169,128881,1,0
396,169,128991,1,0
413,169,129101,1,8
418,238,129322,6,0,B|418:324,1,70,0|4
347,307,129763,2,0,B|348:216,1,70,0|8
345,169,130204,1,0
256,60,130646,2,0,B|172:60,1,70,0|8
115,61,131087,1,0
111,201,131528,2,0,B|110:284,1,70,0|8
180,272,131969,2,0,B|278:272,2,70
180,201,132631,2,0,B|246:171|344:213,1,140,8|0
379,165,133293,5,0
379,249,133514,1,8
438,121,133734,1,0
439,290,133955,1,0
495,165,134175,1,0
497,250,134396,1,8
407,192,134617,1,0
293,192,134837,2,0,B|132:192,2,140,0|8|0
293,86,136050,1,0
293,86,136161,1,8
229,44,136381,1,0
229,44,136602,6,0,B|178:52|180:123,1,70,4|0
182,160,137043,1,8
111,160,137264,2,0,B|63:160,2,35
144,221,137705,1,0
144,221,137926,2,0,B|149:271|216:271,1,70,8|0
256,254,138367,2,0,B|302:263|302:322,1,70
360,264,138808,2,0,B|410:257|418:205,1,70,8|0
414,206,139139,1,0
414,188,139249,1,0
414,170,139360,1,0
414,152,139470,1,0
414,82,139690,1,8
354,119,139911,6,0,B|355:165|299:165,1,70,0|4
258,118,140352,2,0,B|253:70|207:72,1,70
159,28,140793,2,0,B|99:97|169:174,1,140,4|0
215,190,141455,1,0
182,252,141676,1,0
111,251,141897,1,0
111,251,142007,1,0
79,188,142227,1,0
79,188,142338,1,0
113,127,142558,1,0
71,70,142779,2,0,B|71:16,6,35
71,70,143661,1,4
288,60,150721,6,0,B|375:80|384:179,1,140,4|8
256,192,151383,1,0
224,324,151603,2,0,B|137:304|128:205,1,140,4|8
256,192,152265,1,0
224,60,152486,6,0,B|137:80|128:179,1,140,4|8
256,192,153147,1,0
288,324,153368,2,0,B|375:304|384:205,2,140,0|8|0
169,249,154692,2,0,B|87:249,2,70,8|0|0
146,182,155353,1,0
196,133,155574,1,8
150,79,155795,1,0
205,37,156015,1,4
256,192,156126,12,2,157780
101,141,158662,5,0
258,63,159545,5,0
401,195,160427,1,0
