osu file format v9

[General]
AudioFilename: Magic Girl.mp3
AudioLeadIn: 1500
PreviewTime: 44617
Countdown: 0
SampleSet: Normal
StackLeniency: 0.5
Mode: 0
LetterboxInBreaks: 0

[Editor]
Bookmarks: 86639,157558
DistanceSpacing: 1
BeatDivisor: 3
GridSize: 8

[Metadata]
Title:Magic Girl
Artist:Orange Caramel
Creator:Scar
Version:Normal
Source:
Tags:Mystearica Kurai

[Difficulty]
HPDrainRate:3
CircleSize:4
OverallDifficulty:3
ApproachRate:5
SliderMultiplier:1.4
SliderTickRate:1

[Events]
//Background and Video events
Video,-17000,"mahoshojou.avi"
0,0,"045313.jpg"
//Break Periods
2,73258,85978
2,143854,156574
//Storyboard Layer 0 (Background)
//Storyboard Layer 1 (Fail)
//Storyboard Layer 2 (Pass)
//Storyboard Layer 3 (Foreground)
//Storyboard Sound Samples
//Background Colour Transformations
3,100,0,0,0

[TimingPoints]
698,441.225135125198,4,1,1,80,1,0
30591,-100,4,1,1,50,0,0
30811,-100,4,1,1,80,0,0
41180,-100,4,1,1,100,0,0
43827,-100,4,1,1,50,0,0
44158,-100,4,1,1,70,0,0
44599,-100,4,1,1,80,0,0
86957,-100,4,2,1,100,0,0
93465,-100,4,2,1,70,0,0
93686,-100,4,2,1,75,0,0
93906,-100,4,2,1,80,0,0
94127,-100,4,1,1,80,0,0
100525,-100,4,2,1,80,0,0
101187,-100,4,1,1,60,0,0
101407,-100,4,1,1,80,0,0
111776,-100,4,1,1,100,0,0
115195,-100,4,1,1,80,0,0
157663,-100,4,2,1,100,0,0
164833,-100,4,1,1,80,0,1
186012,-100,4,1,1,100,0,0

[Colours]
Combo1 : 243,230,58
Combo2 : 252,31,48
Combo3 : 104,236,233

[HitObjects]
112,152,2462,2,0,B|80:216|112:304,1,140,0|8
208,192,3345,2,0,B|232:120|208:48,2,140,0|8|0
152,240,4448,2,0,B|64:240,2,70,0|8|0
256,336,5330,6,0,B|176:336,2,70,8|8|0
328,336,5992,2,0,B|352:272|328:176,2,140,0|8|0
400,344,7095,2,0,B|432:336|472:336,1,70,0|8
472,264,7536,2,0,B|456:200|472:120,1,140
416,80,8198,2,0,B|392:56|344:40,1,70,8|0
104,288,9522,6,0,B|24:288,2,70,0|0|8
176,288,10184,1,0
296,224,10625,2,0,B|384:224,1,70,0|8
440,224,11066,1,0
360,112,11508,2,0,B|288:112,1,70,0|8
216,112,11949,2,0,B|144:136|72:112,1,140
24,160,12611,1,8
88,288,13052,6,0,B|128:280|168:288,1,70
224,312,13493,2,0,B|256:320|296:312,1,70,8|0
424,272,14155,2,0,B|424:184,2,70,0|8|0
48,64,16582,6,0,B|112:88|192:64,1,140,0|8
256,48,17243,1,0
328,64,17464,2,0,B|392:40|472:64,1,140,0|8
488,200,18347,1,0
376,280,18788,1,8
288,168,19229,1,0
288,168,19450,2,0,B|208:168,2,70,0|8|0
360,168,20111,5,0
456,272,20553,1,0
320,296,20994,1,0
152,168,21876,5,0
56,64,22318,1,0
192,40,22759,1,0
440,176,23641,6,0,B|464:248|440:320,1,140,0|8
384,352,24303,1,0
256,272,24744,2,0,B|256:192,2,70,0|8|0
256,344,25406,2,0,B|184:368|112:344,1,140,0|8
120,208,26289,2,0,B|120:128,2,70,0|0|8
256,176,27171,5,0
375,237,27612,1,0
375,99,28053,1,0
136,114,28936,5,0
136,252,29377,1,0
256,176,29818,1,0
256,176,30701,5,4
368,88,31142,2,0,B|312:48|224:32,1,140,0|8
160,232,32245,1,0
160,232,32466,2,0,B|216:272|304:288,1,140
432,288,33348,2,0,B|472:288|512:296,1,70,8|0
392,112,34231,5,0
120,40,35113,1,8
56,240,35775,1,0
56,240,36216,2,0,B|96:248|125:278,1,70
248,320,36878,2,0,B|296:336|368:320,2,105,8|0|0
176,304,37760,5,0
248,184,38202,2,0,B|312:160|408:184,1,140,8|0
400,320,39084,2,0,B|376:336|336:344,1,70,8|0
264,352,39525,2,0,B|192:376|120:336,1,140,0|8
64,304,40187,1,0
16,248,40408,2,0,B|-16:200|16:128,2,105
64,304,41290,6,0,B|104:288|168:288,1,93.3333333333333,4|0
248,312,41879,2,0,B|296:328|368:312,1,93.3333333333333,0|4
384,232,42467,2,0,B|424:216|480:216,1,93.3333333333333
472,120,43055,2,0,B|336:120|336:40|192:40,1,280
72,80,44379,1,0
168,176,44820,6,0,B|200:200|232:256,1,70,4|0
256,288,45261,2,0,B|288:320|352:312,1,70
448,248,45923,2,0,B|448:216|504:168,2,70,0|8|0
344,152,46806,2,0,B|312:120|304:80,1,70,0|8
272,32,47247,2,0,B|208:8|112:32,1,140,0|8
64,24,47909,1,8
72,160,48350,6,0,B|112:216|192:256,1,140,0|8
248,272,49012,1,0
320,264,49232,2,0,B|352:256|400:264,1,70
424,328,49673,2,0,B|456:336|504:328,1,70,8|0
496,256,50115,2,0,B|480:192|496:112,2,140,0|8|0
368,200,51438,1,8
240,256,51880,5,4
240,256,52100,2,0,B|240:328,2,70,0|8|0
120,176,52983,2,0,B|120:256,1,70,0|8
120,320,53424,1,0
240,256,53865,2,0,B|240:184,1,70,0|8
240,112,54306,2,0,B|312:96|400:112,1,140,0|8
448,112,54968,1,8
496,240,55409,5,0
432,272,55630,2,0,B|392:272|352:280,1,70,0|8
304,320,56071,2,0,B|240:344|160:328,1,140
96,312,56733,1,8
24,328,56954,1,0
256,192,57174,8,0,58498
328,96,58939,5,4
328,96,59160,2,0,B|328:16,2,70,0|8|0
256,216,60042,2,0,B|256:304,1,70,0|8
256,360,60484,1,0
136,288,60925,2,0,B|136:216,1,70,0|8
64,232,61366,2,0,B|32:168|64:88,1,140,0|8
104,40,62028,1,8
240,32,62469,6,0,B|272:48|320:88,1,70
360,48,62910,2,0,B|384:72|416:128,1,70,8|0
464,136,63351,2,0,B|464:168|448:216,1,70
472,272,63793,2,0,B|456:296|416:320,1,70,8|0
352,344,64234,2,0,B|296:376|216:360,2,140,0|8|0
336,208,65558,1,8
448,120,65999,6,0,B|448:32,2,70,4|0|8
448,192,66661,1,0
336,280,67102,2,0,B|336:200,1,70,0|8
336,136,67543,2,0,B|272:112|192:136,1,140
128,152,68205,2,0,B|128:56,1,70,8|0
256,24,68867,2,0,B|256:96,1,70,0|8
256,232,69529,5,0
184,232,69749,2,0,B|104:232,1,70,0|8
40,232,70190,1,0
104,104,70632,2,0,B|192:104,1,70,0|8
248,104,71073,1,0
256,192,71294,8,4,73058
304,208,87178,5,2
264,136,87398,2,0,B|224:136|176:152,2,70
264,136,88060,1,2
352,32,88501,2,0,B|392:32|440:48,1,70
448,112,88943,2,0,B|400:256,1,140,2|0
336,208,89604,1,0
270,247,89825,2,0,B|222:103,1,140,2|0
88,64,90707,5,2
88,64,91149,1,2
88,64,91590,1,2
424,64,92472,5,2
424,64,92914,1,2
424,64,93355,1,2
360,104,93575,2,0,B|360:176,2,70
296,64,94237,6,0,B|232:8|152:72,1,140,0|8
104,112,94899,1,0
104,112,95120,2,0,B|168:168|248:104,1,140,0|8
288,168,95782,2,0,B|256:200|208:208,1,70
256,280,96223,2,0,B|288:248|336:240,1,70,0|8
368,184,96664,2,0,B|376:136|336:104,1,70
432,112,97105,2,0,B|448:152|440:192,1,70,0|8
512,334,97767,6,0,B|438:372|355:326,2,140,0|8|0
440,208,99091,1,8
344,96,99532,6,0,B|270:58|187:104,2,140,0|8|0
344,168,100635,2,0,B|344:240,2,70,2|2|2
344,96,101297,1,4
208,32,101738,6,0,B|168:104|216:192,1,140,0|8
408,96,102841,1,0
408,96,103062,2,0,B|448:168|400:256,1,140,0|8
312,328,103944,2,0,B|312:232,1,70,8|0
104,192,104827,5,0
408,192,105709,1,8
256,344,106371,1,0
256,344,106812,1,0
256,272,107033,2,0,B|256:120,1,140,0|8
72,32,108136,5,0
72,32,108356,2,0,B|72:176,1,140,0|8
144,144,109018,1,0
216,112,109239,2,0,B|216:280,1,140,0|8
272,304,109901,5,0
336,344,110121,2,0,B|408:384|480:336,1,140,0|8
474,267,110783,1,0
472,192,111004,2,0,B|400:152|328:200,1,140,0|8
312,48,111886,6,4,B|208:48,1,93.3333333333333
168,128,112475,2,0,B|280:128,1,93.3333333333333
208,208,113063,2,0,B|108:208,1,93.3333333333333
256,192,113651,8,0,114975
256,104,115416,6,4,B|256:32,2,70,0|0|8
194,143,116078,2,0,B|222:187|289:192|325:133,1,140
376,184,116740,1,8
392,256,116960,2,0,B|311:283|330:377,1,140
256,336,117622,1,8
184,368,117843,2,0,B|200:284|109:254,1,140
136,184,118505,1,8
256,96,118946,5,0
136,184,119387,1,8
256,272,119828,1,0
376,184,120270,1,8
434,137,120490,2,0,B|474:201|416:221|466:294,2,140,0|8|0
296,80,121814,1,0
288,152,122034,2,0,B|224:200|152:152,1,140,8|4
72,280,122917,5,8
128,328,123137,2,0,B|216:304|216:216,1,140
272,176,123799,1,8
200,160,124020,2,0,B|112:136|112:48,1,140
184,40,124682,1,8
256,24,124902,2,0,B|344:48|344:136,1,140
272,144,125564,1,8
184,256,126005,5,0
184,256,126226,2,0,B|168:296|184:336,2,70,0|8|0
328,256,127109,2,0,B|344:296|328:336,2,70,0|8|0
256,192,127660,8,0,129094
256,192,129535,5,4
328,160,129756,2,0,B|408:160,2,70,0|8|0
248,48,130638,2,0,B|168:48,2,70,0|8|0
384,16,131521,2,0,B|408:56|376:104,1,70,0|8
328,136,131962,2,0,B|352:216|440:232,1,140,0|8
464,296,132624,1,8
328,352,133065,6,0,B|296:368|256:352,1,70
224,288,133506,2,0,B|264:224,1,70,8|0
232,160,133947,2,0,B|200:144|160:160,1,70
127,225,134389,2,0,B|167:289,1,70,8|0
224,336,134830,6,0,B|288:368|296:312|384:360,2,140,0|8|0
256,192,136154,1,8
256,192,136595,5,4
184,160,136815,2,0,B|104:160,2,70,0|8|0
328,128,137698,2,0,B|384:80,2,70,0|8|0
240,240,138580,2,0,B|216:280|248:328,1,70,0|8
168,344,139022,2,0,B|136:272|176:192,1,140,0|8
208,144,139683,1,8
360,128,140125,6,0,B|400:200|360:272,1,140,0|8
288,240,140786,2,0,B|248:168|288:96,1,140,0|0
224,56,141448,2,0,B|192:40|136:48,1,70,8|0
256,192,141890,8,0,143213
256,192,143654,5,4
392,200,157774,6,8,B|385:242|352:272,1,70,0|0
312,208,158215,2,8,B|318:166|352:136,1,70,2|0
208,96,158877,1,0
208,96,159097,2,0,B|174:122|168:160,1,70,2|0
64,248,159759,2,0,B|32:223|32:184,2,70,0|2|0
176,328,160642,2,0,B|216:336|248:328,1,70,2|2
376,280,161303,6,0,B|424:272|456:280,2,70,0|0|2
312,248,161965,1,0
256,208,162186,2,0,B|208:200|176:208,2,70,0|0|2
256,192,162848,8,0,164392
368,88,164833,6,0,B|456:88,2,70,4|0|8
296,88,165495,1,0
184,192,165936,2,0,B|256:192,1,70
328,192,166378,2,0,B|344:256|320:336,1,140
256,352,167039,1,8
190,330,167260,2,0,B|168:256|184:192,1,140,0|8
216,128,167922,1,8
96,56,168363,5,0
48,112,168584,2,0,B|48:144|72:176,1,70,0|8
128,224,169025,2,0,B|192:264|224:328,1,140
288,360,169687,2,0,B|336:360|376:368,1,70
256,192,170128,8,0,171452
176,144,171893,5,4
176,144,172113,2,0,B|96:144,2,70,0|8|0
256,264,172996,2,8,B|256:360,2,70,0|8|0
336,144,173878,2,8,B|408:144,2,70,0|8|0
256,264,174761,6,0,B|256:336,1,70,8|8
160,232,175423,6,0,B|80:232|16:176,1,140
80,56,176305,2,0,B|160:56|224:112,1,140
264,144,176967,1,0
328,176,177188,2,0,B|378:220|458:220,2,140,0|8|0
96,336,178952,6,0,B|8:336,2,70,0|0|8
168,336,179614,1,0
296,272,180056,2,0,B|376:272,1,70,0|8
440,272,180497,2,0,B|464:208|440:128,1,140
368,128,181159,2,0,B|368:32,1,70,8|0
232,24,181820,2,0,B|232:96,1,70,0|8
96,120,182482,5,0
96,192,182703,2,0,B|96:272,1,70,0|8
96,336,183144,1,0
232,296,183585,2,0,B|232:224,1,70,0|8
232,152,184027,1,0
256,192,184247,8,4,186012
