osu file format v9

[General]
AudioFilename: Orange_Caramel__After_School__.mp3
AudioLeadIn: 1500
PreviewTime: 39185
Countdown: 1
SampleSet: Normal
StackLeniency: 0.7
Mode: 0
LetterboxInBreaks: 1

[Editor]
Bookmarks: 150761,157818,175017
DistanceSpacing: 0.8
BeatDivisor: 4
GridSize: 4

[Metadata]
Title:Magic Girl
Artist:Orange Caramel
Creator:Mukufro
Version:Easy
Source:Pledis Entertaiment
Tags:After School

[Difficulty]
HPDrainRate:1
CircleSize:3
OverallDifficulty:1
ApproachRate:2
SliderMultiplier:1.2
SliderTickRate:2

[Events]
//Background and Video events
0,0,"10902_Orange-Caramel-.jpg"
//Break Periods
2,73343,85695
2,143705,148997
//Storyboard Layer 0 (Background)
//Storyboard Layer 1 (Fail)
//Storyboard Layer 2 (Pass)
//Storyboard Layer 3 (Foreground)
//Storyboard Sound Samples
//Background Colour Transformations
3,100,163,162,255

[TimingPoints]
817,441.014332965821,4,1,1,90,1,0
30817,-100,4,2,1,90,0,0
37875,-100,4,1,1,90,0,0
44036,-100,4,2,1,90,0,0
44918,-100,4,1,1,90,0,1
58589,-100,4,1,1,90,0,0
59030,-100,4,1,1,90,0,1
72702,-100,4,1,1,90,0,0
87255,-100,4,2,1,90,0,0
94753,-100,4,1,1,90,0,0
94853,-100,4,1,1,90,0,0
101368,-100,4,2,1,90,0,0
108424,-100,4,1,1,90,0,0
114598,-100,4,2,1,90,0,0
115480,-100,4,1,1,90,0,1
129152,-100,4,1,1,90,0,0
129593,-100,4,1,1,90,0,1
143264,-100,4,1,1,90,0,0
150761,-100,4,2,1,90,0,0
164874,-100,4,1,1,90,0,1
171489,-100,4,1,1,90,0,0
171930,-100,4,1,1,90,0,1
185987,-100,4,1,1,90,0,0
186043,-100,4,1,1,90,0,1
186083,-100,4,1,1,90,0,0

[Colours]
Combo1 : 255,150,0
Combo2 : 128,255,0
Combo3 : 192,192,192
Combo4 : 255,128,255

[HitObjects]
112,148,817,1,4
112,148,1258,1,4
208,148,1699,2,4,B|212:120|256:92|296:120|300:164,1,120,4|0
392,152,2581,6,0,B|392:32,1,120,0|8
484,60,3463,2,0,B|484:180,1,120,0|8
484,276,4345,1,0
408,332,4786,2,0,B|376:352|376:352|328:352|328:352|300:328,2,120,8|0|8
356,252,6109,5,0
276,196,6550,1,8
360,152,6991,1,0
276,104,7432,2,0,B|228:56|160:64|124:104|116:128,1,180,8|0
204,168,8534,1,4
404,304,9637,6,0,B|432:248|392:208|352:168|408:124,1,180
456,60,10739,1,0
364,40,11180,2,0,B|308:32|272:120|328:144|364:120|348:64|292:44|240:44|208:80,1,240
256,340,13165,6,0,B|256:140,1,180
308,80,14267,2,0,B|288:48|228:44|200:84,1,120
100,308,16693,6,0,B|100:188,1,120,0|8
172,124,17575,1,0
244,188,18016,2,0,B|244:316,1,120,8|0
340,328,18898,2,0,B|404:356|472:324,1,120,8|0
400,252,19780,1,8
400,156,20221,6,0,B|388:104|328:108|276:112|240:56,2,180,0|0|8
400,252,21985,2,0,B|388:304|328:300|276:296|240:352,2,180,0|0|8
331,183,23749,5,0
264,116,24190,1,8
196,184,24631,1,0
128,116,25072,1,8
60,48,25513,2,0,B|28:84|24:132|56:180,1,120,0|8
112,228,26395,2,0,B|144:192|148:144|116:96,1,120,0|8
60,48,27277,6,0,B|112:8|164:16|208:44|216:104,2,180,0|0|8
60,144,29041,2,0,B|112:184|164:176|208:148|216:88,2,180,0|0|8
64,240,30805,6,0,B|132:312|212:288|244:244|260:184,1,240,4|8
296,116,32129,1,2
216,60,32570,2,0,B|252:20|288:0|368:16|396:72|388:120,1,240,0|8
380,208,33893,1,2
332,292,34334,6,0,B|296:332|260:352|180:336|152:280|160:232,1,240,0|8
168,144,35657,1,2
172,48,36098,2,0,B|96:52|56:96|52:184|88:220|136:232|136:232,1,240,0|8
168,144,37421,1,2
248,196,37862,6,0,B|288:256|380:224,2,120,0|8|0
324,140,39185,1,8
400,80,39626,2,0,B|360:20|268:52,2,120,0|8|0
324,140,40949,1,8
228,140,41390,5,4
36,140,42272,1,4
132,305,43154,2,0,B|200:308|200:308|252:292|280:244|280:244|280:164,1,240,4|4
280,80,44477,1,4
204,24,44918,6,0,B|176:56|172:104|208:144,1,120,0|8
276,192,45800,2,0,B|304:160|308:112|272:72,1,120,0|8
200,136,46682,2,0,B|172:168|168:216|204:256,1,120,0|8
276,192,47564,1,0
276,192,48005,1,8
284,96,48446,6,0,B|344:96|392:144|400:216|364:264|320:276,2,240,0|0|0
188,92,50651,2,0,B|108:92,1,60,8|4
364,36,51974,6,0,B|392:68|396:116|360:156,1,120,0|8
292,204,52856,2,0,B|264:172|260:124|296:84,1,120,0|8
368,148,53738,2,0,B|396:180|400:228|364:268,1,120,0|8
292,204,54620,1,0
292,204,55061,1,8
284,108,55502,6,0,B|224:108|176:156|172:228|208:276|248:288,2,240,0|0|0
348,180,57707,1,8
444,180,58148,1,4
444,276,58589,1,8
348,276,59030,5,4
252,276,59471,2,0,B|132:276,1,120,8|0
68,204,60353,2,0,B|208:204,1,120,8|0
252,132,61235,2,0,B|132:132,2,120,8|0|8
288,44,62559,6,0,B|408:44|408:44|344:116|416:156|416:156,2,240
304,140,64764,2,0,B|312:184|336:196,1,60,8|4
112,296,66087,5,4
112,200,66528,2,0,B|112:80,1,120,8|0
184,16,67410,2,0,B|184:156,1,120,8|0
256,200,68292,2,0,B|256:80,2,120,8|0|8
344,236,69615,6,0,B|344:356|344:356|272:292|232:364|232:364,2,240
256,192,71820,12,0,73143
88,256,87255,6,2,B|124:308|192:256|192:256|252:316|304:248,1,240,2|2
464,160,89019,2,2,B|428:108|360:160|360:160|300:100|248:168,1,240
80,80,90783,6,2,B|108:120|80:164|80:164|48:200|80:248,1,180,2|4
252,80,92547,2,2,B|224:120|252:164|252:164|284:200|252:248,1,180,2|4
396,248,93871,1,2
464,180,94312,5,4
396,112,94753,1,0
300,112,95194,2,0,B|252:144|252:144|196:104,1,120
104,104,96076,2,0,B|56:72|56:72|4:104,1,120
52,188,96958,2,0,B|144:288,1,120
228,268,97840,6,0,B|260:248|276:244|308:240|332:288|304:300|256:280|304:224|368:268,2,180,0|0|8
232,172,99604,2,0,B|264:192|280:196|312:200|336:152|308:140|260:160|308:216|372:172,2,180,0|0|8
136,168,101368,6,0,B|149:131|136:104|136:104|116:76|100:64|116:52|144:40|144:40|172:48|214:55|252:40,1,240,0|8
328,52,102691,1,2
424,52,103132,2,0,B|476:132|476:132|424:200,2,180,0|0|0
328,48,104896,6,0,B|291:61|264:48|264:48|236:28|224:12|212:28|200:56|200:56|208:84|215:126|200:164,1,240,0|8
212,240,106219,1,2
212,336,106660,2,0,B|292:388|292:388|360:336,2,180
128,288,108424,5,0
196,220,108865,1,8
128,152,109306,1,0
195,84,109747,1,8
292,88,110188,6,0,B|428:88,1,120,0|8
476,160,111070,2,0,B|352:160,1,120,0|8
388,248,111952,5,4
220,344,112834,1,4
56,248,113716,2,0,B|56:188|56:188|108:208|152:176|144:128|144:128|204:128,1,240,4|4
288,128,115039,1,4
340,48,115480,6,0,B|468:68,1,120,0|8
388,132,116362,2,0,B|488:204,1,120,0|8
392,224,117244,2,0,B|440:336,1,120,0|8
348,304,118126,2,0,B|268:400,1,120,0|8
196,336,119008,6,0,B|196:276|196:276|176:276|144:256|116:216|144:176|176:152|212:160,2,240
292,340,121213,2,0,B|292:280,1,60,8|4
496,152,122536,6,0,B|476:24,1,120,0|8
412,104,123418,2,0,B|340:4,1,120,0|8
320,100,124300,2,0,B|208:52,1,120,0|8
240,144,125182,2,0,B|144:224,1,120,0|8
208,296,126064,6,0,B|268:296|268:296|268:316|288:348|328:376|368:348|392:316|384:280,2,240
204,200,128270,2,0,B|236:148|272:128|328:124|372:148|396:204,1,240
452,276,129593,5,0
508,356,130034,2,0,B|468:384|424:376|396:356,1,120,8|0
452,276,130916,1,8
396,200,131357,2,0,B|436:172|480:180|508:200,1,120,0|8
452,276,132239,2,0,B|412:304|368:296|340:276,1,120,0|8
308,184,133121,6,0,B|340:132|340:132|396:116|396:116|456:136|456:136|476:188|476:188,2,240
392,228,135326,2,0,B|392:300,1,60,8|4
151,288,136649,5,0
95,368,137090,2,0,B|135:396|179:388|207:368,1,120,8|0
151,288,137972,1,8
207,212,138413,2,0,B|167:184|123:192|95:212,1,120,0|8
151,288,139295,2,0,B|191:316|235:308|263:288,1,120,0|8
292,196,140177,6,0,B|265:144|265:144|209:128|209:128|149:140|149:140|117:196|117:196,2,240
204,240,142382,1,8
204,240,142823,1,4
204,240,143264,1,8
48,112,150761,6,2,B|164:0|252:112|252:112|344:212|464:72,2,480,2|2|2
12,200,154731,2,0,B|56:220|104:208|128:152,1,120,8|4
196,228,155613,2,0,B|176:264|136:296|88:296,1,120,8|4
92,232,157818,6,0,B|108:224|108:224|108:236|108:236|112:224|112:224|112:236|112:236|124:224|124:224|124:236|124:236|132:224|132:224|132:236|132:236|140:224|140:224|140:236|140:236|148:224|148:224|148:236|148:236|156:224|156:224|156:236|156:236|164:224|164:224|164:236|164:236|172:224|172:224|172:236|172:236|180:224|180:224|180:236|180:236|188:224|188:224|188:236|188:236|196:224|196:224|196:236|196:236|204:224|204:224|204:236|204:236|212:224|212:224|212:236|212:236|220:224|220:224|220:236|220:236|228:224|228:224|228:236|228:236|236:224|236:224|236:236|236:236|244:224|244:224|256:232|256:232,1,480
424,140,160464,1,0
256,48,161346,6,0,B|240:40|240:40|240:52|240:52|236:40|236:40|236:52|236:52|224:40|224:40|224:52|224:52|216:40|216:40|216:52|216:52|208:40|208:40|208:52|208:52|200:40|200:40|200:52|200:52|192:40|192:40|192:52|192:52|184:40|184:40|184:52|184:52|176:40|176:40|176:52|176:52|168:40|168:40|168:52|168:52|160:40|160:40|160:52|160:52|152:40|152:40|152:52|152:52|144:40|144:40|144:52|144:52|136:40|136:40|136:52|136:52|128:40|128:40|128:52|128:52|120:40|120:40|120:52|120:52|112:40|112:40|112:52|112:52|104:40|104:40|92:48|92:48,1,480
256,192,163551,12,4,164874
460,328,165315,5,8
436,236,165756,2,0,B|388:248|368:276|364:324,1,120,0|8
276,280,166638,2,4,B|280:208|328:176|364:144|400:156,1,180,0|4
148,188,168402,6,0,B|144:260|96:292|60:324|24:312,2,180
172,96,170166,2,0,B|236:120|244:188,1,120,0|8
260,280,171048,2,0,B|324:256|332:188,1,120,4|8
336,96,171930,6,0,B|294:23|252:24|168:132|168:256|272:412|384:424|448:412|556:256|520:28|468:28|400:28|376:104,1,840
328,180,175458,6,0,B|352:248|364:248|388:180,1,120,0|8
392,88,176340,2,0,B|372:20|360:20|332:88,1,120,0|8
256,192,177222,12,0,178545
396,188,178986,5,0
424,96,179427,1,8
396,188,179868,2,0,B|348:176|328:148|324:100,1,120,0|8
236,144,180750,2,4,B|240:216|288:248|324:280|360:268,1,180,0|4
108,236,182514,6,0,B|104:164|56:132|20:100|-16:112,2,180
256,192,184278,12,4,186043
