osu file format v13

[General]
AudioFilename: Catallena - Orange Caramel.mp3
AudioLeadIn: 0
PreviewTime: 61638
Countdown: 0
SampleSet: Normal
StackLeniency: 0.5
Mode: 0
LetterboxInBreaks: 0
WidescreenStoryboard: 0

[Editor]
Bookmarks: -15
DistanceSpacing: 0.8
BeatDivisor: 4
GridSize: 4
TimelineZoom: 1

[Metadata]
Title:Catallena
TitleUnicode:까탈레나
Artist:Orange Caramel
ArtistUnicode:오렌지캬라멜
Creator:Celizavia
Version:Easy
Source:
Tags:The 3rd kpop k-pop pledis afterschool after school lZenxl Konpaku Sariel gokugohan12468 gokuhan
BeatmapID:406604
BeatmapSetID:167402

[Difficulty]
HPDrainRate:2
CircleSize:2.5
OverallDifficulty:1
ApproachRate:2
SliderMultiplier:1.2
SliderTickRate:1

[Events]
//Background and Video events
0,0,"newbg.jpg",0,0
//Break Periods
2,77228,90786
2,145460,151259
//Storyboard Layer 0 (Background)
//Storyboard Layer 1 (Fail)
//Storyboard Layer 2 (Pass)
//Storyboard Layer 3 (Foreground)
//Storyboard Sound Samples
//Background Colour Transformations
3,100,163,162,255

[TimingPoints]
1638,472.44094488189,4,1,0,60,1,0
16756,-100,4,1,0,85,0,1
31874,-100,4,1,0,80,0,0
36126,-100,4,1,0,80,0,0
39433,-100,4,1,0,80,0,0
42149,-100,4,1,0,45,0,0
42267,-100,4,1,0,7,0,0
43212,-100,4,1,0,55,0,0
45102,-100,4,2,0,50,0,0
46519,-100,4,1,0,70,0,0
46992,-100,4,1,0,80,0,0
60220,-100,4,1,0,50,0,0
62110,-100,4,1,0,85,0,1
77228,-100,4,1,0,80,0,0
92346,-100,4,1,0,50,0,0
99905,-100,4,1,0,60,0,0
101795,-100,4,1,0,70,0,0
102740,-100,4,1,0,75,0,0
103212,-100,4,1,0,78,0,0
103685,-100,4,1,0,80,0,0
115141,-100,4,1,0,60,0,0
117858,-100,4,2,0,60,0,0
118803,-100,4,1,0,50,0,0
119748,-100,4,1,0,60,0,0
120693,-100,4,1,0,70,0,0
121165,-100,4,1,0,75,0,0
121638,-100,4,1,0,80,0,0
130141,-100,4,1,0,100,0,1
145260,-100,4,1,0,45,0,0
159905,-100,4,1,0,50,0,0
161323,-100,4,1,0,60,0,0
162267,-100,4,1,0,70,0,0
163449,-100,4,1,0,80,0,0
164157,-100,4,1,0,85,0,1
175496,-100,4,1,0,100,0,0
188724,-100,4,1,0,80,0,0
189197,-100,4,1,0,60,0,0

[Colours]
Combo1 : 155,131,158
Combo2 : 214,200,120
Combo3 : 186,181,152
Combo4 : 148,174,140

[HitObjects]
128,96,16756,6,0,P|184:68|256:104,1,120,4|8,0:0|0:0,0:0:0:0:
188,172,17701,2,0,L|188:260,2,60,0|0|8,0:0|0:0|0:0,0:0:0:0:
284,184,18645,2,0,P|340:200|391:172,1,120,0|8,0:0|0:0,0:0:0:0:
328,100,19590,1,0,0:0:0:0:
232,100,20063,1,8,0:0:0:0:
140,80,20535,6,0,P|84:68|24:84,2,120,0|8|0,0:0|0:0|0:0,0:0:0:0:
148,176,21953,1,8,0:0:0:0:
240,200,22425,2,0,B|208:276|128:268,2,120,0|8|0,0:0|0:0|0:0,0:0:0:0:
260,108,23842,1,0,0:0:0:0:
348,72,24315,5,4,0:0:0:0:
348,168,24788,1,8,0:0:0:0:
436,212,25260,2,0,L|436:124,2,60,0|0|8,0:0|0:0|0:0,0:0:0:0:
504,284,26205,2,0,P|488:340|416:376,1,120,0|8,0:0|0:0,0:0:0:0:
344,372,27150,2,0,L|240:268,1,120,0|8,0:0|0:0,0:0:0:0:
164,308,28094,6,0,P|96:300|56:264,1,120,0|8,0:0|0:0,0:0:0:0:
140,220,29039,2,0,P|208:228|244:264,1,120
324,244,29984,2,0,P|328:185|364:138,1,120,0|8,0:0|0:0,0:0:0:0:
392,48,30929,2,0,P|324:56|284:92,1,120
364,144,31874,1,0,0:0:0:0:
368,148,32346,6,0,P|340:216|284:228,1,120,0|0,0:0|2:0,0:0:0:0:
204,232,33291,2,0,P|152:207|137:151,1,120,0|0,0:0|2:0,0:0:0:0:
232,140,34236,2,8,P|280:168|296:230,1,120,0|8,0:0|2:0,0:0:0:0:
388,192,35181,6,0,P|440:216|456:284,1,120
364,280,36126,2,0,P|320:316|260:308,1,120,0|0,0:0|2:0,0:0:0:0:
168,284,37071,6,0,P|84:168|324:96,1,480
300,180,39433,6,0,B|340:232|408:208,1,120
372,116,40378,2,0,B|388:48|472:44,1,120
464,144,41323,1,0,0:0:0:0:
456,240,41795,2,0,L|336:240,1,120
268,172,42740,5,0,0:0:0:0:
184,124,43212,2,0,B|200:60|256:92|280:20,2,120,0|2|0,0:0|2:0|0:0,0:0:0:0:
96,164,44630,1,0,0:0:0:0:
80,260,45102,2,0,B|16:276|48:332|-24:356,2,120,0|2|0,0:0|2:0|0:0,0:0:0:0:
176,268,46520,1,0,0:0:0:0:
208,176,46992,6,8,B|304:80,1,120,4|8,0:0|0:0,0:0:0:0:
212,40,47937,2,8,L|124:122,1,120,0|0,0:0|0:0,0:0:0:0:
32,84,48882,2,0,L|120:0,2,120,0|0|0,0:0|0:0|0:0,0:0:0:0:
32,180,50299,1,4,0:0:0:0:
116,228,50771,6,0,P|172:252|244:228,1,120,0|8,0:0|0:0,0:0:0:0:
196,148,51717,2,0,P|260:148|304:184,1,120,0|0,0:0|0:0,0:0:0:0:
352,264,52662,2,8,P|240:344|120:336,1,240,0|8,0:0|0:0,0:0:0:0:
88,264,54079,1,0,0:0:0:0:
8,208,54551,6,8,P|60:172|140:180,1,120,0|8,0:0|0:0,0:0:0:0:
208,184,55496,2,0,L|292:184,2,60,0|2|2,0:0|0:0|0:0,0:0:0:0:
264,104,56441,6,0,L|344:104,2,60
176,68,57386,1,0,0:0:0:0:
160,112,57622,2,0,L|40:140,1,120
256,192,58330,12,4,61165,0:0:0:0:
152,128,62110,6,0,B|160:72|224:56|256:80,2,120,0|0|0,0:0|0:0|0:0,0:0:0:0:
236,176,63527,2,0,P|296:156|368:176,1,120,8|0,0:0|0:0,0:0:0:0:
308,252,64472,2,0,P|364:284|436:284,2,120,8|0|8,0:0|0:0|0:0,0:0:0:0:
296,156,65889,1,0,0:0:0:0:
284,60,66362,6,0,B|372:60|404:156|428:60|540:60,1,240,8|8,0:0|0:0,0:0:0:0:
508,160,67779,2,8,B|452:204|460:256|460:256|484:352|420:376,1,240
328,344,69197,1,0,0:0:0:0:
236,312,69669,6,8,L|136:245,2,120,8|0|8,0:0|0:0|0:0,0:0:0:0:
248,216,71087,2,8,L|144:148,2,120,8|0|8,0:0|0:0|0:0,0:0:0:0:
316,148,72504,1,0,0:0:0:0:
192,48,73449,6,0,P|128:40|60:52,1,120,8|0,0:0|0:0,0:0:0:0:
64,144,74393,1,2,0:0:0:0:
152,172,74866,1,2,0:0:0:0:
212,244,75338,2,4,P|316:256|384:200,2,180,4|4|4,0:0|0:0|0:0,0:0:0:0:
104,112,92346,5,0,0:0:0:0:
188,156,92819,1,0,0:0:0:0:
284,156,93291,1,0,0:0:0:0:
336,236,93764,1,0,0:0:0:0:
272,308,94236,2,8,P|216:268|152:300,1,120,0|8,0:0|0:0,0:0:0:0:
80,244,95181,2,8,P|76:308|112:356,1,120
256,192,96126,12,4,99905,0:0:0:0:
128,64,100378,6,8,L|248:64|256:64,1,120
344,64,101323,2,0,P|304:140|256:160,1,120
180,160,102268,1,8,0:0:0:0:
144,192,102504,1,8,0:0:0:0:
148,240,102740,1,8,0:0:0:0:
216,308,103212,5,0,0:0:0:0:
300,356,103685,2,0,P|320:300|292:244,1,120
264,156,104630,1,0,0:0:0:0:
348,112,105102,2,0,L|384:64,2,60,0|0|0,0:0|0:0|0:0,0:0:0:0:
380,200,106047,2,0,P|437:215|495:199,1,120,0|8,0:0|0:0,0:0:0:0:
484,296,106992,1,0,0:0:0:0:
396,332,107465,1,0,0:0:0:0:
308,328,107937,6,0,B|252:384|180:352,2,120
232,268,109354,1,0,0:0:0:0:
160,204,109827,2,8,L|88:156,2,60,8|0|8,0:0|0:0|0:0,0:0:0:0:
232,268,110772,2,0,P|360:276|400:176,2,240,8|0|0,0:0|0:0|0:0,0:0:0:0:
300,196,113134,5,0,0:0:0:0:
204,188,113606,1,0,0:0:0:0:
136,256,114079,1,0,0:0:0:0:
40,256,114551,1,0,0:0:0:0:
20,164,115023,6,0,P|26:105|72:56,1,120,4|0,0:0|0:0,0:0:0:0:
132,148,115968,2,0,P|186:167|211:221,1,120
116,236,116913,2,0,P|48:288|52:336,1,120
136,320,117858,1,2,0:0:0:0:
216,268,118331,1,2,0:0:0:0:
304,232,118803,6,8,P|340:316|372:348,1,120
448,304,119748,2,8,L|480:176,1,120
508,96,120693,1,0,0:0:0:0:
416,92,121165,1,0,0:0:0:0:
320,80,121638,1,2,0:0:0:0:
224,96,122110,1,2,0:0:0:0:
128,88,122583,6,0,L|64:200,1,120,4|0,0:0|0:0,0:0:0:0:
80,288,123527,2,2,L|80:368,2,60,0|0|0,0:0|0:0|0:0,0:0:0:0:
164,240,124472,6,0,L|308:240,1,120
368,192,125417,2,2,L|424:148,2,60,0|0|0,0:0|0:0|0:0,0:0:0:0:
420,272,126362,6,0,P|400:340|340:356,2,120,0|0|0,0:0|0:0|0:0,0:0:0:0:
456,184,127779,2,0,P|451:125|400:84,2,120,0|0|0,0:0|0:0|0:0,0:0:0:0:
360,172,129197,1,4,0:0:0:0:
208,52,130141,6,8,L|248:188,2,120,8|0|8,0:0|0:0|0:0,0:0:0:0:
148,128,131559,2,0,L|148:252,1,120,0|8,0:0|0:0,0:0:0:0:
52,256,132504,6,8,P|72:312|124:344,1,120,0|8,0:0|0:0,0:0:0:0:
216,352,133449,1,0,0:0:0:0:
312,344,133921,2,8,P|424:296|412:176,1,240
360,120,135338,2,0,B|280:120|248:80|248:80|216:120|136:120,2,240
444,168,137700,6,0,L|444:288,2,120,8|0|8,0:0|0:0|0:0,0:0:0:0:
348,180,139118,1,0,0:0:0:0:
312,92,139590,1,0,0:0:0:0:
216,88,140063,1,0,0:0:0:0:
128,124,140535,1,0,0:0:0:0:
4,272,141480,6,0,P|50:308|109:312,1,120,0|8,0:0|0:0,0:0:0:0:
200,280,142425,1,8,0:0:0:0:
212,184,142897,1,8,0:0:0:0:
292,132,143370,2,0,P|245:95|186:91,2,120,0|0|0,0:0|0:0|0:0,0:0:0:0:
388,144,144787,1,4,0:0:0:0:
292,132,145260,5,0,0:0:0:0:
112,176,152819,6,0,P|192:128|240:136,1,120
192,216,153763,2,0,P|224:276|280:304,1,120
296,208,154708,2,0,P|356:200|412:236,2,120
328,288,156126,2,0,P|264:304|216:280,2,120
256,192,157543,12,0,159433,0:0:0:0:
48,80,159905,6,0,B|112:56|128:96|160:168|200:96|240:56|296:80,1,240
360,112,161323,2,0,P|320:156|240:160,2,120
432,48,162740,2,0,P|488:72|504:144,1,120
500,220,163685,2,0,L|428:212,1,60
396,240,164157,6,0,L|296:336,1,120,8|0,0:0|0:0,0:0:0:0:
240,256,165102,2,0,L|236:116,1,120,8|0,0:0|0:0,0:0:0:0:
184,56,166047,2,0,B|248:20|304:72|304:72|424:76,1,240
384,168,167464,1,0,0:0:0:0:
320,240,167937,6,4,L|202:266,1,120,4|12,0:0|0:0,0:0:0:0:
128,328,168882,2,0,P|104:260|124:208,1,120,0|8,0:0|0:0,0:0:0:0:
32,260,169827,2,8,P|149:265|239:190,1,240
148,156,171244,1,0,0:0:0:0:
148,156,171716,6,8,P|156:88|128:40,1,120,0|8,0:0|0:0,0:0:0:0:
68,108,172661,2,8,L|-8:140,2,60,8|0|8,0:0|0:0|0:0,0:0:0:0:
28,196,173606,6,8,L|28:260,2,60,8|0|8,0:0|0:0|0:0,0:0:0:0:
120,220,174551,1,8,0:0:0:0:
212,240,175023,1,8,0:0:0:0:
264,320,175496,6,0,P|311:211|300:92,1,240,4|0,0:0|0:0,0:0:0:0:
396,92,176913,1,0,0:0:0:0:
400,188,177386,2,0,P|272:184|171:134,1,240
108,204,178803,1,0,0:0:0:0:
12,200,179275,6,8,P|36:264|84:296,2,120
48,112,180693,2,0,P|120:64|136:24,1,120
220,76,181638,2,0,P|327:117|358:229,1,240
280,284,183055,6,0,P|368:320|504:264,1,240
504,176,184472,1,0,0:0:0:0:
508,80,184945,2,0,P|401:30|290:66,1,240
196,64,186362,1,0,0:0:0:0:
100,68,186834,6,0,P|128:132|192:160,1,120
260,132,187779,1,0,0:0:0:0:
256,192,188252,12,4,190614,0:0:0:0:
