osu file format v12

[General]
AudioFilename: O.M. Keleus ft. Hatsune Miku - Oplosan.mp3
AudioLeadIn: 0
PreviewTime: -1
Countdown: 1
SampleSet: Soft
StackLeniency: 0.7
Mode: 3
LetterboxInBreaks: 1
SpecialStyle: 0
WidescreenStoryboard: 1

[Editor]
DistanceSpacing: 0.8
BeatDivisor: 4
GridSize: 8
TimelineZoom: 1

[Metadata]
Title:Oplosan - Hatsune Miku
TitleUnicode:Oplosan - Hatsune Miku
Artist:Oplosan - O.M. Keleus ft. Hatsune Miku . Intel007 (Mix)
ArtistUnicode:Oplosan - O.M. Keleus ft. Hatsune Miku . Intel007 (Mix)
Creator:faiz007
Version:6k HD
Source:
Tags:Oplosan
BeatmapID:363851
BeatmapSetID:146889

[Difficulty]
HPDrainRate:7
CircleSize:6
OverallDifficulty:9
ApproachRate:5
SliderMultiplier:2
SliderTickRate:3

[Events]
//Background and Video events
0,0,"Miku osu.jpg",0,0
//Break Periods
2,16037,20005
2,60247,80637
2,161300,183584
//Storyboard Layer 0 (Background)
//Storyboard Layer 1 (Fail)
//Storyboard Layer 2 (Pass)
//Storyboard Layer 3 (Foreground)
//Storyboard Sound Samples
//Background Colour Transformations
3,100,163,162,255

[TimingPoints]
4468.73684210526,631.578947368421,4,2,1,100,1,0
62355,-50,4,2,1,100,0,0
93527,-100,4,2,1,100,0,0
98898,-50,4,2,1,100,0,0
139328,-200,4,2,1,100,0,0
141612,-50,4,2,1,100,0,0
155450,-200,4,2,1,100,0,0
157060,-50,4,2,1,100,0,0
265310,-500,4,2,1,100,0,0

[HitObjects]
64,192,47,5,0,0:0:0:0:
192,192,47,1,0,0:0:0:0:
320,192,205,1,0,0:0:0:0:
320,192,521,1,0,0:0:0:0:
64,192,679,1,0,0:0:0:0:
192,192,679,1,0,0:0:0:0:
320,192,995,1,0,0:0:0:0:
192,192,1310,128,0,1468:0:0:0:0:
469,192,1626,1,0,0:0:0:0:
298,192,1784,128,0,1942:0:0:0:0:
128,192,2100,1,0,0:0:0:0:
384,192,2258,1,0,0:0:0:0:
469,192,2258,1,0,0:0:0:0:
384,192,2573,128,0,4468:0:0:0:0:
128,192,2573,1,2,0:0:0:0:
213,192,2889,1,2,0:0:0:0:
42,192,3205,1,2,0:0:0:0:
213,192,3363,1,2,0:0:0:0:
128,192,3679,1,2,0:0:0:0:
298,192,3995,1,2,0:0:0:0:
42,192,4152,1,2,0:0:0:0:
298,192,4468,1,2,0:0:0:0:
128,192,5100,1,0,0:0:0:0:
213,192,5100,1,0,0:0:0:0:
298,192,5100,1,0,0:0:0:0:
384,192,5416,128,0,6995:0:0:0:0:
128,192,5731,1,2,0:0:0:0:
298,192,5889,1,2,0:0:0:0:
128,192,6047,1,2,0:0:0:0:
128,192,6363,1,2,0:0:0:0:
298,192,6521,1,2,0:0:0:0:
298,192,6995,1,2,0:0:0:0:
42,192,7310,128,0,9205:0:0:0:0:
469,192,7310,128,0,9205:0:0:0:0:
384,192,7626,1,0,0:0:0:0:
298,192,7626,1,0,0:0:0:0:
213,192,7626,1,0,0:0:0:0:
128,192,7626,1,0,0:0:0:0:
128,192,7942,1,2,0:0:0:0:
384,192,8258,1,2,0:0:0:0:
213,192,8416,1,2,0:0:0:0:
298,192,8731,1,2,0:0:0:0:
128,192,9047,1,2,0:0:0:0:
213,192,9205,1,2,0:0:0:0:
298,192,9837,1,0,0:0:0:0:
384,192,9837,1,0,0:0:0:0:
128,192,10152,1,0,0:0:0:0:
213,192,10152,1,0,0:0:0:0:
298,192,10468,1,2,0:0:0:0:
42,192,10784,1,2,0:0:0:0:
469,192,10942,1,2,0:0:0:0:
469,192,11258,1,2,0:0:0:0:
42,192,11573,1,2,0:0:0:0:
128,192,11731,1,2,0:0:0:0:
384,192,12363,128,0,14573:0:0:0:0:
213,192,12363,1,4,2:0:0:0:
213,192,12679,1,0,0:0:0:0:
213,192,12995,1,4,2:0:0:0:
213,192,13310,1,0,0:0:0:0:
213,192,13626,1,4,2:0:0:0:
213,192,13942,1,0,0:0:0:0:
213,192,14258,1,4,2:0:0:0:
213,192,14573,1,0,0:0:0:0:
128,192,14889,1,4,2:0:0:0:
128,192,15205,1,0,2:0:0:0:
128,192,15521,1,4,2:0:0:0:
128,192,15837,1,0,2:0:0:0:
128,192,21205,5,2,0:0:0:0:
298,192,21205,1,2,0:0:0:0:
469,192,21363,128,0,22784:0:0:0:0:
384,192,21363,128,0,22784:0:0:0:0:
42,192,21521,1,2,0:0:0:0:
213,192,21521,1,2,0:0:0:0:
298,192,21837,1,2,0:0:0:0:
213,192,21995,1,2,0:0:0:0:
42,192,22468,1,2,0:0:0:0:
128,192,22626,1,2,0:0:0:0:
213,192,22784,1,2,0:0:0:0:
384,192,23100,1,0,0:0:0:0:
469,192,23100,1,0,0:0:0:0:
213,192,23258,1,0,0:0:0:0:
128,192,23258,1,0,0:0:0:0:
42,192,23416,1,0,0:0:0:0:
384,192,23573,128,0,24679:0:0:0:0:
469,192,23573,128,0,24679:0:0:0:0:
42,192,24047,1,4,0:0:0:0:
128,192,24047,1,4,0:0:0:0:
213,192,24047,1,4,0:0:0:0:
298,192,24047,1,4,0:0:0:0:
384,192,25310,1,0,0:0:0:0:
298,192,25626,1,0,0:0:0:0:
213,192,25784,1,0,0:0:0:0:
128,192,25942,1,0,0:0:0:0:
469,192,26258,1,0,0:0:0:0:
384,192,26258,1,0,0:0:0:0:
42,192,26416,1,2,0:0:0:0:
213,192,26416,1,2,0:0:0:0:
298,192,26416,1,2,0:0:0:0:
469,192,26731,128,0,27837:0:0:0:0:
298,192,26731,1,2,0:0:0:0:
213,192,26889,1,2,0:0:0:0:
42,192,27047,1,0,0:0:0:0:
384,192,27205,1,2,0:0:0:0:
298,192,27205,1,2,0:0:0:0:
128,192,27521,128,0,27837:0:0:0:0:
213,192,27521,128,0,27837:0:0:0:0:
298,192,27837,128,0,30363:0:0:0:0:
384,192,27837,128,0,30363:0:0:0:0:
128,192,28152,1,2,0:0:0:0:
469,192,28310,1,2,0:0:0:0:
128,192,28626,1,2,0:0:0:0:
469,192,28942,1,0,0:0:0:0:
128,192,29100,1,0,0:0:0:0:
469,192,29416,1,2,0:0:0:0:
213,192,29573,1,2,0:0:0:0:
128,192,29889,1,2,0:0:0:0:
213,192,30205,1,0,0:0:0:0:
469,192,30363,1,2,0:0:0:0:
128,192,30363,1,4,0:0:0:0:
384,192,30837,1,0,0:0:0:0:
298,192,30995,1,0,0:0:0:0:
469,192,31310,1,2,2:2:0:0:
384,192,31468,1,2,2:2:0:0:
298,192,31626,1,2,2:2:0:0:
213,192,31784,1,2,2:2:0:0:
128,192,31942,1,2,2:2:0:0:
42,192,32100,1,2,2:2:0:0:
128,192,32258,1,2,2:2:0:0:
213,192,32416,1,2,2:2:0:0:
298,192,32574,1,2,2:2:0:0:
384,192,32731,1,2,2:2:0:0:
469,192,32889,1,2,2:2:0:0:
298,192,32889,128,6,34784:2:2:0:0:
213,192,32889,128,6,34784:2:2:0:0:
42,192,33521,1,4,2:0:0:0:
42,192,33837,1,0,0:0:0:0:
42,192,34152,1,4,2:0:0:0:
42,192,34468,1,0,0:0:0:0:
42,192,34784,1,4,2:0:0:0:
42,192,35100,1,0,0:0:0:0:
42,192,35416,1,4,2:0:0:0:
42,192,35731,1,0,0:0:0:0:
42,192,36047,1,4,2:0:0:0:
298,192,36363,128,2,36679:0:0:0:0:
469,192,36363,128,0,36679:0:0:0:0:
213,192,36995,1,4,2:0:0:0:
469,192,36995,1,4,2:0:0:0:
128,192,37310,1,0,0:0:0:0:
469,192,37310,1,0,0:0:0:0:
213,192,37626,1,4,2:0:0:0:
384,192,37942,1,0,0:0:0:0:
298,192,37942,1,0,0:0:0:0:
469,192,38258,128,4,39837:2:0:0:0:
42,192,38258,128,2,39837:2:0:0:0:
213,192,38731,1,0,0:0:0:0:
298,192,38731,1,0,0:0:0:0:
128,192,39047,1,2,0:0:0:0:
384,192,39047,1,2,0:0:0:0:
298,192,39205,128,0,39837:0:0:0:0:
213,192,39205,128,0,39837:0:0:0:0:
128,192,39995,1,0,0:0:0:0:
384,192,39995,1,0,0:0:0:0:
128,192,40310,1,2,0:0:0:0:
384,192,40310,1,2,0:0:0:0:
213,192,40468,1,0,0:0:0:0:
298,192,40468,1,0,0:0:0:0:
469,192,40784,128,0,41731:0:0:0:0:
42,192,40942,128,0,41731:0:0:0:0:
128,192,41731,1,0,0:0:0:0:
384,192,41731,1,0,0:0:0:0:
213,192,41889,1,0,0:0:0:0:
298,192,42205,1,0,0:0:0:0:
469,192,42521,1,0,0:0:0:0:
384,192,42679,1,0,0:0:0:0:
128,192,42837,128,0,43784:0:0:0:0:
213,192,42837,128,0,43784:0:0:0:0:
298,192,42995,1,0,0:0:0:0:
384,192,42995,1,0,0:0:0:0:
469,192,42995,1,0,0:0:0:0:
384,192,44100,1,0,0:0:0:0:
298,192,44100,1,0,0:0:0:0:
469,192,44416,1,0,0:0:0:0:
213,192,44416,1,0,0:0:0:0:
42,192,44731,1,0,0:0:0:0:
298,192,44731,1,0,0:0:0:0:
128,192,45047,1,0,0:0:0:0:
213,192,45047,1,0,0:0:0:0:
384,192,45521,1,0,0:0:0:0:
298,192,45837,1,0,0:0:0:0:
213,192,45995,1,0,0:0:0:0:
128,192,46153,1,0,0:0:0:0:
384,192,46469,1,0,0:0:0:0:
469,192,46469,1,0,0:0:0:0:
298,192,46627,1,2,0:0:0:0:
213,192,46627,1,2,0:0:0:0:
42,192,46627,1,2,0:0:0:0:
469,192,46942,128,0,48048:0:0:0:0:
298,192,46942,1,2,0:0:0:0:
213,192,47100,1,2,0:0:0:0:
42,192,47258,1,0,0:0:0:0:
298,192,47416,1,2,0:0:0:0:
384,192,47416,1,2,0:0:0:0:
128,192,47731,128,0,48047:0:0:0:0:
213,192,47731,128,0,48047:0:0:0:0:
298,192,48047,128,0,50573:0:0:0:0:
384,192,48047,128,0,50573:0:0:0:0:
128,192,48362,1,2,0:0:0:0:
469,192,48520,1,2,0:0:0:0:
128,192,48836,1,2,0:0:0:0:
469,192,49152,1,0,0:0:0:0:
128,192,49310,1,0,0:0:0:0:
469,192,49626,1,2,0:0:0:0:
213,192,49783,1,2,0:0:0:0:
128,192,50099,1,2,0:0:0:0:
213,192,50415,1,0,0:0:0:0:
128,192,50573,1,4,0:0:0:0:
469,192,50573,1,2,0:0:0:0:
384,192,51047,1,0,0:0:0:0:
298,192,51205,1,0,0:0:0:0:
469,192,51520,1,2,1:0:0:0:
384,192,51678,1,2,2:0:0:0:
298,192,51836,1,2,1:0:0:0:
213,192,51994,1,2,2:0:0:0:
128,192,52152,1,2,1:0:0:0:
42,192,52310,1,2,2:0:0:0:
128,192,52468,1,2,1:0:0:0:
213,192,52626,1,2,2:0:0:0:
298,192,52784,1,2,1:0:0:0:
384,192,52941,1,2,2:0:0:0:
213,192,53099,128,4,54994:0:0:0:0:
298,192,53099,128,4,54994:0:0:0:0:
469,192,53099,1,2,1:0:0:0:
42,192,53731,1,4,2:0:0:0:
42,192,54047,1,0,0:0:0:0:
42,192,54362,1,4,2:0:0:0:
42,192,54678,1,0,0:0:0:0:
42,192,54994,1,4,2:0:0:0:
42,192,55310,1,0,0:0:0:0:
42,192,55626,1,4,2:0:0:0:
42,192,55941,1,0,0:0:0:0:
42,192,56258,1,4,2:0:0:0:
42,192,56574,1,0,0:0:0:0:
42,192,56891,1,4,2:0:0:0:
42,192,57205,1,0,0:0:0:0:
42,192,57522,1,4,2:0:0:0:
42,192,57837,1,0,0:0:0:0:
128,192,58152,128,4,60047:0:0:0:0:
469,192,58152,128,0,60047:0:0:0:0:
42,192,58154,1,4,2:0:0:0:
298,192,58468,1,2,0:0:0:0:
213,192,58784,1,4,2:0:0:0:
384,192,59100,1,2,0:0:0:0:
298,192,59416,1,4,2:0:0:0:
213,192,59731,1,2,0:0:0:0:
384,192,60047,1,4,2:0:0:0:
42,192,81837,5,0,0:0:0:0:
213,192,82152,1,2,0:0:0:0:
298,192,82152,1,2,0:0:0:0:
469,192,82468,1,0,0:0:0:0:
384,192,82626,1,2,0:0:0:0:
42,192,82942,1,0,0:0:0:0:
128,192,83100,1,2,0:0:0:0:
213,192,83416,128,0,84205:0:0:0:0:
298,192,83416,128,0,84205:0:0:0:0:
469,192,83416,1,4,2:0:0:0:
469,192,83731,1,0,0:0:0:0:
469,192,84047,1,4,2:0:0:0:
469,192,84363,1,0,0:0:0:0:
128,192,84521,1,4,0:0:0:0:
469,192,84679,1,4,2:0:0:0:
128,192,84837,1,4,0:0:0:0:
469,192,84995,1,0,0:0:0:0:
128,192,85152,1,4,0:1:0:0:
469,192,85310,1,4,2:0:0:0:
384,192,85942,1,0,0:0:0:0:
298,192,86258,1,0,0:0:0:0:
213,192,86416,1,0,0:0:0:0:
128,192,86574,1,2,0:0:0:0:
384,192,86890,1,0,0:0:0:0:
469,192,86890,1,0,0:0:0:0:
213,192,87047,1,2,0:0:0:0:
298,192,87047,1,2,0:0:0:0:
42,192,87048,1,2,0:0:0:0:
298,192,87363,1,2,0:0:0:0:
469,192,87363,128,0,88469:0:0:0:0:
213,192,87521,1,2,0:0:0:0:
42,192,87679,1,0,0:0:0:0:
384,192,87837,1,2,0:0:0:0:
298,192,87837,1,2,0:0:0:0:
213,192,88152,128,0,88468:0:0:0:0:
128,192,88152,128,0,88468:0:0:0:0:
298,192,88468,128,0,90994:0:0:0:0:
384,192,88468,128,0,90994:0:0:0:0:
128,192,88783,1,2,0:0:0:0:
469,192,88941,1,2,0:0:0:0:
128,192,89257,1,2,0:0:0:0:
469,192,89573,1,0,0:0:0:0:
128,192,89731,1,0,0:0:0:0:
469,192,90047,1,2,0:0:0:0:
213,192,90204,1,2,0:0:0:0:
128,192,90520,1,2,0:0:0:0:
213,192,90836,1,0,0:0:0:0:
128,192,90994,1,4,0:0:0:0:
469,192,90994,1,2,0:0:0:0:
384,192,91468,1,0,0:0:0:0:
298,192,91626,1,0,0:0:0:0:
469,192,91941,1,2,1:0:0:0:
384,192,92099,1,2,2:0:0:0:
298,192,92257,1,2,1:0:0:0:
213,192,92415,1,2,2:0:0:0:
128,192,92573,1,2,1:0:0:0:
42,192,92731,1,2,2:0:0:0:
128,192,92889,1,2,1:0:0:0:
213,192,93047,1,2,2:0:0:0:
298,192,93205,1,2,1:0:0:0:
384,192,93362,1,2,2:0:0:0:
469,192,93520,1,2,1:0:0:0:
213,192,93520,128,4,95415:0:0:0:0:
298,192,93520,128,4,95415:0:0:0:0:
42,192,93837,1,4,2:0:0:0:
42,192,94153,1,0,0:0:0:0:
42,192,94468,1,4,2:0:0:0:
42,192,94784,1,0,0:0:0:0:
42,192,95100,1,4,2:0:0:0:
42,192,95416,1,0,0:0:0:0:
42,192,95732,1,4,2:0:0:0:
42,192,96047,1,0,0:0:0:0:
42,192,96363,1,4,2:0:0:0:
469,192,96679,1,0,0:0:0:0:
298,192,96679,1,0,0:0:0:0:
384,192,96995,1,0,0:0:0:0:
213,192,96995,1,4,2:0:0:0:
298,192,97310,1,0,0:0:0:0:
213,192,97626,1,4,2:0:0:0:
384,192,97626,1,0,0:0:0:0:
469,192,97942,1,0,0:0:0:0:
384,192,98258,1,4,2:0:0:0:
42,192,98574,128,0,100152:0:0:0:0:
128,192,98574,128,0,100152:0:0:0:0:
213,192,98574,1,2,0:0:0:0:
469,192,98889,1,4,2:0:0:0:
469,192,99205,1,2,0:0:0:0:
469,192,99521,1,4,2:0:0:0:
469,192,99837,1,2,0:0:0:0:
469,192,100152,1,0,0:0:0:0:
384,192,100310,1,0,0:0:0:0:
298,192,100468,1,0,0:0:0:0:
213,192,100626,1,0,0:0:0:0:
128,192,100784,1,0,0:0:0:0:
42,192,100942,1,0,0:0:0:0:
213,192,101100,128,2,102047:0:0:0:0:
298,192,101100,128,2,102047:0:0:0:0:
42,192,102047,1,0,0:0:0:0:
384,192,102363,1,2,0:0:0:0:
128,192,102521,1,2,0:0:0:0:
384,192,102837,1,2,0:0:0:0:
469,192,102837,1,2,0:0:0:0:
42,192,103152,1,0,0:0:0:0:
213,192,103310,1,2,0:0:0:0:
213,192,103626,128,0,104889:0:0:0:0:
469,192,103626,128,0,104889:0:0:0:0:
384,192,104574,1,0,0:0:0:0:
384,192,104889,1,0,0:0:0:0:
298,192,105205,1,2,0:0:0:0:
128,192,105363,1,2,0:0:0:0:
213,192,105679,1,0,0:0:0:0:
469,192,105995,1,0,0:0:0:0:
384,192,106152,1,2,0:0:0:0:
42,192,106152,128,0,108205:0:0:0:0:
213,192,106468,1,2,0:0:0:0:
298,192,106468,1,2,0:0:0:0:
469,192,106784,1,2,0:0:0:0:
128,192,106942,128,0,108205:0:0:0:0:
298,192,107100,1,0,0:0:0:0:
384,192,107258,128,2,108205:0:0:0:0:
298,192,108363,1,0,0:0:0:0:
213,192,108363,1,0,0:0:0:0:
128,192,108679,128,0,109942:0:0:0:0:
384,192,108995,1,4,2:0:0:0:
469,192,108995,1,0,0:0:0:0:
384,192,109626,1,4,2:0:0:0:
469,192,109626,1,0,0:0:0:0:
384,192,110258,1,4,2:0:0:0:
469,192,110258,1,0,0:0:0:0:
384,192,110889,1,4,2:0:0:0:
469,192,110889,1,0,0:0:0:0:
42,192,111047,1,0,0:0:0:0:
128,192,111047,1,0,0:0:0:0:
213,192,111205,128,0,113731:0:0:0:0:
384,192,111679,1,0,0:0:0:0:
469,192,111837,128,0,113731:0:0:0:0:
384,192,112310,1,0,0:0:0:0:
298,192,112468,1,2,0:0:0:0:
128,192,112626,1,0,0:0:0:0:
384,192,112784,1,0,0:0:0:0:
298,192,112942,1,2,0:0:0:0:
128,192,113100,1,0,0:0:0:0:
384,192,113258,1,0,0:0:0:0:
298,192,113416,1,2,0:0:0:0:
128,192,113574,1,2,0:0:0:0:
384,192,113731,1,2,0:0:0:0:
42,192,114679,1,4,2:0:0:0:
128,192,114679,1,0,0:0:0:0:
42,192,114995,1,0,0:0:0:0:
128,192,114995,1,0,0:0:0:0:
42,192,115310,1,4,2:0:0:0:
128,192,115310,1,0,0:0:0:0:
42,192,115626,1,0,2:0:0:0:
128,192,115626,1,0,0:0:0:0:
42,192,115942,1,4,2:0:0:0:
128,192,115942,1,0,0:0:0:0:
213,192,116258,128,0,118152:2:0:0:0:
469,192,116574,1,4,2:0:0:0:
469,192,116889,1,0,0:0:0:0:
469,192,117205,1,4,2:0:0:0:
469,192,117521,1,0,0:0:0:0:
469,192,117837,1,4,2:0:0:0:
469,192,118152,1,0,0:0:0:0:
384,192,118468,1,2,0:0:0:0:
298,192,118468,1,2,0:0:0:0:
42,192,118626,128,2,120047:0:0:0:0:
128,192,118626,128,2,120047:0:0:0:0:
298,192,118784,1,2,0:0:0:0:
384,192,118784,1,0,0:0:0:0:
469,192,119100,1,4,2:0:0:0:
469,192,119416,1,0,0:0:0:0:
469,192,119731,1,4,2:0:0:0:
469,192,120047,1,0,0:0:0:0:
384,192,120363,128,0,121942:0:0:0:0:
213,192,120363,128,0,121942:0:0:0:0:
42,192,123205,128,0,125100:0:0:0:0:
213,192,123837,1,0,0:0:0:0:
384,192,124152,1,0,0:0:0:0:
469,192,124468,1,2,0:0:0:0:
298,192,124626,1,2,0:0:0:0:
128,192,124942,128,0,125100:0:0:0:0:
384,192,125731,1,0,0:0:0:0:
469,192,125731,1,0,0:0:0:0:
213,192,126047,1,0,0:0:0:0:
384,192,126047,1,0,0:0:0:0:
298,192,126363,1,0,0:0:0:0:
213,192,126363,1,0,0:0:0:0:
298,192,126679,1,0,0:0:0:0:
469,192,126679,1,0,0:0:0:0:
384,192,126995,1,0,0:0:0:0:
42,192,127310,128,2,127468:0:0:0:0:
213,192,127626,128,0,128889:0:0:0:0:
298,192,127626,128,0,128889:0:0:0:0:
42,192,127784,1,2,0:0:0:0:
128,192,127942,1,2,0:0:0:0:
384,192,128100,1,0,0:0:0:0:
469,192,128100,1,0,0:0:0:0:
128,192,128258,1,2,0:0:0:0:
128,192,128574,128,0,128889:0:0:0:0:
384,192,129205,1,2,0:0:0:0:
469,192,129205,1,0,0:0:0:0:
298,192,129521,128,0,129837:0:0:0:0:
128,192,129837,128,2,130152:0:0:0:0:
469,192,130152,128,0,130468:0:0:0:0:
42,192,130784,128,0,131100:0:0:0:0:
213,192,131100,128,0,131416:0:0:0:0:
298,192,131100,128,0,131416:0:0:0:0:
469,192,131416,128,0,131731:0:0:0:0:
128,192,131889,128,0,132995:0:0:0:0:
298,192,132047,1,0,0:0:0:0:
384,192,132047,1,2,0:0:0:0:
298,192,132205,1,0,0:0:0:0:
384,192,132205,1,2,0:0:0:0:
298,192,132363,1,0,0:0:0:0:
384,192,132363,1,2,0:0:0:0:
469,192,132679,1,0,0:0:0:0:
298,192,132837,1,0,0:0:0:0:
213,192,132837,1,0,0:0:0:0:
213,192,132995,1,0,0:0:0:0:
298,192,132995,1,0,0:0:0:0:
384,192,133310,128,0,135205:0:0:0:0:
213,192,133942,1,0,0:0:0:0:
42,192,134258,1,4,2:0:0:0:
213,192,134574,1,0,0:0:0:0:
42,192,134889,1,4,2:0:0:0:
213,192,135205,128,0,136468:0:0:0:0:
469,192,135521,1,4,2:0:0:0:
298,192,135837,1,0,0:0:0:0:
469,192,136152,1,4,2:0:0:0:
298,192,136468,1,0,0:0:0:0:
128,192,136784,128,0,137416:0:0:0:0:
42,192,136784,128,0,137416:0:0:0:0:
384,192,137416,128,0,137731:0:0:0:0:
469,192,137416,128,0,137731:0:0:0:0:
42,192,137731,128,0,138047:0:0:0:0:
128,192,137731,128,0,138047:0:0:0:0:
384,192,138047,128,0,138363:0:0:0:0:
469,192,138047,128,0,138363:0:0:0:0:
42,192,138363,128,0,138679:0:0:0:0:
128,192,138363,128,0,138679:0:0:0:0:
469,192,138679,128,0,138995:0:0:0:0:
384,192,138679,128,0,138995:0:0:0:0:
42,192,138995,128,0,140889:0:0:0:0:
128,192,138995,128,0,140889:0:0:0:0:
298,192,139310,1,4,2:0:0:0:
384,192,139626,1,0,0:0:0:0:
298,192,139942,1,4,2:0:0:0:
384,192,140258,1,0,0:0:0:0:
298,192,140574,1,4,2:0:0:0:
384,192,140889,1,0,0:0:0:0:
298,192,141205,1,4,2:0:0:0:
384,192,141521,1,0,0:0:0:0:
298,192,141837,1,4,2:0:0:0:
384,192,142152,1,0,0:0:0:0:
298,192,142468,1,4,2:0:0:0:
384,192,142784,1,0,0:0:0:0:
213,192,142784,1,0,0:0:0:0:
298,192,143100,1,0,0:0:0:0:
384,192,143258,1,2,0:0:0:0:
469,192,143258,1,2,0:0:0:0:
42,192,143416,128,0,144047:0:0:0:0:
298,192,143574,1,0,0:0:0:0:
384,192,143731,1,2,0:0:0:0:
469,192,143731,1,2,0:0:0:0:
298,192,144047,1,0,0:0:0:0:
384,192,144047,1,2,0:0:0:0:
469,192,144047,1,2,0:0:0:0:
213,192,144363,128,0,144679:0:0:0:0:
469,192,144679,128,0,144995:0:0:0:0:
298,192,144995,128,0,145310:0:0:0:0:
42,192,145310,128,0,145942:0:0:0:0:
128,192,145310,128,0,145942:0:0:0:0:
384,192,145942,1,0,0:0:0:0:
298,192,146258,1,0,0:0:0:0:
469,192,146574,1,0,0:0:0:0:
42,192,146889,128,2,147521:0:0:0:0:
128,192,146889,128,0,147521:0:0:0:0:
213,192,147205,128,0,147995:0:0:0:0:
298,192,147205,128,0,147995:0:0:0:0:
384,192,147679,1,2,0:0:0:0:
469,192,147679,1,2,0:0:0:0:
469,192,148152,1,0,0:0:0:0:
384,192,148310,1,0,0:0:0:0:
469,192,148468,1,0,0:0:0:0:
42,192,148784,1,2,0:0:0:0:
42,192,148942,1,2,0:0:0:0:
42,192,149100,1,2,0:0:0:0:
128,192,149416,128,0,149731:0:0:0:0:
213,192,149731,128,0,150047:0:0:0:0:
298,192,150047,128,0,150363:0:0:0:0:
384,192,150363,128,0,150995:0:0:0:0:
128,192,150995,128,0,151310:0:0:0:0:
213,192,150995,128,0,151310:0:0:0:0:
42,192,151310,128,0,151626:0:0:0:0:
128,192,151626,1,0,0:0:0:0:
213,192,151626,1,4,2:0:0:0:
384,192,151942,1,0,0:0:0:0:
469,192,151942,1,0,0:0:0:0:
469,192,152258,1,0,0:0:0:0:
384,192,152258,1,4,2:0:0:0:
469,192,152574,1,0,0:0:0:0:
384,192,152574,1,0,0:0:0:0:
469,192,152889,1,0,0:0:0:0:
384,192,152889,1,4,2:0:0:0:
128,192,153521,128,0,156047:0:0:0:0:
298,192,154152,128,0,156047:0:0:0:0:
384,192,154784,128,0,156047:0:0:0:0:
213,192,155416,128,0,156047:0:0:0:0:
42,192,156363,1,2,0:0:0:0:
469,192,156363,1,2,2:0:0:0:
42,192,156679,1,2,0:0:0:0:
469,192,156679,1,2,2:0:0:0:
128,192,156995,128,0,157626:0:0:0:0:
298,192,157626,128,0,157942:0:0:0:0:
213,192,157942,128,0,158258:0:0:0:0:
384,192,158258,128,0,158574:0:0:0:0:
213,192,158574,128,0,158889:0:0:0:0:
128,192,158889,128,0,159205:0:0:0:0:
42,192,159205,128,0,159837:0:0:0:0:
469,192,159205,128,0,159837:0:0:0:0:
128,192,160152,1,2,0:0:0:0:
384,192,160152,1,2,0:0:0:0:
469,192,160468,128,0,161100:0:0:0:0:
42,192,160468,128,0,161100:0:0:0:0:
42,192,184784,5,0,0:0:0:0:
128,192,184784,1,4,2:0:0:0:
384,192,184784,1,0,0:0:0:0:
469,192,184784,1,0,0:0:0:0:
42,192,185416,1,0,0:0:0:0:
128,192,185416,1,4,2:0:0:0:
384,192,185416,1,0,0:0:0:0:
469,192,185416,1,0,0:0:0:0:
128,192,186047,1,4,2:0:0:0:
213,192,186047,1,0,0:0:0:0:
298,192,186047,1,0,0:0:0:0:
384,192,186047,1,0,0:0:0:0:
42,192,186679,1,4,2:0:0:0:
469,192,186679,1,0,0:0:0:0:
128,192,186995,1,0,0:0:0:0:
213,192,186995,1,0,0:0:0:0:
384,192,187310,1,2,0:0:0:0:
298,192,187310,1,2,0:0:0:0:
128,192,187468,1,0,0:0:0:0:
213,192,187468,1,0,0:0:0:0:
469,192,187626,1,2,0:0:0:0:
42,192,187626,128,0,188889:0:0:0:0:
213,192,187942,1,0,0:0:0:0:
298,192,187942,1,0,0:0:0:0:
469,192,188100,128,2,188889:0:0:0:0:
213,192,189205,1,4,2:0:0:0:
298,192,189205,1,0,0:0:0:0:
42,192,189837,1,0,0:0:0:0:
128,192,189837,1,4,2:0:0:0:
384,192,189837,1,0,0:0:0:0:
469,192,189837,1,0,0:0:0:0:
128,192,190468,1,4,2:0:0:0:
213,192,190468,1,4,2:0:0:0:
298,192,190468,1,0,0:0:0:0:
384,192,190468,1,0,0:0:0:0:
128,192,191100,1,4,2:0:0:0:
384,192,191100,1,0,0:0:0:0:
42,192,191731,1,6,2:0:0:0:
469,192,191731,1,0,0:0:0:0:
384,192,192047,1,0,0:0:0:0:
298,192,192205,1,0,0:0:0:0:
469,192,192520,1,2,1:0:0:0:
384,192,192678,1,2,2:0:0:0:
298,192,192836,1,2,1:0:0:0:
213,192,192994,1,2,2:0:0:0:
128,192,193152,1,2,1:0:0:0:
42,192,193310,1,2,2:0:0:0:
128,192,193468,1,2,1:0:0:0:
213,192,193626,1,2,2:0:0:0:
298,192,193784,1,2,1:0:0:0:
384,192,193941,1,2,2:0:0:0:
469,192,194099,1,2,1:0:0:0:
298,192,194100,128,4,195837:0:0:0:0:
213,192,194100,128,4,195837:0:0:0:0:
42,192,194574,128,0,195837:0:0:0:0:
469,192,196152,1,0,0:0:0:0:
384,192,196152,1,2,0:0:0:0:
213,192,196310,1,0,0:0:0:0:
42,192,196626,128,0,196942:0:0:0:0:
128,192,196626,128,0,196942:0:0:0:0:
298,192,197100,1,0,0:0:0:0:
384,192,197100,1,2,0:0:0:0:
469,192,197258,1,2,0:0:0:0:
298,192,198363,1,2,0:0:0:0:
469,192,198521,1,2,0:0:0:0:
128,192,198837,1,2,0:0:0:0:
298,192,199152,1,2,0:0:0:0:
42,192,199310,1,2,0:0:0:0:
213,192,199468,1,2,0:0:0:0:
128,192,199626,128,2,201521:0:0:0:0:
469,192,199626,128,4,201521:2:0:0:0:
384,192,199942,1,0,0:0:0:0:
42,192,199942,1,4,2:0:0:0:
42,192,200574,1,4,2:0:0:0:
384,192,200574,1,0,0:0:0:0:
384,192,201205,1,0,0:0:0:0:
42,192,201205,1,4,2:0:0:0:
42,192,201837,1,4,2:0:0:0:
384,192,201837,1,0,0:0:0:0:
42,192,202468,1,0,0:0:0:0:
128,192,202468,1,4,2:0:0:0:
298,192,202468,1,0,0:0:0:0:
384,192,202468,1,0,0:0:0:0:
128,192,203100,1,4,2:0:0:0:
213,192,203100,1,0,0:0:0:0:
384,192,203100,1,0,0:0:0:0:
469,192,203100,1,0,0:0:0:0:
469,192,203416,1,2,0:0:0:0:
384,192,203574,1,2,0:0:0:0:
213,192,203889,1,2,0:0:0:0:
128,192,204205,1,0,0:0:0:0:
42,192,204363,1,0,0:0:0:0:
384,192,204679,128,0,206574:0:0:0:0:
469,192,204679,128,0,206574:0:0:0:0:
42,192,204995,1,4,2:0:0:0:
213,192,204995,1,0,0:0:0:0:
42,192,205626,1,4,2:0:0:0:
213,192,205626,1,0,0:0:0:0:
42,192,206258,1,4,2:0:0:0:
213,192,206258,1,0,0:0:0:0:
42,192,206889,1,4,2:0:0:0:
213,192,206889,1,0,0:0:0:0:
384,192,207205,1,0,0:0:0:0:
298,192,207521,1,0,0:0:0:0:
213,192,207679,1,0,0:0:0:0:
128,192,207837,1,2,0:0:0:0:
469,192,208153,1,0,0:0:0:0:
384,192,208153,1,0,0:0:0:0:
213,192,208311,1,2,0:0:0:0:
42,192,208311,1,2,0:0:0:0:
298,192,208311,1,2,0:0:0:0:
298,192,208626,1,2,0:0:0:0:
469,192,208626,128,0,209732:0:0:0:0:
213,192,208784,1,2,0:0:0:0:
42,192,208942,1,0,0:0:0:0:
298,192,209100,1,2,0:0:0:0:
384,192,209100,1,2,0:0:0:0:
213,192,209416,128,0,209732:0:0:0:0:
128,192,209416,128,0,209732:0:0:0:0:
384,192,209731,128,0,212257:0:0:0:0:
298,192,209731,128,0,212257:0:0:0:0:
128,192,210046,1,2,0:0:0:0:
469,192,210204,1,2,0:0:0:0:
128,192,210520,1,2,0:0:0:0:
469,192,210836,1,0,0:0:0:0:
128,192,210994,1,0,0:0:0:0:
469,192,211310,1,2,0:0:0:0:
213,192,211467,1,2,0:0:0:0:
128,192,211784,1,2,0:0:0:0:
213,192,212100,1,0,0:0:0:0:
128,192,212258,1,4,0:0:0:0:
469,192,212258,1,2,0:0:0:0:
384,192,212732,1,0,0:0:0:0:
298,192,212890,1,0,0:0:0:0:
469,192,213205,1,2,1:0:0:0:
384,192,213363,1,2,2:0:0:0:
298,192,213521,1,2,1:0:0:0:
213,192,213679,1,2,2:0:0:0:
128,192,213837,1,2,1:0:0:0:
42,192,213995,1,2,2:0:0:0:
128,192,214153,1,2,1:0:0:0:
213,192,214311,1,2,2:0:0:0:
298,192,214469,1,2,1:0:0:0:
384,192,214626,1,2,2:0:0:0:
469,192,214784,1,2,1:0:0:0:
298,192,214784,128,4,216995:0:0:0:0:
213,192,214784,128,4,216995:0:0:0:0:
42,192,215100,1,4,2:0:0:0:
469,192,215100,1,0,0:0:0:0:
469,192,215731,1,0,0:0:0:0:
42,192,215731,1,4,2:0:0:0:
128,192,216363,1,4,2:0:0:0:
384,192,216363,1,0,0:0:0:0:
128,192,216995,1,4,2:0:0:0:
384,192,216995,1,0,0:0:0:0:
42,192,217626,128,0,218258:0:0:0:0:
469,192,217626,128,0,218258:0:0:0:0:
128,192,218574,1,0,0:0:0:0:
384,192,218889,1,0,0:0:0:0:
213,192,219205,1,0,0:0:0:0:
384,192,219521,1,0,0:0:0:0:
213,192,219837,128,0,220784:0:0:0:0:
42,192,220784,128,0,222679:0:0:0:0:
469,192,221416,1,4,2:0:0:0:
213,192,221731,128,0,222679:0:0:0:0:
469,192,222047,1,4,2:0:0:0:
469,192,222679,1,4,2:0:0:0:
42,192,223310,1,0,0:0:0:0:
128,192,223310,1,0,0:0:0:0:
384,192,223942,1,0,0:0:0:0:
469,192,223942,1,0,0:0:0:0:
128,192,224574,1,0,0:0:0:0:
213,192,224574,1,0,0:0:0:0:
42,192,224889,128,0,225205:0:0:0:0:
128,192,224889,128,0,225205:0:0:0:0:
213,192,225205,128,0,225521:0:0:0:0:
298,192,225205,128,0,225521:0:0:0:0:
384,192,225521,128,0,225837:0:0:0:0:
469,192,225521,128,0,225837:0:0:0:0:
42,192,225837,128,0,226152:0:0:0:0:
128,192,225837,128,0,226152:0:0:0:0:
213,192,226152,128,0,226626:0:0:0:0:
298,192,226152,128,0,226626:0:0:0:0:
469,192,226468,1,2,0:0:0:0:
42,192,226626,1,2,0:0:0:0:
128,192,226784,1,2,0:0:0:0:
384,192,226784,1,0,0:0:0:0:
213,192,226942,1,0,0:0:0:0:
298,192,227100,1,0,0:0:0:0:
42,192,227416,128,0,227574:0:0:0:0:
128,192,227416,128,0,227574:0:0:0:0:
213,192,227731,128,0,227889:0:0:0:0:
298,192,227731,128,0,227889:0:0:0:0:
384,192,228047,128,0,228205:0:0:0:0:
469,192,228047,128,0,228205:0:0:0:0:
42,192,228363,1,0,0:0:0:0:
128,192,228363,1,0,0:0:0:0:
213,192,228521,128,0,229310:0:0:0:0:
298,192,228521,128,0,229310:0:0:0:0:
42,192,228837,1,2,0:0:0:0:
469,192,228995,1,2,0:0:0:0:
42,192,229152,1,0,0:0:0:0:
469,192,229310,1,2,0:0:0:0:
42,192,229626,1,0,0:0:0:0:
128,192,229626,1,2,0:0:0:0:
384,192,229784,1,2,0:0:0:0:
469,192,229784,1,0,0:0:0:0:
42,192,229942,1,0,0:0:0:0:
128,192,229942,1,2,0:0:0:0:
128,192,230258,1,4,2:0:0:0:
213,192,230258,1,4,2:0:0:0:
298,192,230258,1,0,0:0:0:0:
384,192,230258,1,0,0:0:0:0:
42,192,230889,1,0,0:0:0:0:
128,192,230889,1,4,2:0:0:0:
469,192,230889,1,0,0:0:0:0:
384,192,230889,1,0,0:0:0:0:
42,192,231521,1,4,2:0:0:0:
469,192,231521,1,0,0:0:0:0:
128,192,232152,1,0,2:0:0:0:
384,192,232152,1,0,0:0:0:0:
213,192,232468,1,2,0:0:0:0:
298,192,232468,1,2,0:0:0:0:
213,192,232626,1,2,0:0:0:0:
298,192,232626,1,2,0:0:0:0:
213,192,232784,1,4,2:0:0:0:
298,192,232784,1,2,0:0:0:0:
42,192,233100,128,0,234363:0:0:0:0:
469,192,233100,1,0,0:0:0:0:
469,192,233258,1,0,0:0:0:0:
469,192,233416,1,4,2:0:0:0:
128,192,233574,1,0,0:0:0:0:
213,192,233574,1,0,0:0:0:0:
384,192,233731,128,0,234363:0:0:0:0:
469,192,233731,128,0,234363:0:0:0:0:
128,192,234679,1,4,2:0:0:0:
384,192,234679,1,0,0:0:0:0:
213,192,235310,1,4,2:0:0:0:
298,192,235310,1,0,0:0:0:0:
42,192,235942,1,4,2:0:0:0:
469,192,235942,1,0,0:0:0:0:
128,192,236574,1,4,2:0:0:0:
384,192,236574,1,0,0:0:0:0:
298,192,237205,1,0,0:0:0:0:
213,192,237205,1,4,2:0:0:0:
42,192,237837,1,4,2:0:0:0:
128,192,237995,1,0,0:0:0:0:
213,192,238152,1,0,0:0:0:0:
298,192,238310,1,0,0:0:0:0:
384,192,238468,1,4,2:0:0:0:
469,192,238626,1,0,0:0:0:0:
384,192,238784,128,0,239416:0:0:0:0:
298,192,239574,1,0,0:0:0:0:
213,192,239731,1,4,2:0:0:0:
128,192,239889,1,0,0:0:0:0:
42,192,240047,128,0,240679:0:0:0:0:
128,192,240679,1,0,0:0:0:0:
213,192,240837,1,0,0:0:0:0:
298,192,240995,1,4,2:0:0:0:
384,192,241152,1,0,0:0:0:0:
469,192,241310,128,0,241942:0:0:0:0:
384,192,241942,1,0,0:0:0:0:
298,192,242100,1,0,0:0:0:0:
213,192,242258,1,4,2:0:0:0:
128,192,242416,1,0,0:0:0:0:
42,192,242574,128,0,243205:0:0:0:0:
42,192,243837,1,0,0:0:0:0:
128,192,243837,1,0,0:0:0:0:
469,192,244152,1,2,0:0:0:0:
128,192,244310,1,0,0:0:0:0:
42,192,244310,1,0,0:0:0:0:
469,192,244626,1,2,0:0:0:0:
42,192,244784,1,2,0:0:0:0:
128,192,244784,1,2,0:0:0:0:
42,192,244942,1,2,0:0:0:0:
128,192,244942,1,2,0:0:0:0:
42,192,245100,1,2,0:0:0:0:
128,192,245100,1,2,0:0:0:0:
213,192,245731,128,0,246047:0:0:0:0:
298,192,245731,128,0,246047:0:0:0:0:
384,192,246047,128,0,246363:0:0:0:0:
469,192,246047,128,0,246363:0:0:0:0:
42,192,246363,128,0,246995:0:0:0:0:
128,192,246363,128,0,246995:0:0:0:0:
213,192,247310,128,0,247626:0:0:0:0:
298,192,247626,128,0,247942:0:0:0:0:
384,192,247942,128,0,248258:0:0:0:0:
469,192,248258,128,0,248574:0:0:0:0:
384,192,248574,128,0,248889:0:0:0:0:
298,192,248889,128,0,249205:0:0:0:0:
213,192,249205,128,0,249521:0:0:0:0:
42,192,249837,1,2,0:0:0:0:
469,192,249837,1,2,0:0:0:0:
469,192,249995,1,2,0:0:0:0:
42,192,249995,1,2,0:0:0:0:
469,192,250152,1,2,0:0:0:0:
42,192,250152,1,2,0:0:0:0:
128,192,250468,1,4,2:0:0:0:
213,192,250468,1,0,0:0:0:0:
298,192,250468,1,0,0:0:0:0:
384,192,250468,1,0,0:0:0:0:
42,192,251100,1,0,0:0:0:0:
128,192,251100,1,4,2:0:0:0:
384,192,251100,1,0,0:0:0:0:
469,192,251100,1,0,0:0:0:0:
128,192,251731,1,4,2:0:0:0:
384,192,251731,1,0,0:0:0:0:
213,192,252363,1,4,2:0:0:0:
298,192,252363,1,0,0:0:0:0:
128,192,252679,128,4,252837:2:0:0:0:
213,192,252679,128,0,252837:0:0:0:0:
298,192,252837,128,0,252995:0:0:0:0:
384,192,252837,128,0,252995:0:0:0:0:
42,192,252995,128,0,253152:0:0:0:0:
128,192,252995,128,0,253152:0:0:0:0:
213,192,253310,128,0,254574:0:0:0:0:
298,192,253310,1,2,0:0:0:0:
384,192,253468,1,2,0:0:0:0:
469,192,253626,1,2,0:0:0:0:
42,192,253942,128,0,254574:0:0:0:0:
128,192,254731,1,2,0:0:0:0:
128,192,254889,1,2,0:0:0:0:
42,192,255205,128,0,257100:0:0:0:0:
128,192,255205,128,0,257100:0:0:0:0:
213,192,255521,1,4,2:0:0:0:
298,192,255837,1,0,0:0:0:0:
384,192,256152,1,4,2:0:0:0:
469,192,256468,1,0,0:0:0:0:
384,192,256784,1,4,2:0:0:0:
213,192,257100,1,0,0:0:0:0:
298,192,257416,1,0,0:0:0:0:
384,192,257416,1,4,2:0:0:0:
469,192,257416,1,0,0:0:0:0:
42,192,257731,128,0,259626:0:0:0:0:
128,192,257731,128,0,259626:0:0:0:0:
213,192,257731,1,0,0:0:0:0:
384,192,258047,1,4,2:0:0:0:
469,192,258047,1,0,0:0:0:0:
384,192,258363,1,0,0:0:0:0:
298,192,258363,1,0,0:0:0:0:
213,192,258679,1,0,0:0:0:0:
298,192,258679,1,4,2:0:0:0:
298,192,258995,1,0,0:0:0:0:
469,192,259310,128,0,259626:0:0:0:0:
384,192,259310,128,0,259626:0:0:0:0:
213,192,259942,1,0,0:0:0:0:
298,192,259942,1,4,2:0:0:0:
42,192,260100,128,0,262626:0:0:0:0:
469,192,260100,128,0,262626:0:0:0:0:
213,192,264047,1,2,0:0:0:0:
298,192,264047,1,2,0:0:0:0:
469,192,264205,1,0,0:0:0:0:
42,192,264363,1,0,0:0:0:0:
128,192,264363,1,0,0:0:0:0:
213,192,264521,1,2,0:0:0:0:
298,192,264521,1,2,0:0:0:0:
469,192,264679,1,0,0:0:0:0:
42,192,264837,1,0,0:0:0:0:
128,192,264837,1,0,0:0:0:0:
213,192,264995,1,2,0:0:0:0:
298,192,264995,1,2,0:0:0:0:
213,192,265152,1,2,0:0:0:0:
298,192,265152,1,2,0:0:0:0:
213,192,265310,128,2,267205:0:0:0:0:
298,192,265310,128,4,267205:0:0:0:0:
