osu file format v14

[General]
AudioFilename: ghost192.mp3
AudioLeadIn: 0
PreviewTime: 168817
Countdown: 0
SampleSet: Soft
StackLeniency: 0.7
Mode: 0
LetterboxInBreaks: 0
WidescreenStoryboard: 1

[Editor]
DistanceSpacing: 0.5
BeatDivisor: 12
GridSize: 32
TimelineZoom: 8

[Metadata]
Title:Ghost of Perdition
TitleUnicode:Ghost of Perdition
Artist:Opeth
ArtistUnicode:Opeth
Creator:CircleChu
Version:Eternal Damnation
Source:
Tags:ghost reveries 2005 marathon technical progressive melodic black dark death metal growl folk dynamic riffs sweden rock english
BeatmapID:2068462
BeatmapSetID:988848

[Difficulty]
HPDrainRate:5.7
CircleSize:4
OverallDifficulty:8.8
ApproachRate:9.2
SliderMultiplier:1.8
SliderTickRate:1

[Events]
//Background and Video events
0,0,"bg.jpg",0,0
//Break Periods
2,437546,452733
2,546787,569496
//Storyboard Layer 0 (Background)
//Storyboard Layer 1 (Fail)
//Storyboard Layer 2 (Pass)
//Storyboard Layer 3 (Foreground)
//Storyboard Layer 4 (Overlay)
//Storyboard Sound Samples

[TimingPoints]
662,916.030534351145,4,2,2,12,1,0
662,-100,4,2,2,12,0,0
7074,866.425992779783,4,2,2,12,1,0
7940,306.122448979592,3,2,1,70,1,0
7940,-100,3,2,1,70,0,0
9087,-100,3,2,1,5,0,0
9164,-100,3,2,1,70,0,0
9394,-100,3,2,1,5,0,0
9470,-100,3,2,1,70,0,0
10924,-100,3,2,1,5,0,0
11001,-100,3,2,1,70,0,0
11230,-100,3,2,1,5,0,0
11307,-100,3,2,1,70,0,0
23781,-100,3,2,1,5,0,0
23858,-100,3,2,1,70,0,0
24087,-100,3,2,1,5,0,0
24164,-100,3,2,1,70,0,0
25618,-100,3,2,1,5,0,0
25695,-100,3,2,1,70,0,0
25924,-100,3,2,1,5,0,0
26001,-100,3,2,1,70,0,0
38475,-100,3,2,1,5,0,0
38552,-100,3,2,1,70,0,0
38781,-100,3,2,1,5,0,0
38858,-100,3,2,1,70,0,0
40312,-100,3,2,1,5,0,0
40388,-100,3,2,1,70,0,0
40618,-100,3,2,1,5,0,0
40695,-100,3,2,1,70,0,0
53169,-100,3,2,1,5,0,0
53246,-100,3,2,1,70,0,0
53475,-100,3,2,1,5,0,0
53552,-100,3,2,1,70,0,0
55006,-100,3,2,1,5,0,0
55082,-100,3,2,1,70,0,0
55312,-100,3,2,1,5,0,0
55388,-100,3,2,1,70,0,0
66715,297.029702970297,3,2,1,45,1,0
66715,-153.846153846154,3,2,1,45,0,0
67383,-153.846153846154,3,2,1,5,0,0
67457,-153.846153846154,3,2,1,45,0,0
67680,-153.846153846154,3,2,1,5,0,0
67754,-153.846153846154,3,2,1,45,0,0
69165,-153.846153846154,3,2,1,5,0,0
69239,-153.846153846154,3,2,1,45,0,0
69462,-153.846153846154,3,2,1,5,0,0
69536,-153.846153846154,3,2,1,45,0,0
70947,-153.846153846154,3,2,1,5,0,0
71021,-153.846153846154,3,2,1,45,0,0
71244,-153.846153846154,3,2,1,5,0,0
71318,-153.846153846154,3,2,1,45,0,0
77630,-153.846153846154,3,2,1,5,0,0
77705,-153.846153846154,3,2,1,45,0,0
77927,-153.846153846154,3,2,1,5,0,0
78002,-153.846153846154,3,2,1,45,0,0
79190,-153.846153846154,3,2,1,60,0,0
97012,-153.846153846154,3,2,1,45,0,0
97680,-153.846153846154,3,2,1,5,0,0
97754,-153.846153846154,3,2,1,45,0,0
97977,-153.846153846154,3,2,1,5,0,0
98051,-153.846153846154,3,2,1,45,0,0
99462,-153.846153846154,3,2,1,5,0,0
99536,-153.846153846154,3,2,1,45,0,0
99759,-153.846153846154,3,2,1,5,0,0
99833,-153.846153846154,3,2,1,45,0,0
101244,-153.846153846154,3,2,1,5,0,0
101318,-153.846153846154,3,2,1,45,0,0
101541,-153.846153846154,3,2,1,5,0,0
101615,-153.846153846154,3,2,1,45,0,0
107927,-153.846153846154,3,2,1,5,0,0
108002,-153.846153846154,3,2,1,45,0,0
108224,-153.846153846154,3,2,1,5,0,0
108299,-153.846153846154,3,2,1,45,0,0
109487,-153.846153846154,3,2,1,60,0,0
125526,-100,3,2,1,80,0,1
126640,-100,3,2,1,5,0,1
126715,-100,3,2,1,80,0,1
126937,-100,3,2,1,5,0,1
127012,-100,3,2,1,80,0,1
128422,-100,3,2,1,5,0,1
128497,-100,3,2,1,80,0,1
128719,-100,3,2,1,5,0,1
128794,-100,3,2,1,80,0,1
140898,-100,3,2,1,5,0,1
140972,-100,3,2,1,80,0,1
141195,-100,3,2,1,5,0,1
141269,-100,3,2,1,80,0,1
142680,-100,3,2,1,5,0,1
142754,-100,3,2,1,80,0,1
142977,-100,3,2,1,5,0,1
143051,-100,3,2,1,80,0,1
154041,528.63436123348,3,2,2,35,1,0
154437,594.059405940594,3,2,2,35,1,0
155625,444.444444444444,3,2,2,35,1,0
155847,600,3,2,2,35,1,0
156747,400,3,2,2,5,1,0
156847,533.333333333333,3,2,2,35,1,0
157647,579.710144927536,3,2,2,35,1,0
159387,594.059405940594,3,2,2,35,1,0
159907,-100,3,2,2,5,0,0
159981,-100,3,2,2,35,0,0
161169,-100,3,2,1,35,0,0
162951,-80,3,2,1,40,0,0
164684,-166.666666666667,3,2,2,45,0,0
164734,500,4,2,2,45,1,0
164734,-166.666666666667,3,2,2,45,0,0
164765,-166.666666666667,3,2,2,15,0,0
168734,-100,3,2,5,35,0,0
229734,-100,3,2,5,45,0,0
246942,-100,3,2,5,5,0,0
248734,319.148936170213,3,2,1,60,1,0
250648,-133.333333333333,3,2,1,60,0,0
263095,478.697941598851,3,2,1,60,1,0
264052,-80,3,2,1,60,0,0
265727,-80,3,2,1,5,0,0
265807,-80,3,2,1,60,0,0
265887,-80,3,2,1,5,0,0
265967,478.697941598851,4,2,1,60,1,0
265967,-80,3,2,1,60,0,0
266206,-80,3,2,1,5,0,0
266286,-80,3,2,1,60,0,0
279370,476.190476190476,4,2,1,60,1,0
279370,-80,3,2,1,60,0,0
281512,-80,3,2,1,5,0,0
281592,-80,3,2,1,60,0,0
283179,480,4,2,1,60,1,0
283179,-80,3,2,1,60,0,0
284619,483.870967741935,3,2,1,60,1,0
284619,-80,3,2,1,60,0,0
287038,478.625387885991,4,2,1,65,1,0
340644,312.5,3,2,1,75,1,0
340644,-133.333333333333,3,2,1,75,0,0
355644,319.149473684211,4,2,1,70,1,0
355883,-100,4,2,1,5,0,0
355963,-100,4,2,1,70,0,0
356202,-100,4,2,1,5,0,0
356282,-100,4,2,1,70,0,0
359713,-100,4,2,1,5,0,0
359792,-100,4,2,1,70,0,0
360032,-100,4,2,1,5,0,0
360112,-100,4,2,1,70,0,0
363542,-100,4,2,1,5,0,0
363622,-100,4,2,1,70,0,0
363862,-100,4,2,1,5,0,0
363941,-100,4,2,1,70,0,0
367372,-100,4,2,1,5,0,0
367452,-100,4,2,1,70,0,0
367691,-100,4,2,1,5,0,0
367771,-100,4,2,1,70,0,0
371202,-100,4,2,1,5,0,0
371282,-100,4,2,1,70,0,0
375032,-100,4,2,1,5,0,0
375112,-100,4,2,1,70,0,0
375351,-100,4,2,1,5,0,0
375431,-100,4,2,1,70,0,0
378862,-100,4,2,1,5,0,0
378941,-100,4,2,1,70,0,0
379181,-100,4,2,1,5,0,0
379261,-100,4,2,1,70,0,0
382691,-100,4,2,1,5,0,0
382771,-100,4,2,1,70,0,0
383011,-100,4,2,1,5,0,0
383090,-100,4,2,1,70,0,0
392665,-100,4,2,1,45,0,0
393303,-100,4,2,1,70,0,0
397771,-100,4,2,1,45,0,0
398250,-100,4,2,1,70,0,0
402878,-100,4,2,1,45,0,0
403356,-100,4,2,1,70,0,0
417878,-100,3,2,1,60,0,0
421628,-100,3,2,1,5,0,0
421707,-100,3,2,1,60,0,0
421947,-100,3,2,1,5,0,0
422027,-100,3,2,1,60,0,0
424181,-100,3,2,1,5,0,0
424261,-100,3,2,1,60,0,0
424500,-100,3,2,1,5,0,0
424580,-100,3,2,1,60,0,0
427133,-133.333333333333,3,2,1,40,0,0
427372,-133.333333333333,3,2,1,5,0,0
427452,-133.333333333333,3,2,1,40,0,0
427691,-133.333333333333,3,2,1,5,0,0
427771,-133.333333333333,3,2,1,40,0,0
437266,-133.333333333333,3,2,1,5,0,0
437346,-133.333333333333,3,2,1,40,0,0
455936,-133.333333333333,3,2,1,5,0,0
456016,-133.333333333333,3,2,1,40,0,0
456255,-133.333333333333,3,2,1,5,0,0
456335,-133.333333333333,3,2,1,40,0,0
456575,-133.333333333333,3,2,1,5,0,0
456654,-133.333333333333,3,2,1,40,0,0
457771,-100,3,2,1,65,0,0
476841,-100,3,2,1,5,0,0
476920,-100,3,2,1,65,0,0
478197,-83.3333333333333,3,2,1,70,0,1
498622,-100,3,2,1,65,0,0
500777,-100,3,2,1,5,0,0
500857,-100,3,2,1,65,0,0
501096,-100,3,2,1,5,0,0
501176,-100,3,2,1,65,0,0
510990,-100,3,2,1,5,0,0
511069,-100,3,2,1,65,0,0
511309,-100,3,2,1,5,0,0
511388,-100,3,2,1,65,0,0
539474,309.278350515464,3,2,1,70,1,0
544886,-100,3,2,1,5,0,0
544963,-100,3,2,1,70,0,0
545118,-100,3,2,1,5,0,0
545195,-100,3,2,1,70,0,0
546587,326.104679602152,3,2,1,70,1,0
570066,319.148936170213,3,2,1,60,1,0
574136,-100,3,2,1,5,0,0
574214,310.880829015544,3,2,1,60,1,0
574214,-100,3,2,1,60,0,0
575146,315.789473684211,3,2,1,60,1,0
575303,338.600451467269,3,2,1,60,1,0
575810,272.727272727273,3,2,1,60,1,0
576014,300,3,2,1,60,1,0
576089,333.333333333333,3,2,1,60,1,0
576422,327.868852459016,3,2,1,60,1,0
576749,322.58064516129,3,2,1,60,1,0
577555,319.148936170213,3,2,1,60,1,0
577714,319.148936170213,3,2,1,70,1,0
589442,-100,3,2,1,5,0,0
589522,-100,3,2,1,70,0,0
604522,320.855614973262,3,2,1,70,1,0
604762,-100,3,2,1,5,0,0
604842,-100,3,2,1,70,0,0
605484,319.148936170213,3,2,1,70,1,0
606441,301.507537688442,3,2,1,70,1,0
606742,333.333333333333,3,2,1,70,1,0
607408,301.507537688442,3,2,1,70,1,0
607709,319.148936170212,3,2,1,70,1,0
608028,326.086956521739,3,2,1,70,1,0
608354,331.491712707182,3,2,1,70,1,0
608602,-100,3,2,1,5,0,0
608685,307.692307692308,3,2,1,70,1,0
609300,319.148936170213,3,2,1,70,1,0
610257,324.324324324324,3,2,1,70,1,0
611228,319.148936170213,3,2,1,70,1,0
613142,315.789473684211,3,2,1,70,1,0
614089,304.568527918782,3,2,1,70,1,0
614698,319.148936170213,3,2,1,70,1,0
615017,320.855614973262,3,2,1,70,1,0
616220,-100,3,2,1,5,0,0
616300,-100,3,2,1,70,0,0
616621,342.857142857143,3,2,1,70,1,0
616963,335.195530726257,3,2,1,70,1,0
617298,315.789473684211,3,2,1,70,1,0
617929,315.789473684211,3,2,1,70,1,0
618876,317.460317460318,3,2,1,70,1,0
619510,335.195530726257,3,2,1,70,1,0
619845,319.148936170213,3,2,1,75,1,0

[Colours]
Combo1 : 122,122,122
Combo2 : 79,102,85
Combo3 : 102,165,185
Combo4 : 116,75,106

[HitObjects]
177,140,509,6,0,L|172:124,1,15,2|2,0:0|0:0,0:0:0:0:
167,112,662,6,0,P|245:137|283:50,1,180,2|2,0:0|0:0,0:0:0:0:
286,63,2341,1,2,0:0:0:0:
286,63,2417,1,2,0:0:0:0:
286,63,2494,6,0,B|375:107|375:22|486:98,1,180,2|2,0:0|0:0,0:0:0:0:
459,81,4173,1,2,0:0:0:0:
459,81,4249,1,2,0:0:0:0:
459,81,4326,6,0,B|424:154|424:154|469:185|462:249,1,180,2|2,0:0|0:0,0:0:0:0:
462,240,6081,1,2,0:0:0:0:
462,240,6158,6,0,P|456:179|379:219,1,180,2|2,0:0|0:0,0:0:0:0:
379,219,7940,6,0,P|318:281|234:262,1,180,4|0,0:0|0:0,0:0:0:0:
166,158,8399,2,0,P|82:139|22:200,1,180,4|0,0:0|0:0,0:0:0:0:
50,44,8858,2,0,B|117:33|117:33|203:52,1,135,8|0,0:0|0:0,0:0:0:0:
200,78,9164,2,0,B|265:92|265:92|332:81,1,135,8|0,0:0|0:0,0:0:0:0:
360,54,9470,1,8,3:0:0:0:
300,179,9623,1,8,3:0:0:0:
105,208,9776,6,0,B|57:295|133:294|104:391,1,180,4|0,0:0|0:0,0:0:0:0:
301,352,10235,2,0,B|328:265|252:266|300:179,1,180,4|0,0:0|0:0,0:0:0:0:
488,274,10695,2,0,B|427:253|427:253|402:181,1,135,8|0,0:0|0:0,0:0:0:0:
399,152,11001,2,0,B|422:85|422:85|483:64,1,135,8|0,0:0|0:0,0:0:0:0:
506,80,11307,1,8,3:0:0:0:
365,5,11460,1,8,3:0:0:0:
237,106,11613,6,0,P|192:115|132:99,1,90,4|0,0:0|0:0,0:0:0:0:
90,35,11919,1,2,0:0:0:0:
135,179,12072,2,0,P|121:221|76:266,1,90,2|0,0:0|0:0,0:0:0:0:
0,270,12378,1,2,0:0:0:0:
193,340,12531,2,0,L|286:346,1,90,8|0,0:0|0:0,0:0:0:0:
392,254,12837,2,0,L|299:260,1,90,2|0,0:0|0:0,0:0:0:0:
476,321,13144,1,2,0:0:0:0:
484,220,13297,1,2,0:0:0:0:
339,124,13450,6,0,P|374:154|426:163,1,90,8|0,0:0|0:0,0:0:0:0:
264,118,13756,2,0,L|277:29,1,90,2|0,0:0|0:0,0:0:0:0:
193,105,14062,2,0,P|151:124|98:120,1,90,2|2,0:0|0:0,0:0:0:0:
101,117,14292,1,2,0:0:0:0:
94,111,14368,2,0,L|90:12,1,90,10|0,0:0|0:0,0:0:0:0:
169,33,14674,1,2,0:0:0:0:
264,118,14827,1,2,0:0:0:0:
170,182,14980,1,8,3:0:0:0:
182,195,15133,1,8,3:0:0:0:
199,350,15286,6,0,P|128:299|46:327,1,180,4|0,0:0|0:0,0:0:0:0:
79,209,15746,1,0,0:0:0:0:
226,260,15899,2,0,P|256:268|332:252,1,90,2|0,0:0|0:0,0:0:0:0:
436,82,16205,2,0,L|452:192,1,90,8|0,0:0|0:0,0:0:0:0:
434,281,16511,1,2,0:0:0:0:
351,17,16664,2,0,L|335:127,1,90,2|0,0:0|0:0,0:0:0:0:
171,62,16970,1,2,0:0:0:0:
171,62,17047,1,2,0:0:0:0:
171,61,17123,6,0,P|212:45|257:44,1,90,10|0,0:0|0:0,0:0:0:0:
274,135,17429,1,2,0:0:0:0:
112,111,17582,2,0,P|70:94|25:93,1,90,2|0,0:0|0:0,0:0:0:0:
9,184,17888,1,2,0:0:0:0:
181,169,18042,2,0,P|216:196|239:234,1,90,10|0,0:0|0:0,0:0:0:0:
206,334,18348,1,2,0:0:0:0:
337,230,18501,2,0,P|330:274|309:313,1,90,2|0,0:0|0:0,0:0:0:0:
213,341,18807,1,2,0:0:0:0:
213,341,18883,1,2,0:0:0:0:
213,341,18960,6,0,P|178:312|130:309,1,90,10|0,0:0|0:0,0:0:0:0:
26,229,19266,2,0,L|130:220,1,90,2|0,0:0|0:0,0:0:0:0:
121,129,19572,2,0,P|165:125|199:96,1,90,2|0,0:0|0:0,0:0:0:0:
132,43,19878,1,10,0:0:0:0:
41,27,20031,1,2,0:0:0:0:
199,96,20184,1,2,0:0:0:0:
253,76,20337,1,2,0:0:0:0:
239,187,20491,1,8,3:0:0:0:
231,202,20644,1,8,3:0:0:0:
345,113,20797,6,0,P|432:104|490:168,1,180,8|0,0:0|0:0,0:0:0:0:
388,205,21256,1,2,0:0:0:0:
464,271,21409,2,0,P|480:303|471:357,1,90,2|2,0:0|0:0,0:0:0:0:
343,302,21715,2,0,P|285:339|173:280,1,180,8|0,0:0|0:0,0:0:0:0:
31,302,22174,2,0,P|109:264|186:303,1,180,8|0,0:0|0:0,0:0:0:0:
263,97,22633,6,0,P|302:174|265:253,1,180,4|0,0:0|0:0,0:0:0:0:
58,43,23093,2,0,P|89:104|215:108,1,180,4|0,0:0|0:0,0:0:0:0:
449,45,23552,2,0,B|384:62|384:62|335:110,1,135,8|0,0:0|0:0,0:0:0:0:
357,131,23858,2,0,B|421:148|421:148|470:196,1,135,8|0,0:0|0:0,0:0:0:0:
473,219,24164,1,8,3:0:0:0:
316,231,24317,1,8,3:0:0:0:
477,240,24470,6,0,P|475:319|370:322,1,180,4|0,0:0|0:0,0:0:0:0:
316,231,24929,2,0,P|233:245|228:328,1,180,4|0,0:0|0:0,0:0:0:0:
78,238,25388,2,0,B|45:275|45:275|80:367,1,135,8|0,0:0|0:0,0:0:0:0:
98,333,25695,2,0,B|67:253|67:253|100:216,1,135,8|0,0:0|0:0,0:0:0:0:
122,201,26001,1,8,3:0:0:0:
168,365,26154,1,8,3:0:0:0:
233,211,26307,6,0,P|251:169|248:125,1,90,4|0,0:0|0:0,0:0:0:0:
178,156,26613,1,2,0:0:0:0:
309,78,26766,2,0,L|404:68,1,90,2|0,0:0|0:0,0:0:0:0:
462,125,27072,1,2,0:0:0:0:
330,272,27225,2,0,P|359:238|400:221,1,90,8|0,0:0|0:0,0:0:0:0:
251,288,27531,2,0,P|221:321|180:338,1,90,2|0,0:0|0:0,0:0:0:0:
56,305,27837,1,2,0:0:0:0:
56,305,27991,1,2,0:0:0:0:
0,184,28144,6,0,P|38:161|61:123,1,90,8|0,0:0|0:0,0:0:0:0:
149,12,28450,2,0,L|62:36,1,90,2|0,0:0|0:0,0:0:0:0:
206,84,28756,2,0,P|244:105|289:105,1,90,2|2,0:0|0:0,0:0:0:0:
296,101,28985,1,2,0:0:0:0:
303,96,29062,2,0,L|301:1,1,90,10|0,0:0|0:0,0:0:0:0:
229,9,29368,1,2,0:0:0:0:
134,109,29521,1,2,0:0:0:0:
249,179,29674,1,8,3:0:0:0:
238,196,29827,1,8,3:0:0:0:
114,341,29980,6,0,P|171:277|256:292,1,180,4|0,0:0|0:0,0:0:0:0:
200,361,30440,1,0,0:0:0:0:
69,226,30593,2,0,P|54:267|20:297,1,90,0|0,0:0|0:0,0:0:0:0:
74,144,30899,2,0,L|175:151,1,90,8|0,0:0|0:0,0:0:0:0:
238,196,31205,1,2,0:0:0:0:
308,352,31358,2,0,L|409:359,1,90,2|0,0:0|0:0,0:0:0:0:
479,266,31664,1,2,0:0:0:0:
479,266,31741,1,2,0:0:0:0:
479,266,31817,6,0,L|390:273,1,90,10|0,0:0|0:0,0:0:0:0:
332,202,32123,1,2,0:0:0:0:
457,90,32276,2,0,P|431:146|403:169,1,90,2|0,0:0|0:0,0:0:0:0:
443,10,32582,1,2,0:0:0:0:
337,123,32735,2,0,P|275:128|241:115,1,90,8|0,0:0|0:0,0:0:0:0:
198,51,33042,1,2,0:0:0:0:
230,200,33195,2,0,L|257:303,1,90,2|0,0:0|0:0,0:0:0:0:
249,119,33501,1,2,0:0:0:0:
100,160,33654,6,0,L|104:249,1,90,8|0,0:0|0:0,0:0:0:0:
169,292,33960,1,2,0:0:0:0:
29,208,34113,2,0,L|24:118,1,90,2|0,0:0|0:0,0:0:0:0:
78,57,34419,1,2,0:0:0:0:
169,136,34572,1,8,0:0:0:0:
206,28,34725,1,2,0:0:0:0:
287,122,34878,1,2,0:0:0:0:
266,170,35031,1,2,0:0:0:0:
347,52,35184,1,8,3:0:0:0:
340,32,35337,1,8,3:0:0:0:
449,190,35491,6,0,L|470:377,1,180,8|0,0:0|0:0,0:0:0:0:
359,173,35950,1,2,0:0:0:0:
369,271,36103,2,0,L|381:382,1,90,2|0,0:0|0:0,0:0:0:0:
286,227,36409,2,0,P|203:222|132:309,1,180,8|0,0:0|0:0,0:0:0:0:
156,154,36868,2,0,P|95:91|7:94,1,180,8|0,0:0|0:0,0:0:0:0:
231,138,37327,6,0,P|312:132|309:50,1,180,4|0,0:0|0:0,0:0:0:0:
137,286,37786,2,0,P|55:291|58:373,1,180,4|0,0:0|0:0,0:0:0:0:
239,323,38245,2,0,B|294:330|294:330|355:277,1,135,8|0,0:0|0:0,0:0:0:0:
352,303,38552,2,0,B|412:355|412:355|467:348,1,135,8|0,0:0|0:0,0:0:0:0:
479,328,38857,1,8,3:0:0:0:
377,174,39010,1,8,3:0:0:0:
483,19,39163,6,0,P|512:74|436:169,1,180,4|0,0:0|0:0,0:0:0:0:
236,222,39623,2,0,P|269:169|389:187,1,180,4|0,0:0|0:0,0:0:0:0:
347,330,40082,2,0,B|317:359|317:359|214:366,1,135,8|0,0:0|0:0,0:0:0:0:
200,336,40388,2,0,B|159:324|159:324|107:247,1,135,8|0,0:0|0:0,0:0:0:0:
123,209,40694,1,8,3:0:0:0:
78,353,40847,1,8,3:0:0:0:
203,191,41000,6,0,P|212:160|201:93,1,90,4|0,0:0|0:0,0:0:0:0:
150,36,41306,1,2,0:0:0:0:
282,74,41459,2,0,L|390:57,1,90,2|0,0:0|0:0,0:0:0:0:
452,108,41765,1,2,0:0:0:0:
323,229,41918,2,0,P|352:193|408:186,1,90,8|0,0:0|0:0,0:0:0:0:
414,365,42225,2,0,P|368:357|334:312,1,90,2|0,0:0|0:0,0:0:0:0:
459,272,42531,1,2,0:0:0:0:
459,272,42684,1,2,0:0:0:0:
265,287,42837,6,0,P|220:289|184:315,1,90,8|0,0:0|0:0,0:0:0:0:
93,161,43143,2,0,L|102:258,1,90,2|0,0:0|0:0,0:0:0:0:
151,83,43450,2,0,P|192:99|235:90,1,90,2|0,0:0|0:0,0:0:0:0:
61,64,43756,1,10,0:0:0:0:
57,72,43832,1,2,0:0:0:0:
53,80,43909,1,2,0:0:0:0:
199,19,44061,1,2,0:0:0:0:
296,44,44214,1,2,0:0:0:0:
273,157,44367,1,8,3:0:0:0:
255,166,44520,1,8,3:0:0:0:
391,287,44673,6,0,P|310:289|266:382,1,180,4|0,0:0|0:0,0:0:0:0:
354,368,45133,1,2,0:0:0:0:
467,300,45286,2,0,P|473:350|500:385,1,90,2|0,0:0|0:0,0:0:0:0:
459,217,45593,2,0,L|341:186,1,90,8|0,0:0|0:0,0:0:0:0:
284,211,45898,1,2,0:0:0:0:
109,217,46052,2,0,L|227:186,1,90,0|0,0:0|0:0,0:0:0:0:
61,141,46358,1,2,0:0:0:0:
61,141,46434,1,2,0:0:0:0:
61,141,46511,6,0,P|30:104|30:54,1,90,10|0,0:0|0:0,0:0:0:0:
117,76,46816,1,2,0:0:0:0:
274,126,46970,2,0,P|226:134|183:109,1,90,2|0,0:0|0:0,0:0:0:0:
242,44,47275,1,2,0:0:0:0:
354,153,47429,2,0,L|370:249,1,90,8|0,0:0|0:0,0:0:0:0:
455,278,47735,1,2,0:0:0:0:
276,223,47888,2,0,L|266:319,1,90,2|0,0:0|0:0,0:0:0:0:
405,350,48194,1,2,0:0:0:0:
405,350,48270,1,2,0:0:0:0:
405,350,48347,6,0,P|352:356|309:382,1,90,10|0,0:0|0:0,0:0:0:0:
209,368,48654,2,0,P|168:349|124:345,1,90,2|0,0:0|0:0,0:0:0:0:
266,312,48960,2,0,L|278:203,1,90,2|0,0:0|0:0,0:0:0:0:
219,132,49265,1,10,0:0:0:0:
216,123,49343,1,2,0:0:0:0:
214,114,49418,1,2,0:0:0:0:
100,188,49571,1,0,0:0:0:0:
161,251,49724,1,0,0:0:0:0:
129,105,49878,1,8,3:0:0:0:
124,87,50031,1,8,3:0:0:0:
72,271,50184,6,0,P|154:294|199:223,1,180,8|0,0:0|0:0,0:0:0:0:
265,310,50643,1,2,0:0:0:0:
276,222,50796,2,0,P|283:187|314:138,1,90,2|2,0:0|0:0,0:0:0:0:
488,220,51102,2,0,P|435:289|349:280,1,180,8|0,0:0|0:0,0:0:0:0:
126,369,51562,2,0,P|211:378|265:310,1,180,8|0,0:0|0:0,0:0:0:0:
100,99,52020,6,0,B|49:176|133:191|72:271,1,180,4|0,0:0|0:0,0:0:0:0:
226,53,52480,2,0,B|174:129|258:144|198:222,1,180,4|0,0:0|0:0,0:0:0:0:
291,102,52939,2,0,B|339:91|339:91|425:127,1,135,8|0,0:0|0:0,0:0:0:0:
448,161,53246,2,0,B|368:127|368:127|320:138,1,135,8|0,0:0|0:0,0:0:0:0:
307,169,53551,1,8,3:0:0:0:
421,44,53704,1,8,3:0:0:0:
484,236,53857,6,0,P|484:302|375:340,1,180,4|0,0:0|0:0,0:0:0:0:
229,240,54317,2,0,P|211:323|279:376,1,180,4|0,0:0|0:0,0:0:0:0:
129,320,54776,2,0,B|94:337|94:337|-4:318,1,135,8|0,0:0|0:0,0:0:0:0:
20,289,55082,2,0,B|56:276|56:276|108:195,1,135,8|0,0:0|0:0,0:0:0:0:
138,220,55388,1,8,3:0:0:0:
163,384,55541,1,8,3:0:0:0:
295,295,55694,6,0,P|299:252|283:208,1,90,4|0,0:0|0:0,0:0:0:0:
208,164,56000,1,2,0:0:0:0:
281,12,56154,2,0,P|265:53|269:98,1,90,2|0,0:0|0:0,0:0:0:0:
342,145,56459,1,2,0:0:0:0:
190,87,56612,2,0,P|141:66|72:77,1,90,8|0,0:0|0:0,0:0:0:0:
138,220,56919,2,0,P|88:239|47:296,1,90,2|0,0:0|0:0,0:0:0:0:
205,360,57224,1,2,0:0:0:0:
205,360,57378,1,2,0:0:0:0:
374,324,57531,6,0,P|338:297|294:294,1,90,8|0,0:0|0:0,0:0:0:0:
495,232,57837,2,0,L|406:227,1,90,2|0,0:0|0:0,0:0:0:0:
305,106,58144,2,0,P|340:133|385:137,1,90,2|0,0:0|0:0,0:0:0:0:
463,97,58450,1,8,0:0:0:0:
258,31,58603,1,2,0:0:0:0:
255,39,58679,1,2,0:0:0:0:
251,47,58755,1,2,0:0:0:0:
371,49,58908,1,0,0:0:0:0:
242,162,59061,1,8,3:0:0:0:
258,168,59214,1,8,3:0:0:0:
168,323,59367,6,0,P|119:249|29:304,1,180,4|0,0:0|0:0,0:0:0:0:
83,353,59827,1,0,0:0:0:0:
240,357,59980,2,0,P|272:326|287:284,1,90,0|0,0:0|0:0,0:0:0:0:
482,324,60286,2,0,L|371:333,1,90,8|0,0:0|0:0,0:0:0:0:
357,250,60592,1,2,0:0:0:0:
240,357,60746,2,0,L|129:366,1,90,2|0,0:0|0:0,0:0:0:0:
56,251,61051,1,2,0:0:0:0:
56,251,61128,1,2,0:0:0:0:
56,251,61205,6,0,L|145:243,1,90,10|0,0:0|0:0,0:0:0:0:
208,184,61510,1,2,0:0:0:0:
97,74,61664,2,0,L|8:66,1,90,2|0,0:0|0:0,0:0:0:0:
40,150,61969,1,2,0:0:0:0:
183,115,62122,2,0,P|194:71|183:28,1,90,8|0,0:0|0:0,0:0:0:0:
107,1,62429,1,2,0:0:0:0:
37,198,62582,2,0,P|79:185|111:154,1,90,2|0,0:0|0:0,0:0:0:0:
97,74,62889,1,2,0:0:0:0:
210,187,63041,6,0,L|322:209,1,90,8|0,0:0|0:0,0:0:0:0:
329,287,63347,1,2,0:0:0:0:
145,294,63501,2,0,L|233:276,1,90,2|0,0:0|0:0,0:0:0:0:
273,362,63806,1,2,0:0:0:0:
385,202,63959,1,10,0:0:0:0:
386,192,64036,1,2,0:0:0:0:
388,183,64112,1,2,0:0:0:0:
328,59,64265,1,0,0:0:0:0:
276,146,64418,1,0,0:0:0:0:
220,45,64571,1,8,3:0:0:0:
209,28,64724,1,8,3:0:0:0:
47,138,64878,6,0,P|12:202|58:304,1,180,8|0,0:0|0:0,0:0:0:0:
140,334,65337,1,2,0:0:0:0:
166,164,65490,2,0,P|141:201|131:250,1,90,2|2,0:0|0:0,0:0:0:0:
229,357,65796,2,0,P|317:351|378:287,1,180,8|0,0:0|0:0,0:0:0:0:
466,102,66256,2,0,P|378:108|317:172,1,180,8|0,0:0|0:0,0:0:0:0:
240,71,66715,6,0,P|214:57|185:53,2,58.4999973220826,2|2|2,0:0|0:0|0:0,0:0:0:0:
245,106,67160,2,0,P|203:106|150:76,1,87.749995983124,2|0,3:0|3:0,3:0:0:0:
153,99,67457,2,0,P|112:103|56:78,1,87.749995983124,2|0,3:0|3:0,3:0:0:0:
57,78,67754,1,2,3:0:0:0:
72,175,67903,2,0,L|80:243,1,58.4999973220826,2|2,0:0|0:0,0:0:0:0:
46,339,68200,1,8,0:0:0:0:
217,255,68497,6,0,P|189:242|160:239,2,58.4999973220826,2|2|2,0:0|0:0|0:0,0:0:0:0:
235,276,68942,2,0,P|257:237|259:194,1,87.749995983124,2|0,3:0|3:0,3:0:0:0:
251,182,69239,2,0,P|229:143|227:100,1,87.749995983124,2|0,3:0|3:0,3:0:0:0:
239,91,69536,2,0,L|247:27,1,58.4999973220826,2|2,3:0|0:0,0:0:0:0:
324,154,69833,2,0,L|335:88,1,58.4999973220826,2|8,0:0|0:0,0:0:0:0:
385,269,70279,5,2,0:0:0:0:
451,231,70427,2,0,P|478:226|520:227,1,58.4999973220826,2|2,0:0|0:0,0:0:0:0:
385,269,70724,2,0,P|339:282|296:271,1,87.749995983124,2|0,3:0|3:0,3:0:0:0:
292,285,71021,2,0,P|249:276|207:289,1,87.749995983124,2|0,3:0|3:0,3:0:0:0:
199,301,71318,1,2,3:0:0:0:
126,245,71467,2,0,P|123:216|112:189,2,58.4999973220826,2|2|8,0:0|0:0|0:0,0:0:0:0:
195,43,72061,5,2,3:0:0:0:
96,114,72210,1,2,3:0:0:0:
212,163,72358,1,2,3:0:0:0:
109,31,72507,2,0,L|32:19,1,58.4999973220826,8|0,0:0|0:0,0:0:0:0:
258,99,72804,2,0,L|326:112,2,58.4999973220826,8|0|2,0:0|0:0|3:0,0:0:0:0:
384,77,73249,1,2,3:0:0:0:
422,216,73398,1,2,3:0:0:0:
404,94,73546,2,0,L|398:26,1,58.4999973220826,8|0,0:0|0:0,0:0:0:0:
353,271,73843,5,2,0:0:0:0:
353,271,73992,2,0,P|373:291|400:302,1,58.4999973220826,2|0,0:0|0:0,0:0:0:0:
271,251,74289,2,0,P|271:280|282:307,1,58.4999973220826,2|0,0:0|0:0,0:0:0:0:
116,196,74585,1,2,0:0:0:0:
116,196,74734,2,0,P|90:210|61:214,1,58.4999973220826,2|0,0:0|0:0,0:0:0:0:
200,198,75031,1,2,0:0:0:0:
200,198,75180,2,0,P|191:225|174:249,1,58.4999973220826,2|0,0:0|0:0,0:0:0:0:
142,92,75477,1,2,0:0:0:0:
142,92,75625,6,0,P|133:64|116:40,1,58.4999973220826,2|0,0:0|0:0,0:0:0:0:
57,93,75923,1,2,0:0:0:0:
57,93,76071,2,0,P|31:78|2:74,1,58.4999973220826,2|0,0:0|0:0,0:0:0:0:
215,123,76368,1,2,0:0:0:0:
215,123,76516,2,0,P|240:137|269:141,1,58.4999973220826,2|2,0:0|0:0,0:0:0:0:
354,239,76814,2,0,P|328:225|300:222,1,58.4999973220826,2|2,0:0|0:0,0:0:0:0:
261,64,77111,1,2,0:0:0:0:
345,89,77259,2,0,L|341:117,1,29.2499986610413,2|2,3:0|3:0,3:0:0:0:
346,131,77408,6,0,P|389:152|440:131,1,87.749995983124,2|0,3:0|3:0,3:0:0:0:
439,134,77705,2,0,P|462:180|455:239,1,87.749995983124,2|0,3:0|3:0,3:0:0:0:
450,226,78002,1,2,3:0:0:0:
482,308,78150,1,2,3:0:0:0:
407,369,78299,2,0,L|281:355,1,116.999994644165,2|0,3:0|0:0,0:0:0:0:
208,314,78744,1,2,0:0:0:0:
208,226,78893,1,2,0:0:0:0:
283,270,79041,1,2,0:0:0:0:
122,266,79190,6,0,P|95:217|123:143,1,116.999994644165,8|0,0:0|0:0,0:0:0:0:
197,19,79635,2,0,P|210:74|185:118,1,109.687494978905,8|2,0:0|0:0,0:0:0:0:
186,136,79969,2,0,L|193:161,1,21.937498995781,2|0,0:0|0:0,0:0:0:0:
196,174,80081,2,0,L|254:169,1,58.4999973220826,10|0,0:0|0:0,0:0:0:0:
290,86,80378,1,0,0:0:0:0:
421,206,80526,2,0,L|362:201,1,58.4999973220826,8|0,0:0|0:0,0:0:0:0:
304,270,80823,1,0,0:0:0:0:
501,261,80972,6,0,P|514:194|486:141,1,116.999994644165,12|0,0:0|0:0,0:0:0:0:
371,96,81417,2,0,P|397:107|426:107,1,58.4999973220826,2|0,0:0|0:0,0:0:0:0:
298,166,81715,2,0,L|172:180,1,116.999994644165,2|0,0:0|0:0,0:0:0:0:
88,138,82160,1,2,0:0:0:0:
190,274,82309,2,0,P|199:303|197:335,1,58.4999973220826,2|0,0:0|0:0,0:0:0:0:
118,376,82606,1,2,0:0:0:0:
284,285,82754,6,0,L|296:232,2,38.9999982147218,10|2|2,0:0|0:0|0:0,0:0:0:0:
286,298,83051,2,0,P|304:320|328:336,1,58.4999973220826,2|0,0:0|0:0,0:0:0:0:
370,241,83348,2,0,P|408:243|449:224,1,58.4999973220826,2|0,0:0|0:0,0:0:0:0:
375,48,83645,2,0,P|362:104|389:164,1,116.999994644165,8|0,0:0|0:0,0:0:0:0:
243,161,84091,2,0,P|264:107|251:51,1,116.999994644165,8|0,0:0|0:0,0:0:0:0:
69,71,84536,6,0,L|10:66,1,58.4999973220826,12|0,0:0|0:0,0:0:0:0:
172,161,84833,2,0,L|104:171,1,58.4999973220826,2|0,0:0|0:0,0:0:0:0:
64,56,85130,2,0,L|5:51,1,58.4999973220826,2|0,0:0|0:0,0:0:0:0:
97,193,85427,6,0,L|154:184,1,58.4999973220826,8|0,0:0|0:0,0:0:0:0:
250,238,85724,1,0,0:0:0:0:
64,284,85873,2,0,L|121:275,1,58.4999973220826,2|0,0:0|0:0,0:0:0:0:
217,329,86170,1,0,0:0:0:0:
351,297,86318,6,0,P|373:315|387:341,1,58.4999973220826,10|2,0:0|0:0,0:0:0:0:
387,341,86541,1,2,0:0:0:0:
387,341,86615,1,2,0:0:0:0:
434,240,86764,1,2,0:0:0:0:
334,199,86913,2,0,P|311:179|297:154,1,58.4999973220826,2|0,0:0|0:0,0:0:0:0:
104,153,87210,2,0,P|139:109|196:113,1,116.999994644165,8|0,0:0|0:0,0:0:0:0:
143,238,87656,1,2,0:0:0:0:
213,193,87805,2,0,P|235:212|249:237,1,58.4999973220826,2|0,0:0|0:0,0:0:0:0:
274,79,88101,6,0,P|330:93|409:67,1,116.999994644165,12|0,0:0|0:0,0:0:0:0:
461,148,88546,2,0,P|443:177|443:209,1,58.4999973220826,2|0,0:0|0:0,0:0:0:0:
427,361,88844,2,0,P|470:332|480:256,1,116.999994644165,2|0,0:0|0:0,0:0:0:0:
388,271,89289,1,0,0:0:0:0:
288,364,89437,2,0,P|304:340|307:311,1,58.4999973220826,2|0,0:0|0:0,0:0:0:0:
122,352,89735,1,2,0:0:0:0:
122,352,89809,1,2,0:0:0:0:
122,352,89883,6,0,L|178:362,2,38.9999982147218,10|2|2,0:0|0:0|0:0,0:0:0:0:
104,337,90180,2,0,P|95:310|99:281,1,58.4999973220826,2|0,0:0|0:0,0:0:0:0:
169,195,90477,2,0,P|179:167|175:138,1,58.4999973220826,2|0,0:0|0:0,0:0:0:0:
136,34,90774,1,2,0:0:0:0:
243,93,90922,1,2,0:0:0:0:
375,107,91071,1,2,0:0:0:0:
313,63,91219,1,2,0:0:0:0:
370,180,91368,1,8,3:0:0:0:
386,191,91516,1,8,3:0:0:0:
256,240,91665,6,0,L|185:246,1,58.4999973220826,8|0,0:0|0:0,0:0:0:0:
91,138,91962,2,0,L|159:148,1,58.4999973220826,2|0,0:0|0:0,0:0:0:0:
269,257,92259,2,0,L|198:263,1,58.4999973220826,2|0,0:0|0:0,0:0:0:0:
143,126,92556,6,0,L|85:117,1,58.4999973220826,8|0,0:0|0:0,0:0:0:0:
8,171,92853,1,2,0:0:0:0:
51,37,93002,2,0,L|108:28,1,58.4999973220826,2|0,0:0|0:0,0:0:0:0:
202,76,93299,1,2,0:0:0:0:
314,154,93447,6,0,P|285:94|310:35,1,116.999994644165,8|0,0:0|0:0,0:0:0:0:
398,23,93893,1,2,0:0:0:0:
494,112,94042,2,0,L|437:105,1,58.4999973220826,2|0,0:0|0:0,0:0:0:0:
380,212,94338,2,0,P|324:227|294:275,1,116.999994644165,8|0,0:0|0:0,0:0:0:0:
370,365,94784,1,2,0:0:0:0:
478,339,94933,2,0,L|484:277,1,58.4999973220826,2|2,0:0|0:0,0:0:0:0:
483,280,95155,1,2,0:0:0:0:
483,280,95229,5,6,3:0:0:0:
380,212,95378,1,2,3:0:0:0:
201,357,95675,1,2,3:0:0:0:
82,159,95972,1,2,3:0:0:0:
279,254,96269,5,8,3:0:0:0:
249,171,96417,1,8,3:0:0:0:
317,116,96566,1,8,3:0:0:0:
287,33,96714,1,8,3:0:0:0:
279,253,97012,6,0,P|308:254|335:264,2,58.4999973220826,2|2|2,0:0|0:0|0:0,0:0:0:0:
297,235,97457,2,0,P|338:239|390:213,1,87.749995983124,2|0,3:0|3:0,3:0:0:0:
384,207,97754,2,0,P|415:180|434:125,1,87.749995983124,2|0,3:0|3:0,3:0:0:0:
430,124,98051,1,2,3:0:0:0:
483,225,98200,2,0,L|475:293,1,58.4999973220826,2|2,0:0|0:0,0:0:0:0:
493,370,98497,1,8,0:0:0:0:
289,333,98794,6,0,P|260:343|237:361,2,58.4999973220826,2|2|2,0:0|0:0|0:0,0:0:0:0:
314,346,99239,2,0,P|312:299|284:253,1,87.749995983124,2|0,3:0|3:0,3:0:0:0:
278,264,99536,2,0,P|243:232|191:219,1,87.749995983124,2|0,3:0|3:0,3:0:0:0:
191,225,99833,2,0,L|183:161,1,58.4999973220826,2|2,3:0|0:0,0:0:0:0:
88,102,100130,2,0,L|97:159,1,58.4999973220826,2|8,0:0|0:0,0:0:0:0:
315,58,100576,5,2,0:0:0:0:
248,91,100724,2,0,P|217:88|187:70,1,58.4999973220826,2|2,0:0|0:0,0:0:0:0:
308,133,101021,2,0,P|320:175|315:219,1,87.749995983124,2|0,3:0|3:0,3:0:0:0:
310,232,101318,2,0,L|417:251,1,87.749995983124,2|0,3:0|3:0,3:0:0:0:
406,258,101615,1,2,3:0:0:0:
325,320,101764,2,0,P|300:334|271:364,2,58.4999973220826,2|2|10,0:0|0:0|0:0,0:0:0:0:
199,202,102358,5,2,3:0:0:0:
122,314,102507,1,2,3:0:0:0:
30,212,102655,1,2,3:0:0:0:
199,202,102804,2,0,P|211:228|215:257,1,58.4999973220826,8|0,0:0|0:0,0:0:0:0:
118,122,103101,2,0,P|121:93|134:66,2,58.4999973220826,8|0|2,0:0|0:0|3:0,0:0:0:0:
282,115,103546,1,2,3:0:0:0:
124,198,103695,1,2,3:0:0:0:
260,100,103843,2,0,L|204:114,1,58.4999973220826,8|0,0:0|0:0,0:0:0:0:
341,36,104140,5,2,0:0:0:0:
341,36,104289,2,0,P|363:54|391:63,1,58.4999973220826,2|0,0:0|0:0,0:0:0:0:
386,145,104586,2,0,P|414:141|440:128,1,58.4999973220826,2|0,0:0|0:0,0:0:0:0:
317,182,104882,1,2,0:0:0:0:
317,182,105031,2,0,L|301:260,1,58.4999973220826,2|0,0:0|0:0,0:0:0:0:
394,346,105328,1,2,0:0:0:0:
394,346,105477,2,0,L|378:268,1,58.4999973220826,2|0,0:0|0:0,0:0:0:0:
251,306,105773,1,2,0:0:0:0:
251,306,105922,6,0,P|224:317|195:315,1,58.4999973220826,2|0,0:0|0:0,0:0:0:0:
159,232,106219,1,2,0:0:0:0:
159,232,106368,2,0,P|132:220|113:199,1,58.4999973220826,2|0,0:0|0:0,0:0:0:0:
13,124,106665,1,2,0:0:0:0:
13,124,106814,2,0,P|32:101|62:84,1,58.4999973220826,2|2,0:0|0:0,0:0:0:0:
171,104,107111,2,0,P|180:131|181:160,1,58.4999973220826,2|2,0:0|0:0,0:0:0:0:
133,30,107408,1,2,0:0:0:0:
247,103,107556,2,0,L|241:58,1,29.2499986610413,2|2,0:0|3:0,0:0:0:0:
250,57,107705,6,0,P|292:72|333:58,1,87.749995983124,2|0,3:0|0:0,0:0:0:0:
342,75,108002,2,0,P|308:103|294:150,1,87.749995983124,2|0,3:0|0:0,0:0:0:0:
294,158,108299,1,2,3:0:0:0:
305,261,108447,1,2,3:0:0:0:
383,153,108596,2,0,L|400:292,1,116.999994644165,2|2,3:0|0:0,0:0:0:0:
235,341,109041,1,2,0:0:0:0:
235,253,109190,1,2,0:0:0:0:
310,297,109338,1,2,0:0:0:0:
156,295,109487,5,10,3:0:0:0:
146,267,109561,1,0,2:0:0:0:
146,238,109635,1,0,2:0:0:0:
155,210,109709,1,0,2:0:0:0:
173,187,109784,1,0,2:0:0:0:
357,162,109932,5,10,3:0:0:0:
339,184,110007,1,0,0:0:0:0:
314,198,110081,1,0,0:0:0:0:
285,205,110155,1,0,0:0:0:0:
257,200,110229,1,0,0:0:0:0:
142,54,110378,5,10,3:0:0:0:
170,59,110452,1,0,2:0:0:0:
195,73,110526,1,0,2:0:0:0:
215,95,110600,1,0,2:0:0:0:
225,122,110675,1,0,2:0:0:0:
155,295,110823,6,0,P|147:238|173:186,1,116.999994644165,8|0,0:0|0:0,0:0:0:0:
357,162,111269,6,0,P|405:132|462:137,1,116.999994644165,4|0,0:0|0:0,0:0:0:0:
436,284,111714,2,0,L|422:202,1,58.4999973220826,2|0,0:0|0:0,0:0:0:0:
240,222,112012,2,0,L|262:353,1,116.999994644165,2|0,0:0|0:0,0:0:0:0:
340,258,112457,1,2,0:0:0:0:
252,135,112606,2,0,P|222:134|195:145,1,58.4999973220826,2|0,0:0|0:0,0:0:0:0:
137,217,112903,1,2,0:0:0:0:
325,165,113051,6,0,P|332:146|334:127,2,38.9999982147218,10|2|2,0:0|0:0|0:0,0:0:0:0:
315,181,113348,2,0,P|345:180|372:189,1,58.4999973220826,2|0,0:0|0:0,0:0:0:0:
316,328,113645,2,0,P|286:327|259:336,1,58.4999973220826,2|0,0:0|0:0,0:0:0:0:
456,259,113942,2,0,P|479:209|470:142,1,116.999994644165,8|0,0:0|0:0,0:0:0:0:
383,12,114388,2,0,P|376:69|399:122,1,116.999994644165,8|0,0:0|0:0,0:0:0:0:
284,52,114833,6,0,L|213:58,1,58.4999973220826,12|0,0:0|0:0,0:0:0:0:
136,118,115130,2,0,L|79:110,1,58.4999973220826,2|0,0:0|0:0,0:0:0:0:
310,78,115427,2,0,L|251:82,1,58.4999973220826,2|0,0:0|0:0,0:0:0:0:
62,77,115724,6,0,L|120:86,1,58.4999973220826,8|0,0:0|0:0,0:0:0:0:
9,146,116021,1,2,0:0:0:0:
85,248,116170,2,0,L|142:256,1,58.4999973220826,2|0,0:0|0:0,0:0:0:0:
31,316,116467,1,2,0:0:0:0:
31,316,116541,1,2,0:0:0:0:
31,316,116615,6,0,P|79:327|130:371,1,116.999994644165,10|0,0:0|0:0,0:0:0:0:
212,330,117061,1,2,0:0:0:0:
309,284,117210,2,0,P|322:316|317:351,1,58.4999973220826,2|0,0:0|0:0,0:0:0:0:
234,248,117507,2,0,P|207:206|202:139,1,116.999994644165,8|0,0:0|0:0,0:0:0:0:
115,110,117953,1,2,0:0:0:0:
44,26,118102,2,0,P|24:46|14:74,1,58.4999973220826,2|0,0:0|0:0,0:0:0:0:
186,59,118398,6,4,P|238:32|296:32,1,116.999994644165,8|0,0:0|0:0,0:0:0:0:
421,98,118843,2,0,P|386:102|362:94,1,58.4999973220826,2|0,0:0|0:0,0:0:0:0:
453,183,119141,2,0,P|397:197|340:185,1,116.999994644165,2|0,0:0|0:0,0:0:0:0:
286,116,119586,1,2,0:0:0:0:
297,273,119735,2,0,P|291:305|276:338,1,58.4999973220826,2|0,0:0|0:0,0:0:0:0:
127,296,120032,1,2,0:0:0:0:
127,296,120106,1,2,0:0:0:0:
127,296,120180,6,0,L|71:291,2,38.9999982147218,10|2|2,0:0|0:0|0:0,0:0:0:0:
144,286,120477,2,0,P|153:259|154:230,1,58.4999973220826,2|0,0:0|0:0,0:0:0:0:
78,97,120774,2,0,P|78:126|88:153,1,58.4999973220826,2|0,0:0|0:0,0:0:0:0:
168,28,121071,6,0,L|212:8,3,29.2499986610413,2|0|0|0,0:0|0:0|0:0|0:0,0:0:0:0:
255,58,121368,2,0,L|299:38,1,29.2499986610413,2|0,0:0|0:0,0:0:0:0:
356,59,121516,1,2,0:0:0:0:
370,57,121590,1,0,0:0:0:0:
385,58,121664,1,0,0:0:0:0:
399,62,121738,1,0,0:0:0:0:
411,69,121813,1,0,0:0:0:0:
422,79,121887,1,0,0:0:0:0:
431,91,121962,6,0,P|438:62|434:33,1,58.4999973220826,8|0,0:0|0:0,0:0:0:0:
399,225,122259,2,0,P|392:196|396:167,1,58.4999973220826,0|0,0:0|0:0,0:0:0:0:
457,79,122556,2,0,P|463:50|459:21,1,58.4999973220826,0|0,0:0|0:0,0:0:0:0:
421,187,122853,6,0,P|416:215|423:244,1,58.4999973220826,8|0,0:0|0:0,0:0:0:0:
489,307,123150,1,2,0:0:0:0:
361,336,123299,2,0,P|383:354|411:362,1,58.4999973220826,2|0,0:0|0:0,0:0:0:0:
312,258,123596,1,2,0:0:0:0:
312,258,123670,1,2,0:0:0:0:
312,258,123744,6,0,L|188:266,1,116.999994644165,10|0,0:0|0:0,0:0:0:0:
132,326,124190,1,2,0:0:0:0:
2,277,124338,2,0,L|61:274,1,58.4999973220826,2|0,0:0|0:0,0:0:0:0:
204,188,124635,1,10,0:0:0:0:
204,188,124710,1,2,0:0:0:0:
204,188,124784,2,0,P|234:187|260:175,1,58.4999973220826,2|0,0:0|0:0,0:0:0:0:
380,189,125081,1,2,0:0:0:0:
496,79,125229,2,0,P|466:80|440:92,1,58.4999973220826,2|0,0:0|0:0,0:0:0:0:
202,84,125526,6,0,P|118:108|88:190,1,180,4|0,0:0|0:0,0:0:0:0:
239,339,125972,2,0,P|259:254|203:187,1,180,4|0,0:0|0:0,0:0:0:0:
141,289,126417,2,0,B|80:290|80:290|9:345,1,135,8|0,0:0|0:0,0:0:0:0:
35,353,126715,2,0,B|93:307|93:307|154:306,1,135,8|0,0:0|0:0,0:0:0:0:
168,323,127012,1,8,3:0:0:0:
17,228,127160,1,8,3:0:0:0:
239,339,127309,6,0,P|294:280|392:298,1,180,4|0,0:0|0:0,0:0:0:0:
495,138,127754,2,0,P|433:199|348:184,1,180,4|0,0:0|0:0,0:0:0:0:
255,31,128200,2,0,B|299:47|299:47|389:29,1,135,8|0,0:0|0:0,0:0:0:0:
408,27,128497,2,0,B|388:69|388:69|311:120,1,135,8|0,0:0|0:0,0:0:0:0:
292,117,128794,1,8,3:0:0:0:
468,68,128942,1,8,3:0:0:0:
269,192,129091,6,0,P|273:236|293:276,1,90,4|0,0:0|0:0,0:0:0:0:
368,321,129388,1,2,0:0:0:0:
194,262,129536,2,0,P|164:295|150:338,1,90,2|0,0:0|0:0,0:0:0:0:
222,383,129833,1,2,0:0:0:0:
104,229,129982,2,0,L|-18:241,1,90,8|0,0:0|0:0,0:0:0:0:
198,115,130279,2,0,L|109:107,1,90,2|0,0:0|0:0,0:0:0:0:
309,50,130576,1,0,0:0:0:0:
309,50,130724,1,0,0:0:0:0:
394,195,130873,6,0,P|383:147|407:99,1,90,8|0,0:0|0:0,0:0:0:0:
312,230,131170,2,0,L|213:217,1,90,2|0,0:0|0:0,0:0:0:0:
394,284,131467,2,0,P|401:327|382:368,1,90,2|0,0:0|0:0,0:0:0:0:
473,243,131764,1,8,0:0:0:0:
473,74,131913,1,2,0:0:0:0:
476,60,131987,1,2,0:0:0:0:
480,47,132061,1,2,0:0:0:0:
361,13,132210,1,2,0:0:0:0:
304,107,132358,1,8,3:0:0:0:
319,129,132507,1,8,3:0:0:0:
159,58,132655,6,0,P|76:31|4:81,1,180,4|0,0:0|0:0,0:0:0:0:
43,197,133101,1,2,0:0:0:0:
154,222,133249,2,0,P|169:197|180:134,1,90,2|0,0:0|0:0,0:0:0:0:
133,315,133546,2,0,L|15:329,1,90,8|0,0:0|0:0,0:0:0:0:
204,376,133843,1,2,0:0:0:0:
334,289,133992,2,0,L|216:303,1,90,2|0,0:0|0:0,0:0:0:0:
425,336,134289,1,0,0:0:0:0:
425,336,134363,1,0,0:0:0:0:
425,336,134437,6,0,P|451:301|447:252,1,90,10|0,0:0|0:0,0:0:0:0:
409,165,134734,1,2,0:0:0:0:
240,180,134883,2,0,P|277:203|321:198,1,90,2|0,0:0|0:0,0:0:0:0:
189,100,135180,1,2,0:0:0:0:
82,128,135328,1,8,0:0:0:0:
82,128,135477,1,2,0:0:0:0:
109,29,135625,1,2,0:0:0:0:
156,211,135774,2,0,P|146:254|111:281,1,90,2|0,0:0|0:0,0:0:0:0:
19,347,136071,1,2,0:0:0:0:
19,347,136145,1,2,0:0:0:0:
19,347,136219,6,0,P|63:345|99:371,1,90,10|0,0:0|0:0,0:0:0:0:
36,264,136516,1,2,0:0:0:0:
182,337,136665,2,0,L|287:320,1,90,2|0,0:0|0:0,0:0:0:0:
346,252,136962,1,2,0:0:0:0:
273,125,137111,1,10,0:0:0:0:
265,214,137259,1,2,0:0:0:0:
390,95,137408,1,2,0:0:0:0:
349,29,137556,1,2,0:0:0:0:
209,56,137705,1,8,3:0:0:0:
206,82,137853,1,8,3:0:0:0:
351,173,138002,6,0,P|422:180|482:88,1,180,0|0,0:0|0:0,0:0:0:0:
440,25,138447,1,2,0:0:0:0:
495,222,138596,2,0,L|489:327,1,90,2|2,0:0|0:0,0:0:0:0:
351,173,138893,2,0,L|338:361,1,180,8|0,0:0|0:0,0:0:0:0:
238,262,139338,2,0,P|195:283|153:282,2,90,8|0|0,0:0|0:0|0:0,0:0:0:0:
428,157,139784,6,0,P|388:97|281:136,1,180,4|0,0:0|0:0,0:0:0:0:
100,227,140229,2,0,P|154:161|236:186,1,180,4|0,0:0|0:0,0:0:0:0:
49,319,140675,2,0,B|19:274|19:274|8:167,1,135,8|0,0:0|0:0,0:0:0:0:
30,181,140972,2,0,B|31:99|31:99|56:52,1,135,8|0,0:0|0:0,0:0:0:0:
76,40,141270,1,8,3:0:0:0:
210,91,141418,1,8,3:0:0:0:
99,226,141567,6,0,P|166:282|251:262,1,180,4|0,0:0|0:0,0:0:0:0:
477,349,142012,2,0,P|410:294|326:314,1,180,4|0,0:0|0:0,0:0:0:0:
370,208,142458,2,0,B|410:204|410:204|509:233,1,135,8|0,0:0|0:0,0:0:0:0:
498,208,142754,2,0,B|407:181|407:181|367:185,1,135,8|0,0:0|0:0,0:0:0:0:
347,173,143052,1,8,3:0:0:0:
325,314,143200,1,8,3:0:0:0:
231,190,143349,6,0,P|230:145|251:106,1,90,4|0,0:0|0:0,0:0:0:0:
334,71,143646,1,2,0:0:0:0:
164,42,143794,2,0,P|202:18|246:18,1,90,2|0,0:0|0:0,0:0:0:0:
334,71,144091,1,2,0:0:0:0:
150,122,144240,2,0,L|34:128,1,90,8|0,0:0|0:0,0:0:0:0:
192,259,144536,2,0,L|308:265,1,90,2|0,0:0|0:0,0:0:0:0:
119,209,144834,1,2,0:0:0:0:
119,209,144982,1,2,0:0:0:0:
242,338,145131,6,0,P|286:343|323:367,1,90,8|0,0:0|0:0,0:0:0:0:
463,255,145427,2,0,L|358:265,1,90,2|0,0:0|0:0,0:0:0:0:
255,176,145724,2,0,P|299:168|334:141,1,90,2|0,0:0|0:0,0:0:0:0:
191,117,146022,1,10,0:0:0:0:
346,57,146170,1,2,0:0:0:0:
347,43,146244,1,2,0:0:0:0:
349,29,146319,1,2,0:0:0:0:
482,57,146468,1,2,0:0:0:0:
415,154,146616,1,8,3:0:0:0:
419,127,146765,1,8,3:0:0:0:
485,297,146913,6,0,P|441:364|377:316,1,180,12|0,0:0|0:0,0:0:0:0:
420,238,147359,1,2,0:0:0:0:
300,347,147507,2,0,P|258:331|229:297,1,90,2|0,0:0|0:0,0:0:0:0:
138,91,147804,2,0,L|121:197,1,90,8|0,0:0|0:0,0:0:0:0:
39,225,148101,1,2,0:0:0:0:
37,21,148249,2,0,L|54:127,1,90,2|0,0:0|0:0,0:0:0:0:
206,37,148547,1,2,0:0:0:0:
206,37,148621,1,2,0:0:0:0:
206,37,148695,6,0,P|249:48|293:42,1,90,10|0,0:0|0:0,0:0:0:0:
370,10,148992,1,2,0:0:0:0:
473,119,149140,2,0,P|428:112|385:124,1,90,2|0,0:0|0:0,0:0:0:0:
320,176,149438,1,2,0:0:0:0:
448,307,149586,2,0,L|438:206,1,90,8|0,0:0|0:0,0:0:0:0:
369,366,149883,1,2,0:0:0:0:
251,240,150031,2,0,L|242:329,1,90,2|0,0:0|0:0,0:0:0:0:
336,281,150329,1,2,0:0:0:0:
159,279,150477,6,0,P|116:270|72:281,1,90,8|0,0:0|0:0,0:0:0:0:
24,347,150774,1,2,0:0:0:0:
104,193,150923,2,0,L|118:91,1,90,2|0,0:0|0:0,0:0:0:0:
46,31,151220,1,2,0:0:0:0:
196,24,151369,1,10,0:0:0:0:
234,149,151517,1,2,0:0:0:0:
326,90,151666,1,2,0:0:0:0:
303,23,151814,1,2,0:0:0:0:
307,168,151962,1,8,3:0:0:0:
303,194,152110,1,8,3:0:0:0:
209,341,152260,6,0,P|272:284|347:323,1,180,8|0,0:0|0:0,0:0:0:0:
473,212,152705,2,0,P|480:168|464:126,2,90,0|0|0,0:0|0:0|0:0,0:0:0:0:
303,194,153150,2,0,L|395:175,1,90,8|0,0:0|0:0,0:0:0:0:
199,65,153447,2,0,P|191:108|207:150,1,90
369,83,153744,2,0,L|276:101,1,90
163,238,154041,6,0,L|147:222,2,22.5,2|2|2,0:0|0:0|0:0,0:0:0:0:
168,243,154437,2,0,P|220:250|268:284,1,90,2|2,0:0|0:0,0:0:0:0:
290,344,154956,1,2,0:0:0:0:
290,344,155031,2,0,B|378:385|380:303|462:344,1,180,2|2,0:0|0:0,0:0:0:0:
478,266,155847,6,0,P|467:166|403:255,1,270,4|0,0:0|0:0,0:0:0:0:
402,253,156847,2,0,P|421:176|385:76,1,180,2|2,0:0|0:0,0:0:0:0:
230,142,157647,6,0,P|280:154|319:137,1,90,2|2,0:0|0:0,0:0:0:0:
272,69,158226,1,2,0:0:0:0:
191,27,158516,1,2,0:0:0:0:
117,78,158806,1,2,0:0:0:0:
33,39,159096,1,2,0:0:0:0:
230,142,159387,6,0,P|255:206|238:297,1,157.5,4|0,0:0|0:0,0:0:0:0:
240,291,159981,2,0,P|222:241|381:218,1,270,4|2,0:0|0:0,0:0:0:0:
303,239,161169,6,0,B|234:227|234:227|157:238|157:238|81:223,1,225,8|2,3:0|0:0,0:0:0:0:
58,217,162060,1,2,0:0:0:0:
160,315,162951,6,0,B|249:299|249:299|349:313|349:313|448:294,1,281.25,8|2,3:0|0:0,0:0:0:0:
460,289,163842,1,2,0:0:0:0:
250,224,164684,1,2,0:0:0:0:
250,224,164734,6,0,B|154:247|68:151|112:55|166:21|228:38|228:38|210:92|164:129|101:108|77:58|77:58|32:114|44:195|98:248|129:268|129:268|96:281|89:320,1,836.999974456788,6|0,0:0|0:0,0:0:0:0:
96,297,168734,6,0,P|95:331|108:362,1,60,4|0,0:0|0:0,0:0:0:0:
236,327,169067,2,0,L|177:324,1,60,2|0,0:0|0:0,0:0:0:0:
310,284,169400,2,0,L|369:287,1,60,2|0,0:0|0:0,0:0:0:0:
250,224,169734,2,0,P|241:165|257:107,1,120,2|0,0:0|0:0,0:0:0:0:
338,128,170234,2,0,P|373:79|425:50,1,120,2|0,0:0|0:0,0:0:0:0:
298,31,170734,6,0,L|170:40,1,120,2|0,0:0|0:0,0:0:0:0:
9,95,171234,2,0,L|137:104,1,120,2|0,0:0|0:0,0:0:0:0:
187,170,171734,2,0,P|193:220|143:278,1,120,2|0,0:0|0:0,0:0:0:0:
357,217,172234,2,0,P|305:192|285:136,1,120,2|0,0:0|0:0,0:0:0:0:
231,340,172734,6,0,P|279:308|337:318,2,120,2|0|2,0:0|0:0|0:0,0:0:0:0:
153,273,173567,1,2,0:0:0:0:
70,341,173734,2,0,P|34:278|38:226,1,120,2|0,0:0|0:0,0:0:0:0:
149,77,174234,2,0,P|147:136|115:185,1,120,2|0,0:0|0:0,0:0:0:0:
216,215,174734,6,0,P|245:198|279:198,2,60,2|0|2,0:0|0:0|0:0,0:0:0:0:
357,217,175234,2,0,L|334:74,1,120,2|0,0:0|0:0,0:0:0:0:
278,44,175734,2,0,P|251:29|222:26,2,60,2|0|2,0:0|0:0|0:0,0:0:0:0:
364,26,176234,2,0,P|421:53|489:23,1,120,2|0,0:0|0:0,0:0:0:0:
419,86,176734,6,0,L|438:204,1,120,4|0,0:0|0:0,0:0:0:0:
455,289,177234,1,2,0:0:0:0:
368,265,177400,2,0,P|350:294|346:341,1,60,2|0,0:0|0:0,0:0:0:0:
344,319,177734,2,0,P|310:272|253:258,1,120,2|0,0:0|0:0,0:0:0:0:
283,168,178234,1,2,0:0:0:0:
196,192,178400,2,0,P|178:163|174:116,1,60,2|0,0:0|0:0,0:0:0:0:
172,137,178734,6,0,P|137:184|80:198,1,120,2|0,0:0|0:0,0:0:0:0:
70,10,179234,2,0,P|128:15|169:58,1,120,2|0,0:0|0:0,0:0:0:0:
238,99,179734,2,0,L|357:87,1,120,2|0,0:0|0:0,0:0:0:0:
449,47,180234,1,2,0:0:0:0:
423,132,180400,2,0,P|416:161|424:189,1,60,2|0,0:0|0:0,0:0:0:0:
471,267,180734,2,0,P|477:296|469:324,1,60,2|0,0:0|0:0,0:0:0:0:
387,354,181067,6,0,P|324:367|253:343,2,120,2|0|2,0:0|0:0|0:0,0:0:0:0:
192,293,182067,1,2,0:0:0:0:
112,354,182234,2,0,P|87:293|97:223,1,120,2|0,0:0|0:0,0:0:0:0:
131,170,182734,6,0,P|142:143|148:114,1,60,2|0,0:0|0:0,0:0:0:0:
122,38,183067,1,2,0:0:0:0:
240,113,183234,2,0,P|234:83|222:56,1,60,2|0,0:0|0:0,0:0:0:0:
122,38,183567,1,2,0:0:0:0:
208,183,183734,6,0,P|219:210|225:239,1,60
198,315,184067,1,2,0:0:0:0:
316,240,184234,2,0,P|310:269|298:296,1,60,2|0,0:0|0:0,0:0:0:0:
198,315,184567,1,2,0:0:0:0:
348,362,184734,6,0,P|410:358|452:291,1,120,4|0,0:0|0:0,0:0:0:0:
396,192,185234,2,0,P|406:219|429:238,1,60,2|0,0:0|0:0,0:0:0:0:
389,82,185567,1,2,0:0:0:0:
309,154,185734,2,0,P|253:135|211:93,1,120,2|0,0:0|0:0,0:0:0:0:
144,158,186234,2,0,P|117:104|117:45,1,120,2|0,0:0|0:0,0:0:0:0:
43,134,186734,6,0,L|30:277,1,120,2|0,0:0|0:0,0:0:0:0:
119,345,187234,2,0,L|108:225,1,120,2|0,0:0|0:0,0:0:0:0:
192,311,187734,2,0,P|237:341|298:291,1,120,2|0,0:0|0:0,0:0:0:0:
395,233,188234,2,0,P|345:205|296:235,1,120,2|0,0:0|0:0,0:0:0:0:
423,311,188734,6,0,P|472:266|465:191,2,120,2|0|2,0:0|0:0|0:0,0:0:0:0:
361,374,189567,1,2,0:0:0:0:
290,313,189734,2,0,L|266:172,1,120,2|0,0:0|0:0,0:0:0:0:
197,93,190234,2,0,P|252:110|302:80,1,120,2|0,0:0|0:0,0:0:0:0:
364,19,190734,6,0,P|380:43|389:72,2,60,2|0|2,0:0|0:0|0:0,0:0:0:0:
461,174,191234,2,0,P|405:156|355:186,1,120,2|0,0:0|0:0,0:0:0:0:
294,248,191734,2,0,P|277:223|268:194,2,60,2|0|2,0:0|0:0|0:0,0:0:0:0:
361,321,192234,2,0,L|239:348,1,120,2|0,0:0|0:0,0:0:0:0:
69,276,192734,6,0,P|115:254|193:297,1,120,4|0,0:0|0:0,0:0:0:0:
122,338,193234,1,2,0:0:0:0:
25,204,193400,2,0,P|17:175|23:144,1,60,2|0,0:0|0:0,0:0:0:0:
217,170,193734,2,0,P|264:187|289:272,1,120,2|0,0:0|0:0,0:0:0:0:
243,346,194234,1,2,0:0:0:0:
177,276,194400,2,0,P|151:260|121:254,1,60,2|0,0:0|0:0,0:0:0:0:
340,318,194734,6,0,P|399:323|456:306,1,120,2|0,0:0|0:0,0:0:0:0:
401,229,195234,2,0,P|447:191|475:138,1,120,2|0,0:0|0:0,0:0:0:0:
382,23,195734,2,0,L|376:171,1,120,2|0,0:0|0:0,0:0:0:0:
401,229,196234,1,2,0:0:0:0:
340,318,196400,2,0,P|366:331|388:352,1,60,2|0,0:0|0:0,0:0:0:0:
248,286,196734,2,0,P|249:315|242:345,1,60,2|0,0:0|0:0,0:0:0:0:
189,193,197067,6,0,P|154:240|98:256,2,120,2|0|2,0:0|0:0|0:0,0:0:0:0:
87,49,198067,1,2,0:0:0:0:
160,108,198234,2,0,P|218:104|263:65,1,120,2|0,0:0|0:0,0:0:0:0:
343,83,198734,6,0,P|331:110|328:139,1,60,2|0,0:0|0:0,0:0:0:0:
375,206,199067,1,2,0:0:0:0:
407,329,199234,2,0,P|419:301|422:272,1,60,2|0,0:0|0:0,0:0:0:0:
375,206,199567,1,2,0:0:0:0:
498,174,199734,6,0,P|470:161|441:158,1,60,2|0,0:0|0:0,0:0:0:0:
375,206,200067,1,2,0:0:0:0:
252,238,200234,2,0,P|279:250|308:253,1,60,2|0,0:0|0:0,0:0:0:0:
375,206,200567,1,2,0:0:0:0:
343,83,200734,6,0,L|330:13,1,60,4|0,0:0|0:0,0:0:0:0:
280,139,201067,2,0,P|252:151|222:148,1,60,2|0,0:0|0:0,0:0:0:0:
100,72,201400,2,0,P|129:69|157:80,1,60,2|0,0:0|0:0,0:0:0:0:
29,260,201734,2,0,P|17:202|38:148,1,120,2|0,0:0|0:0,0:0:0:0:
190,299,202234,2,0,P|140:266|117:212,1,120,2|0,0:0|0:0,0:0:0:0:
277,236,202734,6,0,L|269:355,1,120,2|0,0:0|0:0,0:0:0:0:
361,168,203234,2,0,L|368:287,1,120,2|0,0:0|0:0,0:0:0:0:
313,82,203734,2,0,P|370:94|421:65,1,120,2|0,0:0|0:0,0:0:0:0:
277,156,204234,2,0,P|219:143|168:172,1,120,2|0,0:0|0:0,0:0:0:0:
76,89,204734,6,0,L|63:231,2,120,2|0|2,0:0|0:0|0:0,0:0:0:0:
146,17,205567,1,2,0:0:0:0:
216,89,205734,2,0,L|229:231,1,120,2|0,0:0|0:0,0:0:0:0:
124,284,206234,2,0,P|182:275|234:302,1,120,2|0,0:0|0:0,0:0:0:0:
301,358,206734,6,0,P|330:348|360:347,2,60,2|0|2,0:0|0:0|0:0,0:0:0:0:
435,363,207234,2,0,P|472:318|479:259,1,120,2|0,0:0|0:0,0:0:0:0:
413,133,207734,2,0,P|409:162|417:191,2,60,2|0|2,0:0|0:0|0:0,0:0:0:0:
399,266,208234,2,0,P|341:269|297:231,1,120,2|0,0:0|0:0,0:0:0:0:
248,30,208734,6,0,P|280:78|269:136,1,120,4|0,0:0|0:0,0:0:0:0:
204,199,209234,1,2,0:0:0:0:
190,100,209400,2,0,P|164:115|134:118,1,60,2|0,0:0|0:0,0:0:0:0:
134,118,209734,2,0,P|83:145|25:134,1,120,2|0,0:0|0:0,0:0:0:0:
204,199,210234,1,2,0:0:0:0:
218,298,210400,2,0,P|243:282|273:279,1,60,2|0,0:0|0:0,0:0:0:0:
272,278,210734,6,0,P|323:250|381:261,1,120,2|0,0:0|0:0,0:0:0:0:
494,370,211234,2,0,P|442:342|384:353,1,120,2|0,0:0|0:0,0:0:0:0:
464,270,211734,2,0,L|449:141,1,120,2|0,0:0|0:0,0:0:0:0:
400,72,212234,1,2,0:0:0:0:
323,30,212400,2,0,P|293:24|263:29,1,60,2|0,0:0|0:0,0:0:0:0:
207,91,212734,2,0,P|177:95|147:90,1,60,2|0,0:0|0:0,0:0:0:0:
61,24,213067,6,0,P|75:83|46:143,2,120,2|0|2,0:0|0:0|0:0,0:0:0:0:
201,162,214067,1,2,0:0:0:0:
287,126,214234,2,0,P|339:154|378:199,1,120,2|0,0:0|0:0,0:0:0:0:
344,349,214734,6,0,P|323:327|314:298,1,60,2|0,0:0|0:0,0:0:0:0:
399,283,215067,1,2,0:0:0:0:
486,274,215234,2,0,P|487:303|475:331,1,60,2|0,0:0|0:0,0:0:0:0:
399,283,215567,1,2,0:0:0:0:
299,230,215734,6,0,L|281:163,1,60,2|0,0:0|0:0,0:0:0:0:
351,85,216067,1,2,0:0:0:0:
447,139,216234,2,0,L|465:206,1,60,2|0,0:0|0:0,0:0:0:0:
399,283,216567,1,2,0:0:0:0:
242,287,216734,6,0,P|185:300|143:342,1,120,4|0,0:0|0:0,0:0:0:0:
63,218,217234,2,0,P|73:245|76:275,1,60,2|0,0:0|0:0,0:0:0:0:
31,347,217567,1,2,0:0:0:0:
147,233,217734,2,0,P|146:174|171:120,1,120,2|0,0:0|0:0,0:0:0:0:
346,264,218234,2,0,P|295:295|236:300,1,120,2|0,0:0|0:0,0:0:0:0:
273,77,218734,6,0,P|325:106|359:154,1,120,2|0,0:0|0:0,0:0:0:0:
147,233,219234,2,0,P|146:174|171:120,1,120,2|0,0:0|0:0,0:0:0:0:
359,154,219734,2,0,P|412:178|468:161,1,120,2|0,0:0|0:0,0:0:0:0:
346,264,220234,2,0,P|289:246|236:271,1,120,2|0,0:0|0:0,0:0:0:0:
145,358,220734,6,0,L|116:213,2,120,2|0|2,0:0|0:0|0:0,0:0:0:0:
42,315,221567,1,2,0:0:0:0:
47,201,221734,2,0,P|89:161|148:159,1,120,2|0,0:0|0:0,0:0:0:0:
318,68,222234,2,0,P|259:70|217:111,1,120,2|0,0:0|0:0,0:0:0:0:
394,110,222734,6,0,P|412:133|420:162,2,60,2|0|2,0:0|0:0|0:0,0:0:0:0:
330,173,223234,2,0,L|318:292,1,120,2|0,0:0|0:0,0:0:0:0:
260,358,223734,2,0,P|235:374|205:378,2,60,2|0|2,0:0|0:0|0:0,0:0:0:0:
359,372,224234,2,0,P|410:343|469:350,1,120,2|0,0:0|0:0,0:0:0:0:
318,292,224734,6,0,L|199:272,1,120,4|0,0:0|0:0,0:0:0:0:
197,182,225234,1,2,0:0:0:0:
119,235,225400,2,0,P|108:262|111:292,1,60,2|0,0:0|0:0,0:0:0:0:
118,154,225734,2,0,L|0:173,1,120,2|0,0:0|0:0,0:0:0:0:
101,69,226234,1,2,0:0:0:0:
184,102,226400,2,0,P|196:74|200:45,1,60,2|0,0:0|0:0,0:0:0:0:
262,130,226734,6,0,P|317:112|372:135,1,120,2|0,0:0|0:0,0:0:0:0:
478,229,227234,2,0,P|423:252|368:234,1,120,2|0,0:0|0:0,0:0:0:0:
501,169,227734,2,0,L|495:317,1,120,2|0,0:0|0:0,0:0:0:0:
425,344,228234,1,2,0:0:0:0:
341,312,228400,2,0,P|312:302|283:305,1,60,2|0,0:0|0:0,0:0:0:0:
218,357,228734,2,0,P|189:366|160:363,1,60,2|0,0:0|0:0,0:0:0:0:
63,315,229067,6,0,P|24:248|34:184,1,120,4|0,0:0|0:0,0:0:0:0:
229,73,229734,2,0,B|177:82|177:82|165:79|165:79|111:90,1,120,2|0,0:0|0:0,0:0:0:0:
203,154,230234,2,0,B|257:143|257:143|269:146|269:146|320:136,1,120,2|0,0:0|0:0,0:0:0:0:
387,66,230734,6,0,P|417:116|410:175,1,120,2|0,0:0|0:0,0:0:0:0:
315,347,231234,2,0,P|308:288|338:237,1,120,2|0,0:0|0:0,0:0:0:0:
509,296,231734,2,0,L|370:305,1,120,2|0,0:0|0:0,0:0:0:0:
315,347,232234,1,2,0:0:0:0:
231,309,232400,2,0,P|203:297|173:298,1,60,2|0,0:0|0:0,0:0:0:0:
88,323,232734,2,0,P|60:334|40:356,1,60,2|0,0:0|0:0,0:0:0:0:
117,244,233067,6,0,L|84:104,1,120,4|0,0:0|0:0,0:0:0:0:
300,171,233734,2,0,B|271:178|246:161|246:161|241:163|241:163|217:141|186:146,1,120,2|0,0:0|0:0,0:0:0:0:
133,39,234234,2,0,B|163:34|187:56|187:56|191:54|191:54|216:71|245:63,1,120,2|0,0:0|0:0,0:0:0:0:
376,112,234734,6,0,B|399:135|400:161|400:161|403:166|403:166|389:194|393:223,1,120,2|0,0:0|0:0,0:0:0:0:
324,259,235171,2,0,L|287:251,2,33.75,2|2|0,0:0|0:0|0:0,0:0:0:0:
244,340,235525,2,0,B|213:338|190:356|190:356|159:344|159:344|146:347,2,105,2|2|2,0:0|0:0|0:0,0:0:0:0:
135,245,236400,2,0,P|110:267|83:275,1,60,2|0,0:0|0:0,0:0:0:0:
63,181,236734,2,0,P|29:179|4:165,1,60,2|0,0:0|0:0,0:0:0:0:
64,91,237067,6,0,L|197:78,1,120,4|0,0:0|0:0,0:0:0:0:
372,176,237734,1,2,0:0:0:0:
372,176,237900,2,0,B|321:168|280:184|280:184|309:198,1,120,2|0,0:0|0:0,0:0:0:0:
295,270,238359,2,0,L|301:314,2,45,2|2|2,0:0|0:0|0:0,0:0:0:0:
219,241,238734,6,0,P|194:292|135:321,1,120,2|0,0:0|0:0,0:0:0:0:
129,228,239234,2,0,P|72:231|17:195,1,120,2|0,0:0|0:0,0:0:0:0:
97,144,239734,2,0,P|65:96|69:31,1,120,2|0,0:0|0:0,0:0:0:0:
157,71,240234,1,2,0:0:0:0:
243,144,240400,2,0,P|216:157|187:164,1,60,2|0,0:0|0:0,0:0:0:0:
298,81,240734,2,0,P|327:88|353:101,1,60,2|0,0:0|0:0,0:0:0:0:
432,222,241067,6,0,L|459:344,1,120,4|0,0:0|0:0,0:0:0:0:
268,334,241734,2,0,B|280:286|280:286|288:281|288:281|304:221,1,120,2|0,0:0|0:0,0:0:0:0:
366,284,242234,1,2,0:0:0:0:
211,225,242400,1,2,0:0:0:0:
205,217,242484,1,2,0:0:0:0:
196,213,242567,1,2,0:0:0:0:
187,210,242650,1,2,0:0:0:0:
176,208,242734,6,0,P|127:239|69:231,1,120,2|0,0:0|0:0,0:0:0:0:
199,123,243234,2,0,P|196:64|232:18,1,120,2|0,0:0|0:0,0:0:0:0:
261,184,243734,2,0,P|313:211|334:265,1,120,2|0,0:0|0:0,0:0:0:0:
405,321,244234,2,0,P|431:306|461:301,2,60,2|0|2,0:0|0:0|0:0,0:0:0:0:
317,348,244734,6,0,B|265:353|265:353|248:360|248:360|190:366,1,120,4|0,0:0|0:0,0:0:0:0:
46,256,245234,2,0,L|172:270,1,120,2|0,0:0|0:0,0:0:0:0:
323,156,245734,2,0,L|197:170,1,120,2|0,0:0|0:0,0:0:0:0:
129,55,246234,2,0,P|103:39|74:30,2,60,2|0|2,0:0|0:0|0:0,0:0:0:0:
46,169,246734,1,2,0:0:0:0:
46,169,246817,1,2,0:0:0:0:
46,169,246900,6,0,B|74:99|143:125|228:98|237:204|175:288|86:234|55:132|143:125|198:75|252:129|252:129|299:174|360:191|405:174|443:135|443:107,1,660,0|8,0:0|3:0,0:0:0:0:
443,110,250489,1,2,0:0:0:0:
443,110,250648,6,0,P|473:94|507:93,1,67.5000025749208,8|0,0:0|0:0,0:0:0:0:
414,215,250968,2,0,P|384:230|350:231,1,67.5000025749208,8|0,0:0|0:0,0:0:0:0:
227,198,251287,1,8,0:0:0:0:
182,289,251446,1,8,0:0:0:0:
242,173,251606,2,0,L|232:87,1,67.5000025749208,8|0,3:0|0:0,0:0:0:0:
102,50,251924,1,2,3:0:0:0:
7,87,252085,1,2,3:0:0:0:
139,126,252244,1,8,3:0:0:0:
156,116,252404,1,8,3:0:0:0:
53,237,252563,6,0,P|47:269|54:302,1,67.5000025749208,8|0,0:0|0:0,0:0:0:0:
200,203,252882,2,0,L|115:212,1,67.5000025749208,8|0,0:0|0:0,0:0:0:0:
262,274,253202,1,8,0:0:0:0:
282,149,253361,1,8,0:0:0:0:
278,286,253521,2,0,L|362:277,1,67.5000025749208,8|0,3:0|0:0,0:0:0:0:
469,341,253839,1,2,3:0:0:0:
411,227,254000,1,2,3:0:0:0:
487,139,254159,1,8,3:0:0:0:
494,159,254319,1,8,3:0:0:0:
364,47,254478,6,0,P|395:32|428:31,1,67.5000025749208,8|0,0:0|0:0,0:0:0:0:
320,126,254797,2,0,P|286:124|256:110,1,67.5000025749208,8|0,0:0|0:0,0:0:0:0:
202,23,255117,1,8,0:0:0:0:
187,148,255276,1,8,0:0:0:0:
175,16,255436,2,0,L|107:23,1,67.5000025749208,8|0,3:0|0:0,0:0:0:0:
42,120,255754,1,2,3:0:0:0:
91,247,255915,1,2,3:0:0:0:
194,168,256074,1,8,3:0:0:0:
187,148,256234,1,8,3:0:0:0:
163,301,256393,6,0,L|181:383,1,67.5000025749208,8|0,0:0|0:0,0:0:0:0:
265,207,256712,2,0,L|247:289,1,67.5000025749208,8|0,0:0|0:0,0:0:0:0:
328,140,257032,1,8,0:0:0:0:
240,86,257191,1,8,0:0:0:0:
345,152,257351,2,0,L|429:143,1,67.5000025749208,8|0,3:0|0:0,0:0:0:0:
493,231,257669,1,2,3:0:0:0:
426,335,257830,1,2,3:0:0:0:
332,238,257989,1,8,3:0:0:0:
348,226,258149,1,8,3:0:0:0:
240,341,258308,6,0,L|172:333,1,67.5000025749208,8|0,0:0|0:0,0:0:0:0:
38,247,258628,2,0,L|106:240,1,67.5000025749208,8|0,0:0|0:0,0:0:0:0:
197,142,258947,1,8,0:0:0:0:
79,105,259106,1,8,0:0:0:0:
216,153,259266,2,0,P|224:185|223:219,1,67.5000025749208,8|0,3:0|0:0,0:0:0:0:
108,308,259584,1,2,3:0:0:0:
240,341,259745,1,2,3:0:0:0:
144,221,259904,1,8,3:0:0:0:
151,239,260064,1,8,3:0:0:0:
78,104,260223,6,0,P|112:103|141:87,1,67.5000025749208,8|0,0:0|0:0,0:0:0:0:
305,78,260542,2,0,P|271:79|242:95,1,67.5000025749208,8|0,0:0|0:0,0:0:0:0:
390,122,260862,1,8,0:0:0:0:
452,23,261021,1,8,0:0:0:0:
384,140,261181,2,0,L|397:235,1,67.5000025749208,8|0,3:0|0:0,0:0:0:0:
369,355,261499,1,2,3:0:0:0:
247,319,261660,1,2,3:0:0:0:
289,212,261819,1,8,3:0:0:0:
304,225,261979,1,8,3:0:0:0:
152,354,262138,6,0,L|60:345,1,67.5000025749208,8|0,0:0|0:0,0:0:0:0:
153,208,262457,2,0,L|245:199,1,67.5000025749208,8|0,0:0|0:0,0:0:0:0:
65,78,262776,1,8,0:0:0:0:
23,187,262936,1,8,0:0:0:0:
81,69,263095,5,8,0:0:0:0:
314,36,263573,1,8,0:0:0:0:
416,205,264052,2,0,P|417:278|467:331,1,150,8|0,0:0|0:0,0:0:0:0:
493,151,264531,2,0,P|431:111|358:129,1,150,8|0,0:0|0:0,0:0:0:0:
334,279,265009,6,0,B|261:264|261:264|188:285,1,150,8|0,0:0|0:0,0:0:0:0:
0,232,265488,2,0,B|73:247|73:247|115:232,1,112.5,8|0,0:0|0:0,0:0:0:0:
141,221,265807,2,0,L|189:205,1,37.5,2|0,0:0|0:0,0:0:0:0:
252,188,265967,2,0,B|229:138|229:138|246:72,1,112.5,8|8,0:0|0:0,0:0:0:0:
257,50,266286,1,8,0:0:0:0:
257,50,266605,6,0,L|184:67,1,75,2|0,3:0|0:0,0:0:0:0:
354,65,266924,1,2,3:0:0:0:
325,217,267083,2,0,P|334:180|324:145,1,75
298,313,267403,1,2,3:0:0:0:
458,359,267562,2,0,P|430:333|395:322,1,75
232,364,267881,6,0,L|73:373,1,150,8|0,0:0|0:0,0:0:0:0:
51,252,268360,2,0,L|164:261,1,112.5,8|2,0:0|0:0,0:0:0:0:
172,261,268679,1,2,0:0:0:0:
180,262,268759,1,2,0:0:0:0:
188,262,268839,2,0,P|227:221|201:138,1,150,10|0,0:0|0:0,0:0:0:0:
42,24,269317,2,0,P|58:79|145:96,1,150,8|8,0:0|0:0,0:0:0:0:
255,12,269796,6,0,P|230:28|207:72,1,75,2|0,3:0|0:0,0:0:0:0:
289,139,270115,1,2,0:0:0:0:
432,161,270275,2,0,P|457:145|478:104,1,75,2|0,3:0|0:0,0:0:0:0:
387,58,270594,1,2,3:0:0:0:
324,220,270753,2,0,L|319:299,1,75,2|0,3:0|0:0,0:0:0:0:
136,350,271073,1,2,3:0:0:0:
128,225,271232,1,8,3:0:0:0:
128,225,271392,1,8,3:0:0:0:
228,324,271551,1,2,3:0:0:0:
128,224,271711,6,0,P|141:168|72:117,1,150,8|0,0:0|0:0,0:0:0:0:
0,33,272190,2,0,L|111:39,1,112.5,8|2,0:0|0:0,0:0:0:0:
120,40,272509,1,2,0:0:0:0:
128,41,272588,1,2,0:0:0:0:
136,42,272668,2,0,P|188:68|274:37,1,150,10|0,0:0|0:0,0:0:0:0:
426,89,273147,2,0,P|368:77|292:129,1,150,8|8,0:0|0:0,0:0:0:0:
435,243,273626,6,0,L|455:163,1,75,8|0,0:0|0:0,0:0:0:0:
331,289,273945,2,0,L|350:208,1,75,8|0,0:0|0:0,0:0:0:0:
245,127,274264,1,2,0:0:0:0:
258,244,274423,1,2,0:0:0:0:
225,112,274583,2,0,L|232:38,1,75,2|0,3:0|0:0,0:0:0:0:
154,159,274902,1,2,3:0:0:0:
344,230,275062,2,0,L|351:156,1,75,2|0,3:0|0:0,0:0:0:0:
428,305,275381,1,2,3:0:0:0:
293,343,275540,6,0,P|244:374|155:349,1,150,8|0,0:0|0:0,0:0:0:0:
133,252,276019,2,0,P|90:217|35:215,1,112.5,8|2,0:0|0:0,0:0:0:0:
27,220,276338,1,2,0:0:0:0:
22,227,276418,1,2,0:0:0:0:
18,234,276498,2,0,L|32:64,1,150,10|0,0:0|0:0,0:0:0:0:
133,15,276977,2,0,L|145:167,1,150,8|8,0:0|0:0,0:0:0:0:
285,42,277455,6,0,L|203:55,1,75,2|0,3:0|0:0,0:0:0:0:
338,120,277774,1,2,3:0:0:0:
409,42,277934,2,0,L|493:57,1,75,2|0,3:0|0:0,0:0:0:0:
338,120,278253,1,2,3:0:0:0:
265,188,278412,2,0,P|260:218|268:264,1,75,2|0,3:0|0:0,0:0:0:0:
341,317,278732,1,2,3:0:0:0:
430,222,278891,1,8,3:0:0:0:
430,222,279051,1,8,3:0:0:0:
338,120,279210,1,2,3:0:0:0:
341,317,279370,6,0,P|285:359|206:329,1,150,8|2,0:0|0:0,0:0:0:0:
49,293,279846,2,0,P|105:251|186:276,1,150,8|0,0:0|0:0,0:0:0:0:
103,139,280322,2,0,L|254:160,1,150,8|0,0:0|0:0,0:0:0:0:
341,317,280798,2,0,L|419:304,1,75,8|0,0:0|0:0,0:0:0:0:
461,230,281116,1,8,0:0:0:0:
293,230,281274,6,0,B|336:233|336:233|390:183,1,112.5,8|0,0:0|0:0,0:0:0:0:
404,160,281592,2,0,P|443:140|474:140,1,75,8|0,0:0|0:0,0:0:0:0:
319,119,281909,1,2,0:0:0:0:
438,68,282068,1,2,0:0:0:0:
304,93,282227,2,0,L|215:75,1,75,2|0,3:0|0:0,0:0:0:0:
149,25,282544,1,2,3:0:0:0:
39,166,282703,2,0,L|113:182,1,75,2|0,3:0|0:0,0:0:0:0:
167,260,283020,1,2,3:0:0:0:
304,93,283179,6,0,P|351:59|443:71,1,150,8|2,0:0|0:0,0:0:0:0:
504,158,283659,2,0,P|509:215|453:289,1,150,8|2,0:0|0:0,0:0:0:0:
347,298,284139,2,0,P|294:274|258:188,1,150,8|2,0:0|0:0,0:0:0:0:
304,93,284619,2,0,P|334:65|383:55,1,75,8|0,0:0|0:0,0:0:0:0:
504,158,284941,1,8,0:0:0:0:
347,298,285102,6,0,P|388:236|378:163,1,150,8|0,0:0|0:0,0:0:0:0:
192,245,285586,2,0,P|182:317|222:379,1,150,8|0,0:0|0:0,0:0:0:0:
258,193,286070,2,0,P|298:131|288:58,1,150,8|0,0:0|0:0,0:0:0:0:
169,11,286554,1,8,0:0:0:0:
98,98,286715,2,0,P|129:117|166:121,1,75,2|0,0:0|0:0,0:0:0:0:
88,196,287038,5,2,0:0:0:0:
105,221,287117,1,2,0:0:0:0:
114,249,287197,1,2,0:0:0:0:
114,279,287277,1,2,0:0:0:0:
101,306,287357,1,2,0:0:0:0:
80,328,287436,1,2,0:0:0:0:
53,340,287516,6,0,L|63:389,5,30,8|0|0|0|0|0,0:0|0:0|0:0|0:0|0:0|0:0,0:0:0:0:
15,227,287995,2,0,L|10:256,5,30,2|2|2|2|2|2,0:0|0:0|0:0|0:0|0:0|0:0,0:0:0:0:
59,139,288473,1,8,0:0:0:0:
88,137,288553,1,0,0:0:0:0:
116,127,288633,1,0,0:0:0:0:
138,107,288713,1,0,0:0:0:0:
147,78,288792,2,0,L|137:43,1,30
223,17,288952,6,0,L|211:59,3,30,2|2|2|2,0:0|0:0|0:0|0:0,0:0:0:0:
277,104,289271,2,0,L|269:133,1,30,2|2,0:0|0:0,0:0:0:0:
331,191,289431,2,0,L|324:220,1,30,8|0,0:0|0:0,0:0:0:0:
396,280,289591,2,0,L|428:297,3,30
382,301,289909,5,2,0:0:0:0:
358,319,289989,1,2,0:0:0:0:
330,328,290069,1,2,0:0:0:0:
300,327,290149,1,2,0:0:0:0:
273,314,290228,1,2,0:0:0:0:
251,294,290308,1,2,0:0:0:0:
230,272,290388,5,8,0:0:0:0:
202,281,290468,1,0,0:0:0:0:
172,280,290547,1,0,0:0:0:0:
145,267,290627,1,0,0:0:0:0:
123,247,290707,1,0,0:0:0:0:
108,220,290787,1,0,0:0:0:0:
103,190,290867,6,0,L|49:203,5,30,2|2|2|2|2|2,0:0|0:0|0:0|0:0|0:0|0:0,0:0:0:0:
159,129,291345,2,0,L|213:142,5,30,8|0|0|0|0|0,0:0|0:0|0:0|0:0|0:0|0:0,0:0:0:0:
259,195,291824,2,0,L|205:208,5,30,2|2|2|2|2|2,0:0|0:0|0:0|0:0|0:0|0:0,0:0:0:0:
298,120,292302,1,8,0:0:0:0:
314,94,292382,1,0,0:0:0:0:
320,64,292462,1,0,0:0:0:0:
316,34,292542,1,0,0:0:0:0:
301,8,292621,2,0,L|357:18,1,30
406,70,292781,5,2,0:0:0:0:
421,95,292861,1,2,0:0:0:0:
426,124,292941,1,2,0:0:0:0:
425,154,293020,1,2,0:0:0:0:
412,181,293100,1,2,0:0:0:0:
392,203,293180,1,2,0:0:0:0:
370,224,293260,5,8,0:0:0:0:
341,218,293339,1,0,0:0:0:0:
311,219,293419,1,0,0:0:0:0:
283,228,293499,1,0,0:0:0:0:
258,244,293579,1,0,0:0:0:0:
238,266,293658,1,0,0:0:0:0:
225,293,293738,6,0,L|232:351,3,30,2|2|2|2,0:0|0:0|0:0|0:0,0:0:0:0:
146,263,294057,2,0,L|153:321,1,30,2|2,0:0|0:0,0:0:0:0:
71,293,294217,1,8,0:0:0:0:
55,268,294297,1,0,0:0:0:0:
47,239,294376,1,0,0:0:0:0:
49,209,294456,1,0,0:0:0:0:
60,181,294536,1,0,0:0:0:0:
79,159,294616,1,0,0:0:0:0:
107,149,294696,6,0,P|41:116|15:55,1,120,12|0,0:0|0:0,0:0:0:0:
119,48,295174,1,0,0:0:0:0:
192,142,295334,2,0,L|207:225,1,60
105,354,295653,2,0,L|124:229,1,120,8|0,0:0|0:0,0:0:0:0:
37,257,296131,1,0,0:0:0:0:
190,299,296291,2,0,P|214:281|241:269,1,60
405,356,296610,6,0,P|352:329|291:335,1,120,8|0,0:0|0:0,0:0:0:0:
467,239,297089,1,0,0:0:0:0:
381,255,297248,1,0,0:0:0:0:
407,172,297408,1,0,0:0:0:0:
486,260,297567,2,0,L|493:335,1,60,10|0,0:0|0:0,0:0:0:0:
405,356,297886,1,0,0:0:0:0:
271,203,298046,2,0,L|278:278,1,60,2|0,0:0|0:0,0:0:0:0:
190,299,298365,1,0,0:0:0:0:
119,154,298525,6,0,P|84:191|16:198,1,120,8|0,0:0|0:0,0:0:0:0:
36,99,299003,1,0,0:0:0:0:
148,66,299163,2,0,L|222:77,1,60
315,135,299482,2,0,P|348:119|386:42,1,120,8|0,0:0|0:0,0:0:0:0:
284,37,299960,1,0,0:0:0:0:
407,172,300120,2,0,L|481:166,1,60
477,306,300439,6,0,P|424:282|365:292,1,120,8|0,0:0|0:0,0:0:0:0:
260,360,300918,1,0,0:0:0:0:
155,281,301077,2,0,L|86:284,1,60
36,166,301396,2,0,P|37:136|29:107,2,60,10|0|0,0:0|0:0|0:0,0:0:0:0:
164,73,301875,2,0,P|163:43|171:14,2,60,2|0|0,0:0|0:0|0:0,0:0:0:0:
304,189,302354,6,0,P|384:172|422:116,1,120,8|0,0:0|0:0,0:0:0:0:
309,43,302832,1,0,0:0:0:0:
221,201,302992,2,0,L|234:269,1,60
364,292,303311,2,0,P|424:248|490:238,1,120,8|0,0:0|0:0,0:0:0:0:
458,349,303789,1,0,0:0:0:0:
279,328,303949,2,0,L|210:340,1,60,8|0,0:0|0:0,0:0:0:0:
35,259,304268,6,0,L|173:283,1,120,8|0,0:0|0:0,0:0:0:0:
82,344,304747,1,0,0:0:0:0:
240,206,304906,2,0,P|239:235|227:263,1,60
77,79,305225,2,0,P|128:108|157:160,1,120,10|0,0:0|0:0,0:0:0:0:
227,263,305704,2,0,P|256:211|307:181,1,120,2|0,0:0|0:0,0:0:0:0:
494,369,306183,6,0,L|477:244,1,120,8|0,0:0|0:0,0:0:0:0:
356,332,306661,1,0,0:0:0:0:
409,186,306821,2,0,P|435:170|464:161,1,60
496,43,307140,2,0,P|439:28|381:39,1,120,8|0,0:0|0:0,0:0:0:0:
322,125,307618,1,0,0:0:0:0:
212,32,307778,2,0,L|223:90,1,60
54,71,308097,5,10,0:0:0:0:
54,71,308177,1,2,0:0:0:0:
54,71,308257,2,0,P|84:74|113:65,1,60,2|0,0:0|0:0,0:0:0:0:
71,196,308576,1,2,0:0:0:0:
71,196,308655,1,2,0:0:0:0:
71,196,308735,2,0,P|41:193|12:202,1,60,2|0,0:0|0:0,0:0:0:0:
177,284,309054,2,0,P|163:257|142:236,1,60
146,363,309373,1,2,0:0:0:0:
79,297,309533,1,2,0:0:0:0:
242,327,309692,1,8,3:0:0:0:
235,343,309852,1,8,3:0:0:0:
210,195,310012,6,0,L|345:186,1,120,12|0,0:0|0:0,0:0:0:0:
225,89,310490,1,0,0:0:0:0:
311,266,310650,2,0,P|340:268|367:281,1,60
420,147,310969,2,0,P|452:100|439:22,1,120,8|0,0:0|0:0,0:0:0:0:
319,64,311447,1,0,0:0:0:0:
437,228,311607,2,0,L|451:286,1,60,8|0,0:0|0:0,0:0:0:0:
319,64,311926,6,0,L|351:202,1,120,8|0,0:0|0:0,0:0:0:0:
199,169,312405,1,0,0:0:0:0:
250,110,312564,1,0,0:0:0:0:
273,189,312724,1,0,0:0:0:0:
173,95,312883,2,0,L|187:36,1,60,10|0,0:0|0:0,0:0:0:0:
259,7,313202,1,0,0:0:0:0:
273,189,313362,2,0,L|287:247,1,60,2|0,0:0|0:0,0:0:0:0:
82,340,313681,1,2,0:0:0:0:
82,340,313761,1,2,0:0:0:0:
82,340,313841,6,0,P|117:303|185:296,1,120,10|0,0:0|0:0,0:0:0:0:
266,348,314319,1,0,0:0:0:0:
201,218,314479,2,0,L|141:209,1,60
340,308,314798,2,0,P|373:292|411:215,1,120,8|0,0:0|0:0,0:0:0:0:
321,141,315276,1,0,0:0:0:0:
403,65,315436,2,0,P|432:56|462:56,1,60
320,141,315755,6,0,P|263:129|231:80,1,120,8|0,0:0|0:0,0:0:0:0:
322,47,316234,1,0,0:0:0:0:
176,131,316393,2,0,L|107:134,1,60
233,229,316712,2,0,P|245:256|247:285,1,60,8|0,0:0|0:0,0:0:0:0:
57,208,317031,2,0,L|38:128,1,60,2|0,0:0|0:0,0:0:0:0:
255,242,317350,2,0,P|267:269|269:298,1,60,2|0,0:0|0:0,0:0:0:0:
35,225,317670,6,0,L|9:84,1,120,8|0,0:0|0:0,0:0:0:0:
118,262,318148,1,0,0:0:0:0:
126,74,318308,2,0,P|117:103|115:132,1,60
220,23,318627,2,0,P|265:59|321:46,1,120,8|0,0:0|0:0,0:0:0:0:
316,144,319105,1,0,0:0:0:0:
398,28,319265,2,0,L|412:108,1,60,8|0,0:0|0:0,0:0:0:0:
461,248,319584,6,0,L|479:130,1,120,8|0,0:0|0:0,0:0:0:0:
314,258,320063,1,0,0:0:0:0:
218,302,320222,2,0,P|205:328|203:358,1,60
314,257,320541,2,0,P|331:200|315:143,1,120,10|0,0:0|0:0,0:0:0:0:
229,81,321020,2,0,P|171:94|129:136,1,120,2|0,0:0|0:0,0:0:0:0:
161,285,321499,6,0,P|188:297|217:301,1,60,8|0,0:0|0:0,0:0:0:0:
255,216,321818,1,0,0:0:0:0:
129,135,321977,2,0,P|102:123|73:119,1,60
35,204,322296,1,0,0:0:0:0:
255,216,322456,2,0,P|270:158|259:100,1,120,8|0,0:0|0:0,0:0:0:0:
385,11,322934,1,0,0:0:0:0:
413,93,323094,1,0,0:0:0:0:
332,75,323253,1,0,0:0:0:0:
473,27,323413,6,0,P|500:78|491:137,1,120,10|0,0:0|0:0,0:0:0:0:
328,185,323892,2,0,P|318:243|346:295,1,120,2|0,0:0|0:0,0:0:0:0:
489,347,324370,2,0,P|460:340|414:348,1,60
293,364,324689,5,2,0:0:0:0:
195,288,324849,1,2,0:0:0:0:
250,178,325008,1,8,3:0:0:0:
246,195,325168,1,8,3:0:0:0:
78,80,325328,6,0,P|135:90|185:58,1,120,12|0,0:0|0:0,0:0:0:0:
119,4,325806,1,0,0:0:0:0:
10,113,325966,2,0,P|2:142|4:172,1,60
114,354,326285,2,0,L|95:229,1,120,8|0,0:0|0:0,0:0:0:0:
210,318,326763,1,0,0:0:0:0:
195,220,326923,2,0,L|184:144,1,60
300,358,327242,6,0,P|357:374|416:368,1,120,8|0,0:0|0:0,0:0:0:0:
453,274,327721,1,0,0:0:0:0:
401,222,327880,1,0,0:0:0:0:
382,295,328040,1,0,0:0:0:0:
472,202,328199,2,0,L|466:142,1,60,10|0,0:0|0:0,0:0:0:0:
406,59,328518,1,0,0:0:0:0:
321,242,328678,2,0,L|315:182,1,60,2|0,0:0|0:0,0:0:0:0:
244,111,328997,1,0,0:0:0:0:
177,281,329157,6,0,P|142:318|74:325,1,120,8|0,0:0|0:0,0:0:0:0:
21,239,329635,1,0,0:0:0:0:
177,193,329795,2,0,P|148:200|119:196,1,60
244,111,330114,2,0,P|193:81|172:26,1,120,8|0,0:0|0:0,0:0:0:0:
97,48,330592,1,0,0:0:0:0:
266,26,330752,2,0,L|325:30,1,60
315,182,331071,6,0,P|361:159|451:183,1,120,8|0,0:0|0:0,0:0:0:0:
487,263,331550,1,0,0:0:0:0:
389,307,331709,2,0,P|372:331|365:360,1,60
427,167,332028,2,0,L|441:85,1,60,8|0,0:0|0:0,0:0:0:0:
215,189,332347,2,0,L|225:248,1,60,2|0,0:0|0:0,0:0:0:0:
444,149,332666,2,0,L|458:67,1,60,2|0,0:0|0:0,0:0:0:0:
197,207,332986,6,0,L|217:325,1,120,8|0,0:0|0:0,0:0:0:0:
117,297,333464,1,0,0:0:0:0:
26,218,333624,2,0,L|85:207,1,60
213,100,333943,2,0,P|182:120|135:120,1,60,8|0,0:0|0:0,0:0:0:0:
23,125,334262,2,0,P|54:105|101:105,1,60,2|0,0:0|0:0,0:0:0:0:
197,207,334581,2,0,L|255:218,1,60,8|0,0:0|0:0,0:0:0:0:
418,298,334900,6,0,L|299:319,1,120,8|0,0:0|0:0,0:0:0:0:
349,227,335379,1,0,0:0:0:0:
483,250,335538,2,0,P|496:276|497:306,1,60
349,227,335857,2,0,P|334:159|363:94,1,120,10|0,0:0|0:0,0:0:0:0:
484,27,336336,2,0,P|442:69|384:84,1,120,2|0,0:0|0:0,0:0:0:0:
239,12,336815,6,0,P|296:27|338:70,1,120,8|0,0:0|0:0,0:0:0:0:
237,117,337293,1,0,0:0:0:0:
145,73,337453,2,0,L|153:2,1,60
112,158,337772,2,0,P|53:150|4:183,1,120,8|0,0:0|0:0,0:0:0:0:
22,278,338250,1,0,0:0:0:0:
195,259,338410,2,0,L|183:200,1,60,8|0,0:0|0:0,0:0:0:0:
158,353,338729,6,0,P|216:360|265:327,1,120,8|0,0:0|0:0,0:0:0:0:
303,232,339208,1,0,0:0:0:0:
365,352,339367,2,0,L|440:334,1,60
492,239,339686,2,0,L|433:224,1,60,8|0,0:0|0:0,0:0:0:0:
336,90,340005,1,2,0:0:0:0:
373,167,340165,1,2,0:0:0:0:
243,179,340324,1,8,3:0:0:0:
249,156,340484,1,8,3:0:0:0:
265,327,340644,6,0,L|191:335,1,67.5000025749208,8|2,0:0|0:0,0:0:0:0:
179,322,340852,2,0,P|168:305|164:284,1,22.5000008583069,2|2,0:0|0:0,0:0:0:0:
161,283,340956,2,0,L|93:275,1,67.5000025749208,10|0,0:0|0:0,0:0:0:0:
57,97,341269,1,2,0:0:0:0:
109,194,341425,1,2,0:0:0:0:
36,89,341581,1,2,0:0:0:0:
129,185,341737,2,0,P|142:155|147:121,1,67.5000025749208,8|0,0:0|0:0,0:0:0:0:
257,99,342050,2,0,P|252:65|238:34,1,67.5000025749208,8|0,0:0|0:0,0:0:0:0:
149,29,342362,1,2,0:0:0:0:
210,181,342519,6,0,L|280:190,1,67.5000025749208,8|2,0:0|0:0,0:0:0:0:
299,184,342727,2,0,P|309:179|317:172,1,22.5000008583069,2|2,0:0|0:0,0:0:0:0:
334,158,342831,2,0,L|403:166,1,67.5000025749208,10|0,0:0|0:0,0:0:0:0:
494,128,343144,1,2,0:0:0:0:
507,248,343300,1,2,0:0:0:0:
474,117,343456,1,2,0:0:0:0:
489,241,343612,2,0,L|496:322,1,67.5000025749208,8|0,0:0|0:0,0:0:0:0:
353,381,343925,2,0,L|358:313,1,67.5000025749208,8|0,0:0|0:0,0:0:0:0:
289,185,344237,1,2,0:0:0:0:
127,346,344394,6,0,P|161:345|192:328,1,67.5000025749208,8|2,0:0|0:0,0:0:0:0:
198,322,344628,1,2,0:0:0:0:
203,313,344706,2,0,P|218:283|218:248,1,67.5000025749208,10|0,0:0|0:0,0:0:0:0:
113,251,345019,1,2,0:0:0:0:
20,168,345175,1,2,0:0:0:0:
94,273,345331,1,2,0:0:0:0:
39,145,345487,2,0,P|69:132|103:128,1,67.5000025749208,8|0,0:0|0:0,0:0:0:0:
213,179,345800,2,0,P|246:175|277:161,1,67.5000025749208,8|0,0:0|0:0,0:0:0:0:
325,39,346112,1,0,0:0:0:0:
368,201,346269,6,0,L|383:282,1,67.5000025749208,8|2,0:0|0:0,0:0:0:0:
382,277,346503,1,2,0:0:0:0:
384,286,346581,2,0,L|453:298,1,67.5000025749208,10|0,0:0|0:0,0:0:0:0:
467,203,346894,1,2,0:0:0:0:
362,115,347050,1,2,0:0:0:0:
488,195,347206,1,2,0:0:0:0:
381,102,347362,2,0,L|302:118,1,67.5000025749208,8|0,0:0|0:0,0:0:0:0:
180,207,347675,2,0,L|246:220,1,67.5000025749208,8|0,0:0|0:0,0:0:0:0:
318,364,347987,1,2,0:0:0:0:
196,287,348144,5,10,0:0:0:0:
173,288,348222,1,2,0:0:0:0:
150,284,348300,1,2,0:0:0:0:
130,274,348378,1,2,0:0:0:0:
114,259,348456,1,2,0:0:0:0:
101,241,348534,1,2,0:0:0:0:
95,219,348612,1,2,0:0:0:0:
94,196,348690,1,2,0:0:0:0:
99,175,348769,5,10,0:0:0:0:
117,163,348847,1,2,0:0:0:0:
135,151,348925,1,2,0:0:0:0:
153,139,349003,1,2,0:0:0:0:
172,129,349081,1,2,0:0:0:0:
191,118,349159,1,2,0:0:0:0:
209,109,349237,6,0,L|199:55,3,33.7500012874604,8|0|0|0,0:0|0:0|0:0|0:0,0:0:0:0:
283,121,349550,2,0,L|275:88,3,33.7500012874604,8|0|0|0,0:0|0:0|0:0|0:0,0:0:0:0:
358,132,349862,2,0,L|351:98,1,33.7500012874604,8|0,0:0|0:0,0:0:0:0:
317,198,350019,5,10,0:0:0:0:
323,220,350097,1,2,0:0:0:0:
334,240,350175,1,2,0:0:0:0:
348,257,350253,1,2,0:0:0:0:
365,266,350331,6,0,L|403:261,3,33.7500012874604,8|0|0|0,0:0|0:0|0:0|0:0,0:0:0:0:
345,344,350644,2,0,L|307:339,3,33.7500012874604,8|0|0|0,0:0|0:0|0:0|0:0,0:0:0:0:
247,281,350956,2,0,L|213:285,1,33.7500012874604,8|0,0:0|0:0,0:0:0:0:
142,317,351112,6,0,L|124:281,3,33.7500012874604,8|0|0|0,0:0|0:0|0:0|0:0,0:0:0:0:
66,214,351425,2,0,L|84:178,3,33.7500012874604,8|0|0|0,0:0|0:0|0:0|0:0,0:0:0:0:
134,102,351737,2,0,L|149:132,1,33.7500012874604,8|0,0:0|0:0,0:0:0:0:
227,153,351894,5,10,0:0:0:0:
234,131,351972,1,2,0:0:0:0:
247,113,352050,1,2,0:0:0:0:
264,99,352128,1,2,0:0:0:0:
285,89,352206,1,2,0:0:0:0:
307,85,352284,1,2,0:0:0:0:
329,87,352362,5,10,0:0:0:0:
344,71,352440,1,2,0:0:0:0:
365,64,352519,1,2,0:0:0:0:
387,64,352597,1,2,0:0:0:0:
408,69,352675,1,2,0:0:0:0:
427,79,352753,1,2,0:0:0:0:
443,94,352831,6,0,L|456:145,3,33.7500012874604,8|0|0|0,0:0|0:0|0:0|0:0,0:0:0:0:
388,184,353144,2,0,L|375:235,3,33.7500012874604,8|0|0|0,0:0|0:0|0:0|0:0,0:0:0:0:
352,296,353456,2,0,L|267:301,1,67.5000025749208,8|0,0:0|0:0,0:0:0:0:
131,114,353769,5,8,0:0:0:0:
59,174,353925,1,2,0:0:0:0:
257,229,354081,1,8,0:0:0:0:
223,139,354237,1,2,0:0:0:0:
102,275,354394,1,8,3:0:0:0:
130,284,354550,1,8,3:0:0:0:
30,348,354706,1,0,0:0:0:0:
59,174,354862,2,0,P|53:140|39:110,1,67.5000025749208,8|0,0:0|0:0,0:0:0:0:
211,278,355175,2,0,P|236:256|256:228,1,67.5000025749208,8|0,0:0|0:0,0:0:0:0:
131,114,355487,1,2,0:0:0:0:
323,161,355644,6,0,B|371:163|371:163|450:127,1,135,12|0,0:0|0:0,0:0:0:0:
448,96,355963,2,0,B|399:93|399:93|320:129,1,135,8|0,0:0|0:0,0:0:0:0:
323,161,356282,2,0,P|342:201|348:245,1,90,8|0,0:0|0:0,0:0:0:0:
357,354,356601,1,2,0:0:0:0:
258,231,356761,2,0,P|216:214|172:211,1,90,2|0,0:0|0:0,0:0:0:0:
78,320,357080,1,2,3:0:0:0:
69,164,357239,1,2,3:0:0:0:
100,302,357399,1,2,3:0:0:0:
51,146,357558,2,0,L|66:43,1,90,8|0,0:0|0:0,0:0:0:0:
100,229,357878,1,2,0:0:0:0:
155,45,358037,6,0,P|197:85|313:51,1,180,2|0,0:0|0:0,0:0:0:0:
390,39,358516,1,2,0:0:0:0:
345,150,358675,1,2,0:0:0:0:
411,52,358835,2,0,P|455:57|497:43,1,90,2|0,3:0|0:0,0:0:0:0:
323,162,359154,2,0,P|278:156|236:170,1,90,2|0,3:0|0:0,0:0:0:0:
422,215,359473,6,0,B|394:278|394:278|422:340,1,135,8|0,0:0|0:0,0:0:0:0:
449,352,359792,2,0,B|420:289|420:289|449:227,1,135,8|0,0:0|0:0,0:0:0:0:
422,215,360112,2,0,P|465:225|509:215,1,90,8|0,0:0|0:0,0:0:0:0:
374,139,360431,1,2,0:0:0:0:
318,218,360590,2,0,P|287:250|273:293,1,90,2|0,0:0|0:0,0:0:0:0:
332,374,360909,1,2,3:0:0:0:
183,345,361069,1,2,3:0:0:0:
347,355,361229,1,2,3:0:0:0:
199,333,361388,2,0,L|100:338,1,90,10|0,0:0|0:0,0:0:0:0:
11,272,361707,1,2,0:0:0:0:
199,231,361867,6,0,P|137:172|59:205,1,180,2|0,0:0|0:0,0:0:0:0:
123,259,362346,1,0,0:0:0:0:
7,138,362505,1,0,0:0:0:0:
160,98,362665,2,0,P|201:114|246:112,1,90,2|0,3:0|0:0,0:0:0:0:
331,198,362984,2,0,P|365:169|387:130,1,90,2|0,3:0|0:0,0:0:0:0:
470,23,363303,6,0,B|494:54|494:54|482:149,1,135,8|0,0:0|0:0,0:0:0:0:
477,180,363622,2,0,B|465:275|465:275|489:306,1,135,8|0,0:0|0:0,0:0:0:0:
508,331,363941,1,8,0:0:0:0:
372,218,364101,2,0,L|386:130,1,90,2|0,0:0|0:0,0:0:0:0:
261,316,364420,2,0,L|274:227,1,90,2|0,0:0|0:0,0:0:0:0:
127,197,364739,1,2,3:0:0:0:
250,112,364899,1,2,3:0:0:0:
116,178,365058,1,2,3:0:0:0:
249,90,365218,2,0,L|152:82,1,90,10|0,0:0|0:0,0:0:0:0:
139,219,365537,1,0,0:0:0:0:
260,315,365697,6,0,P|334:355|397:298,1,180,2|0,0:0|0:0,0:0:0:0:
298,179,366175,1,2,0:0:0:0:
180,287,366335,1,2,0:0:0:0:
42,211,366495,2,0,P|33:167|50:125,1,90,2|0,3:0|0:0,0:0:0:0:
156,62,366814,2,0,P|189:33|233:26,1,90,2|0,3:0|0:0,0:0:0:0:
175,174,367133,6,0,B|159:196|159:196|266:183,1,135,8|0,0:0|0:0,0:0:0:0:
298,179,367452,2,0,B|405:166|405:166|389:188,1,135,8|0,0:0|0:0,0:0:0:0:
371,214,367771,1,8,0:0:0:0:
370,59,367931,2,0,P|412:45|457:49,1,90,2|0,0:0|0:0,0:0:0:0:
433,324,368250,2,0,P|388:320|348:299,1,90,2|0,0:0|0:0,0:0:0:0:
170,351,368569,1,2,3:0:0:0:
288,250,368729,1,2,3:0:0:0:
153,323,368888,1,2,3:0:0:0:
281,275,369048,2,0,P|262:232|268:185,1,90,10|0,0:0|0:0,0:0:0:0:
352,140,369367,1,2,0:0:0:0:
170,198,369527,6,0,P|109:196|91:71,1,180,2|0,0:0|0:0,0:0:0:0:
124,33,370005,1,2,0:0:0:0:
0,178,370165,1,2,0:0:0:0:
147,123,370324,2,0,P|189:108|233:114,1,90,2|0,3:0|0:0,0:0:0:0:
334,287,370644,2,0,P|289:293|247:278,1,90,2|0,3:0|0:0,0:0:0:0:
443,110,370963,6,0,B|464:174|464:174|443:238,1,135,8|0,0:0|0:0,0:0:0:0:
430,209,371282,2,0,L|406:122,1,90,8|0,0:0|0:0,0:0:0:0:
334,287,371601,2,0,L|310:200,1,90,8|0,0:0|0:0,0:0:0:0:
238,358,371921,1,2,0:0:0:0:
156,154,372080,2,0,P|199:143|233:114,1,90,2|0,0:0|0:0,0:0:0:0:
142,41,372399,1,2,3:0:0:0:
33,133,372559,1,2,3:0:0:0:
167,37,372719,1,2,3:0:0:0:
59,129,372878,2,0,P|68:174|41:229,1,90,8|0,0:0|0:0,0:0:0:0:
67,54,373197,1,2,0:0:0:0:
233,114,373357,6,0,P|255:193|158:268,1,180,2|0,0:0|0:0,0:0:0:0:
104,295,373836,1,2,0:0:0:0:
232,360,373995,1,2,0:0:0:0:
345,300,374155,2,0,P|385:286|434:292,1,90,2|0,3:0|0:0,0:0:0:0:
477,206,374473,2,0,P|450:170|441:126,1,90,2|0,3:0|0:0,0:0:0:0:
345,26,374792,6,0,B|325:76|325:76|363:168,1,135,8|0,0:0|0:0,0:0:0:0:
334,174,375112,2,0,B|364:249|364:249|344:299,1,135,8|0,0:0|0:0,0:0:0:0:
332,327,375431,1,8,0:0:0:0:
188,277,375590,2,0,P|227:256|271:250,1,90,2|0,0:0|0:0,0:0:0:0:
70,250,375909,2,0,P|71:205|87:163,1,90,2|0,0:0|0:0,0:0:0:0:
201,50,376228,1,2,3:0:0:0:
177,184,376387,1,2,3:0:0:0:
187,26,376547,1,2,3:0:0:0:
162,158,376707,2,0,P|206:164|246:146,1,90,8|0,0:0|0:0,0:0:0:0:
301,75,377026,1,2,0:0:0:0:
86,163,377185,6,0,P|73:250|120:324,1,180,2|0,0:0|0:0,0:0:0:0:
249,242,377664,1,2,0:0:0:0:
207,358,377823,1,2,0:0:0:0:
263,219,377984,2,0,P|302:200|347:200,1,90,2|0,3:0|0:0,0:0:0:0:
393,323,378303,2,0,P|432:342|477:342,1,90,2|0,3:0|0:0,0:0:0:0:
450,101,378622,6,0,B|425:140|425:140|462:238,1,135,8|0,0:0|0:0,0:0:0:0:
467,193,378941,2,0,B|498:110|498:110|473:71,1,135,8|0,0:0|0:0,0:0:0:0:
452,47,379260,2,0,P|414:69|338:58,1,90,8|0,0:0|0:0,0:0:0:0:
258,21,379579,1,2,0:0:0:0:
289,142,379739,2,0,P|265:179|226:202,1,90,2|0,0:0|0:0,0:0:0:0:
47,153,380057,1,2,3:0:0:0:
196,112,380217,1,2,3:0:0:0:
20,140,380377,1,2,3:0:0:0:
171,94,380537,2,0,P|156:53|166:10,1,90,8|0,0:0|0:0,0:0:0:0:
226,202,380855,1,2,0:0:0:0:
49,270,381015,6,0,P|134:290|183:363,1,180,2|0,0:0|0:0,0:0:0:0:
264,292,381494,1,2,0:0:0:0:
150,214,381653,1,2,0:0:0:0:
283,306,381813,2,0,P|325:317|365:297,1,90,2|0,3:0|0:0,0:0:0:0:
351,135,382133,2,0,P|320:166|317:210,1,90,2|0,3:0|0:0,0:0:0:0:
422,42,382452,6,0,B|387:62|387:62|272:48,1,135,8|0,0:0|0:0,0:0:0:0:
261,45,382771,2,0,B|250:83|250:83|159:155,1,135,8|0,0:0|0:0,0:0:0:0:
144,138,383090,2,0,P|124:177|134:221,1,90,8|0,0:0|0:0,0:0:0:0:
197,280,383410,1,2,0:0:0:0:
73,359,383569,2,0,L|79:263,1,90,2|0,0:0|0:0,0:0:0:0:
236,354,383888,1,2,3:0:0:0:
268,207,384047,1,2,3:0:0:0:
257,367,384207,1,2,3:0:0:0:
285,224,384367,2,0,P|328:215|370:229,1,90,8|0,0:0|0:0,0:0:0:0:
423,318,384686,1,2,0:0:0:0:
346,139,384845,6,0,P|430:158|463:238,1,180,2|0,0:0|0:0,0:0:0:0:
323,305,385324,1,2,0:0:0:0:
273,135,385483,1,2,0:0:0:0:
194,280,385643,2,0,P|149:282|114:257,1,90,2|0,3:0|0:0,0:0:0:0:
20,113,385963,2,0,P|64:110|99:135,1,90,2|0,3:0|0:0,0:0:0:0:
201,80,386282,5,2,0:0:0:0:
217,66,386362,1,2,0:0:0:0:
236,56,386441,1,2,0:0:0:0:
259,49,386521,1,2,0:0:0:0:
282,49,386601,1,2,0:0:0:0:
303,54,386681,1,2,0:0:0:0:
323,64,386761,1,2,0:0:0:0:
341,80,386840,1,2,0:0:0:0:
354,98,386920,1,10,0:0:0:0:
282,183,387239,5,2,0:0:0:0:
278,161,387319,1,2,0:0:0:0:
274,139,387399,1,2,0:0:0:0:
274,139,388197,6,0,L|282:183,1,45,10|0,0:0|0:0,0:0:0:0:
202,192,388356,2,0,L|210:236,1,45,2|0,0:0|0:0,0:0:0:0:
127,230,388516,2,0,L|135:274,1,45,2|0,0:0|0:0,0:0:0:0:
82,351,388675,5,2,0:0:0:0:
82,351,388755,1,2,0:0:0:0:
82,351,388835,2,0,L|126:360,1,45,2|0,0:0|0:0,0:0:0:0:
197,327,388995,2,0,L|241:318,1,45,2|0,0:0|0:0,0:0:0:0:
311,349,389154,2,0,L|355:358,3,45,2|0|0|0,0:0|0:0|0:0|0:0,0:0:0:0:
368,273,389473,5,8,0:0:0:0:
313,208,389633,2,0,P|303:187|299:165,1,45,2|0,0:0|0:0,0:0:0:0:
309,94,389792,2,0,P|321:75|339:61,1,45,2|0,0:0|0:0,0:0:0:0:
408,36,389952,2,0,P|430:37|451:45,1,45,2|0,0:0|0:0,0:0:0:0:
441,124,390112,5,2,0:0:0:0:
423,111,390191,1,2,0:0:0:0:
401,111,390271,1,2,0:0:0:0:
382,123,390351,1,2,0:0:0:0:
372,143,390431,1,2,0:0:0:0:
375,165,390510,1,2,0:0:0:0:
389,182,390590,1,2,0:0:0:0:
409,189,390670,1,2,0:0:0:0:
434,183,390750,6,0,L|491:189,3,45,10|0|0|0,0:0|0:0|0:0|0:0,0:0:0:0:
466,267,391069,2,0,L|523:273,3,45,2|0|0|0,0:0|0:0|0:0|0:0,0:0:0:0:
401,320,391388,5,2,0:0:0:0:
388,338,391468,1,2,0:0:0:0:
370,354,391547,1,2,0:0:0:0:
350,364,391627,1,2,0:0:0:0:
329,369,391707,1,2,0:0:0:0:
306,369,391787,1,2,0:0:0:0:
283,362,391867,1,2,0:0:0:0:
264,352,391946,1,2,0:0:0:0:
248,338,392026,1,10,0:0:0:0:
203,224,392346,5,2,0:0:0:0:
200,246,392425,1,2,0:0:0:0:
197,268,392505,1,2,0:0:0:0:
152,338,392665,2,0,P|73:370|2:321,1,180,2|2,0:0|0:0,0:0:0:0:
1,319,393303,6,0,L|6:274,1,45,10|0,0:0|0:0,0:0:0:0:
69,240,393463,2,0,L|74:195,1,45,2|0,0:0|0:0,0:0:0:0:
135,158,393622,2,0,L|140:113,1,45,2|0,0:0|0:0,0:0:0:0:
120,37,393782,5,2,0:0:0:0:
120,37,393862,1,2,0:0:0:0:
120,37,393941,2,0,L|167:29,1,45,2|0,0:0|0:0,0:0:0:0:
226,85,394101,2,0,L|270:92,1,45,2|0,0:0|0:0,0:0:0:0:
285,167,394261,2,0,L|324:189,3,45,2|0|0|0,0:0|0:0|0:0|0:0,0:0:0:0:
404,141,394580,5,8,0:0:0:0:
472,205,394739,2,0,P|482:225|486:247,1,45,2|0,0:0|0:0,0:0:0:0:
476,318,394899,2,0,P|464:337|446:351,1,45,2|0,0:0|0:0,0:0:0:0:
377,376,395058,2,0,P|355:375|334:367,1,45,2|0,0:0|0:0,0:0:0:0:
283,296,395218,5,2,0:0:0:0:
266,310,395297,1,2,0:0:0:0:
244,316,395377,1,2,0:0:0:0:
222,317,395457,1,2,0:0:0:0:
200,310,395537,1,2,0:0:0:0:
182,296,395616,1,2,0:0:0:0:
170,276,395696,1,2,0:0:0:0:
165,254,395776,1,2,0:0:0:0:
167,232,395856,6,0,L|153:178,3,45,10|0|0|0,0:0|0:0|0:0|0:0,0:0:0:0:
81,156,396175,2,0,L|67:102,3,45,2|0|0|0,0:0|0:0|0:0|0:0,0:0:0:0:
133,69,396495,1,2,0:0:0:0:
153,79,396575,1,2,0:0:0:0:
174,86,396655,1,2,0:0:0:0:
196,87,396734,1,2,0:0:0:0:
218,82,396814,1,2,0:0:0:0:
239,74,396894,1,2,0:0:0:0:
261,70,396974,1,2,0:0:0:0:
283,73,397054,1,2,0:0:0:0:
305,81,397133,1,2,0:0:0:0:
308,213,397452,5,2,0:0:0:0:
307,190,397532,1,2,0:0:0:0:
306,167,397611,1,2,0:0:0:0:
305,81,397771,2,0,B|222:43|223:123|132:69,1,180,2|2,0:0|0:0,0:0:0:0:
59,118,398250,1,2,0:0:0:0:
69,210,398410,6,0,L|63:254,1,45,10|0,0:0|0:0,0:0:0:0:
144,262,398569,2,0,L|138:306,1,45,2|0,0:0|0:0,0:0:0:0:
221,295,398729,2,0,L|215:339,1,45,2|0,0:0|0:0,0:0:0:0:
305,363,398888,5,2,0:0:0:0:
305,363,398968,1,2,0:0:0:0:
305,363,399048,2,0,L|351:354,1,45,2|0,0:0|0:0,0:0:0:0:
381,286,399207,2,0,L|425:294,1,45,2|0,0:0|0:0,0:0:0:0:
491,248,399367,2,0,L|483:198,3,45,2|0|0|0,0:0|0:0|0:0|0:0,0:0:0:0:
434,130,399686,5,8,0:0:0:0:
354,163,399846,2,0,P|331:163|310:155,1,45,2|0,0:0|0:0,0:0:0:0:
243,115,400005,2,0,P|220:114|199:122,1,45,2|0,0:0|0:0,0:0:0:0:
138,164,400165,2,0,P|115:164|94:156,1,45,2|0,0:0|0:0,0:0:0:0:
43,91,400325,5,2,0:0:0:0:
30,73,400404,1,2,0:0:0:0:
30,51,400484,1,2,0:0:0:0:
42,32,400564,1,2,0:0:0:0:
62,22,400644,1,2,0:0:0:0:
84,25,400723,1,2,0:0:0:0:
101,39,400803,1,2,0:0:0:0:
108,60,400883,1,2,0:0:0:0:
104,82,400963,6,0,L|167:63,3,45,10|0|0|0,0:0|0:0|0:0|0:0,0:0:0:0:
215,30,401282,2,0,L|258:42,3,45,2|0|0|0,0:0|0:0|0:0|0:0,0:0:0:0:
336,53,401601,5,2,0:0:0:0:
338,75,401681,1,2,0:0:0:0:
345,96,401761,1,2,0:0:0:0:
357,115,401840,1,2,0:0:0:0:
373,131,401920,1,2,0:0:0:0:
392,142,402000,1,2,0:0:0:0:
414,149,402080,1,2,0:0:0:0:
436,150,402160,1,2,0:0:0:0:
458,146,402239,1,10,0:0:0:0:
430,50,402559,5,2,0:0:0:0:
410,39,402638,1,2,0:0:0:0:
390,28,402718,1,2,0:0:0:0:
414,149,402878,2,0,B|474:227|369:227|416:316,1,180,2|2,0:0|0:0,0:0:0:0:
310,252,403356,1,2,0:0:0:0:
306,157,403516,6,0,L|241:132,1,45,10|0,0:0|0:0,0:0:0:0:
202,178,403675,2,0,L|137:153,1,45,2|0,0:0|0:0,0:0:0:0:
94,200,403835,2,0,L|29:175,1,45,2|0,0:0|0:0,0:0:0:0:
21,254,403995,5,2,0:0:0:0:
21,254,404075,1,2,0:0:0:0:
21,254,404154,2,0,P|23:277|33:297,1,45,2|0,0:0|0:0,0:0:0:0:
89,348,404314,2,0,P|109:356|131:357,1,45,2|0,0:0|0:0,0:0:0:0:
195,313,404474,2,0,L|189:253,3,45,2|0|0|0,0:0|0:0|0:0|0:0,0:0:0:0:
273,340,404793,5,10,0:0:0:0:
351,301,404952,2,0,P|368:286|380:268,1,45,2|0,0:0|0:0,0:0:0:0:
392,197,405112,2,0,P|388:174|378:154,1,45,2|0,0:0|0:0,0:0:0:0:
323,108,405271,2,0,P|301:100|279:98,1,45,2|0,0:0|0:0,0:0:0:0:
217,150,405431,5,2,0:0:0:0:
199,136,405510,1,2,0:0:0:0:
177,130,405590,1,2,0:0:0:0:
155,129,405670,1,2,0:0:0:0:
134,136,405750,1,2,0:0:0:0:
115,150,405829,1,2,0:0:0:0:
103,169,405909,1,2,0:0:0:0:
98,191,405989,1,2,0:0:0:0:
107,213,406069,6,0,L|41:200,3,45,10|0|0|0,0:0|0:0|0:0|0:0,0:0:0:0:
62,280,406388,2,0,L|17:288,3,45,2|0|0|0,0:0|0:0|0:0|0:0,0:0:0:0:
116,346,406707,5,2,0:0:0:0:
136,357,406787,1,2,0:0:0:0:
157,362,406867,1,2,0:0:0:0:
180,359,406947,1,2,0:0:0:0:
199,347,407026,1,2,0:0:0:0:
218,336,407106,1,2,0:0:0:0:
240,330,407186,1,2,0:0:0:0:
262,332,407266,1,2,0:0:0:0:
284,340,407345,1,10,0:0:0:0:
262,254,407664,5,2,0:0:0:0:
285,259,407744,1,2,0:0:0:0:
306,264,407823,1,2,0:0:0:0:
306,264,408622,6,0,L|262:254,1,45,10|0,0:0|0:0,0:0:0:0:
234,183,408782,2,0,L|190:173,1,45,2|0,0:0|0:0,0:0:0:0:
165,100,408941,2,0,L|121:90,1,45,2|0,0:0|0:0,0:0:0:0:
70,29,409100,5,2,0:0:0:0:
70,29,409180,1,2,0:0:0:0:
70,29,409260,2,0,L|113:17,1,45,2|0,0:0|0:0,0:0:0:0:
197,35,409420,2,0,L|240:46,1,45,2|0,0:0|0:0,0:0:0:0:
298,104,409580,2,0,L|341:92,3,45,2|0|0|0,0:0|0:0|0:0|0:0,0:0:0:0:
391,28,409898,5,10,0:0:0:0:
456,93,410058,2,0,P|456:115|448:136,1,45,2|0,0:0|0:0,0:0:0:0:
408,204,410218,2,0,P|407:226|415:247,1,45,2|0,0:0|0:0,0:0:0:0:
457,309,410377,2,0,P|457:331|449:352,1,45,2|0,0:0|0:0,0:0:0:0:
355,344,410537,5,2,0:0:0:0:
337,356,410616,1,2,0:0:0:0:
314,356,410696,1,2,0:0:0:0:
295,344,410776,1,2,0:0:0:0:
285,324,410856,1,2,0:0:0:0:
289,302,410935,1,2,0:0:0:0:
303,285,411015,1,2,0:0:0:0:
324,278,411095,1,2,0:0:0:0:
346,281,411175,6,0,L|331:228,3,45,10|0|0|0,0:0|0:0|0:0|0:0,0:0:0:0:
269,191,411495,6,0,L|284:138,1,45,2|2,3:0|3:0,3:0:0:0:
206,128,411654,2,0,L|221:75,1,45,2|2,3:0|3:0,3:0:0:0:
130,39,411814,5,2,0:0:0:0:
139,59,411894,1,2,0:0:0:0:
137,81,411973,1,2,0:0:0:0:
126,101,412053,1,2,0:0:0:0:
108,113,412133,1,2,0:0:0:0:
86,116,412213,1,2,0:0:0:0:
65,109,412293,1,2,0:0:0:0:
49,94,412372,1,2,0:0:0:0:
42,73,412452,1,10,0:0:0:0:
74,188,412771,5,2,0:0:0:0:
79,209,412850,1,2,0:0:0:0:
83,231,412930,1,2,0:0:0:0:
83,231,413569,1,2,0:0:0:0:
83,231,413728,6,0,L|91:291,1,45,10|0,0:0|0:0,0:0:0:0:
168,258,413888,2,0,L|176:318,1,45,2|0,0:0|0:0,0:0:0:0:
250,282,414048,2,0,L|258:342,1,45,2|0,0:0|0:0,0:0:0:0:
341,362,414207,5,2,0:0:0:0:
341,362,414287,1,2,0:0:0:0:
341,362,414367,2,0,P|363:358|383:350,1,45,2|0,0:0|0:0,0:0:0:0:
397,280,414527,2,0,P|405:259|408:236,1,45,2|0,0:0|0:0,0:0:0:0:
354,174,414686,2,0,L|345:118,3,45,2|0|0|0,0:0|0:0|0:0|0:0,0:0:0:0:
415,82,415005,5,8,0:0:0:0:
346,31,415165,2,0,P|324:25|301:27,1,45,2|0,0:0|0:0,0:0:0:0:
230,67,415324,2,0,P|214:83|205:103,1,45,2|0,0:0|0:0,0:0:0:0:
203,185,415484,2,0,P|209:206|222:224,3,45,2|0|0|0,0:0|0:0|0:0|0:0,0:0:0:0:
292,276,415803,1,2,0:0:0:0:
292,276,415883,1,2,0:0:0:0:
292,275,415963,6,0,P|250:291|220:324,1,90,2|2,0:0|0:0,0:0:0:0:
105,237,416282,1,2,0:0:0:0:
56,318,416441,1,2,0:0:0:0:
40,179,416601,1,8,3:0:0:0:
49,158,416761,1,8,3:0:0:0:
201,182,416920,5,2,0:0:0:0:
330,208,417080,1,2,0:0:0:0:
410,106,417239,1,2,3:0:0:0:
410,106,417558,5,2,0:0:0:0:
330,208,417718,1,2,0:0:0:0:
201,181,417878,6,0,P|164:261|221:323,1,180,12|0,0:0|0:0,0:0:0:0:
276,132,418356,2,0,P|243:103|199:94,1,90,2|0,0:0|0:0,0:0:0:0:
125,129,418676,1,2,0:0:0:0:
240,248,418835,2,0,P|295:210|414:242,1,180,2|0,0:0|0:0,0:0:0:0:
480,283,419314,1,2,0:0:0:0:
463,19,419473,2,0,L|481:198,1,180,8|0,0:0|0:0,0:0:0:0:
374,29,419952,1,2,0:0:0:0:
325,109,420112,2,0,P|293:80|280:37,1,90,2|0,0:0|0:0,0:0:0:0:
174,66,420431,6,0,P|195:137|288:217,1,180,2|0,0:0|0:0,0:0:0:0:
378,175,420910,1,2,0:0:0:0:
480,197,421069,2,0,P|498:239|492:283,1,90,2|0,0:0|0:0,0:0:0:0:
287,320,421388,2,0,P|337:276|403:278,1,135,2|0,0:0|0:0,0:0:0:0:
412,292,421707,2,0,P|346:290|297:334,1,135,2|0,0:0|0:0,0:0:0:0:
304,349,422027,6,0,L|117:359,1,180,10|0,0:0|0:0,0:0:0:0:
45,292,422505,1,2,0:0:0:0:
147,252,422665,2,0,P|116:231|94:177,1,90,2|0,0:0|0:0,0:0:0:0:
317,104,422984,2,0,P|264:179|180:168,1,180,2|0,0:0|0:0,0:0:0:0:
129,102,423463,2,0,L|111:0,2,90,2|0|2,0:0|0:0|0:0,0:0:0:0:
94,183,423941,2,0,P|95:249|146:290,1,135,2|0,0:0|0:0,0:0:0:0:
167,317,424261,2,0,P|214:361|279:355,1,135,2|0,0:0|0:0,0:0:0:0:
310,342,424580,6,0,P|387:318|473:369,1,180,8|0,0:0|0:0,0:0:0:0:
489,255,425059,1,2,0:0:0:0:
416,116,425218,2,0,P|404:156|422:207,1,90,2|0,0:0|0:0,0:0:0:0:
475,61,425537,6,0,P|394:36|336:99,1,180,2|0,0:0|0:0,0:0:0:0:
256,188,426016,1,2,0:0:0:0:
171,102,426176,2,0,L|189:11,1,90,2|0,0:0|0:0,0:0:0:0:
14,81,426495,1,10,0:0:0:0:
85,143,426654,1,2,0:0:0:0:
32,255,426814,1,8,3:0:0:0:
28,235,426973,1,8,3:0:0:0:
132,343,427133,6,0,P|198:339|251:361,1,101.250003862381,6|0,0:0|0:0,0:0:0:0:
244,359,427452,2,0,L|234:236,1,101.250003862381,2|0,0:0|0:0,0:0:0:0:
235,241,427771,2,0,P|270:185|334:168,1,135.000005149842,8|0,0:0|0:0,0:0:0:0:
379,302,428250,2,0,P|442:285|478:229,1,135.000005149842,2|0,0:0|0:0,0:0:0:0:
433,137,428729,1,2,0:0:0:0:
433,137,429048,2,0,L|421:53,1,67.5000025749208,8|0,0:0|0:0,0:0:0:0:
326,16,429367,2,0,L|316:82,1,67.5000025749208,2|2,0:0|0:0,0:0:0:0:
316,82,429606,1,2,0:0:0:0:
316,82,429686,6,0,P|248:79|187:120,1,135.000005149842,2|0,0:0|0:0,0:0:0:0:
162,223,430165,2,0,P|105:257|38:254,1,135.000005149842,2|0,0:0|0:0,0:0:0:0:
233,184,430644,2,0,L|374:196,1,135.000005149842,2|0,0:0|0:0,0:0:0:0:
432,263,431122,1,0,0:0:0:0:
361,373,431282,2,0,P|351:340|358:308,1,67.5000025749208,0|0,0:0|0:0,0:0:0:0:
490,196,431601,2,0,P|506:131|479:71,1,135.000005149842,8|0,0:0|0:0,0:0:0:0:
397,30,432080,1,2,0:0:0:0:
225,84,432239,6,0,P|279:122|342:104,1,135.000005149842,2|0,0:0|0:0,0:0:0:0:
180,11,432718,1,2,0:0:0:0:
133,84,432878,2,0,P|121:115|118:149,1,67.5000025749208,8|0,0:0|0:0,0:0:0:0:
169,243,433197,2,0,P|88:254|29:203,1,135.000005149842,2|0,0:0|0:0,0:0:0:0:
118,149,433676,1,2,0:0:0:0:
245,187,433835,2,0,P|261:215|263:249,1,67.5000025749208,2|0,0:0|0:0,0:0:0:0:
218,344,434154,6,0,P|281:335|356:381,2,135.000005149842,8|2|2,0:0|0:0|0:0,0:0:0:0:
101,325,434952,1,2,0:0:0:0:
45,227,435112,2,0,L|33:135,1,67.5000025749208,2|0,0:0|0:0,0:0:0:0:
127,24,435431,2,0,P|125:86|185:129,1,135.000005149842,8|0,0:0|0:0,0:0:0:0:
267,39,435910,1,2,0:0:0:0:
267,39,435989,1,2,0:0:0:0:
267,39,436069,6,0,L|174:60,1,67.5000025749208,2|0,0:0|0:0,0:0:0:0:
279,125,436388,2,0,L|372:146,1,67.5000025749208,2|0,0:0|0:0,0:0:0:0:
301,262,436707,1,8,3:0:0:0:
290,236,436867,1,8,3:0:0:0:
372,329,437027,2,0,P|332:359|282:361,1,101.250003862381,2|0,0:0|0:0,0:0:0:0:
266,353,437346,5,2,0:0:0:0:
266,353,453303,5,4,0:0:0:0:
178,119,453942,5,2,3:0:0:0:
237,64,454260,1,2,3:0:0:0:
308,104,454580,1,2,3:0:0:0:
370,51,454899,1,4,3:0:0:0:
439,144,455059,1,2,0:0:0:0:
439,144,455138,1,2,0:0:0:0:
439,144,455218,6,0,P|469:129|502:130,2,67.5000025749208,2|2|2,0:0|0:0|0:0,0:0:0:0:
395,222,455697,2,0,L|410:339,1,101.250003862381,2|0,0:0|0:0,0:0:0:0:
411,338,456016,2,0,P|371:368|322:363,1,101.250003862381,2|0,0:0|0:0,0:0:0:0:
309,352,456335,2,0,P|269:322|220:327,1,101.250003862381,2|0,0:0|0:0,0:0:0:0:
211,341,456654,5,2,0:0:0:0:
135,267,456814,1,8,3:0:0:0:
120,248,456973,1,8,3:0:0:0:
77,344,457133,1,8,3:0:0:0:
58,332,457293,2,0,L|36:190,1,135.000005149842,8|0,3:0|0:0,0:0:0:0:
69,20,457771,6,0,L|79:109,1,90,4|0,0:0|0:0,0:0:0:0:
171,151,458090,1,2,0:0:0:0:
252,97,458250,1,2,0:0:0:0:
154,25,458410,1,8,0:0:0:0:
161,50,458569,1,2,0:0:0:0:
251,178,458729,2,0,P|321:173|361:56,1,180,2|0,0:0|0:0,0:0:0:0:
465,40,459208,1,2,0:0:0:0:
454,137,459367,2,0,L|471:231,1,90,2|0,0:0|0:0,0:0:0:0:
423,348,459686,2,0,P|348:352|379:284,1,180,8|0,0:0|0:0,0:0:0:0:
380,285,460325,6,0,P|341:265|297:270,1,90,4|0,0:0|0:0,0:0:0:0:
241,369,460644,1,2,0:0:0:0:
98,340,460803,2,0,L|110:233,1,90,0|8,0:0|0:0,0:0:0:0:
19,257,461123,1,2,0:0:0:0:
188,294,461283,2,0,P|228:233|161:140,1,180,2|0,0:0|0:0,0:0:0:0:
91,182,461762,1,2,0:0:0:0:
118,87,461921,2,0,P|138:48|136:4,1,90,2|0,0:0|0:0,0:0:0:0:
243,65,462240,2,0,P|318:105|400:30,1,180,8|0,0:0|0:0,0:0:0:0:
391,58,462878,6,0,P|439:128|402:206,1,180,4|0,0:0|0:0,0:0:0:0:
301,191,463356,1,2,0:0:0:0:
305,310,463516,2,0,P|343:287|387:290,1,90,8|0,0:0|0:0,0:0:0:0:
211,373,463835,2,0,P|175:324|255:248,1,180,2|0,0:0|0:0,0:0:0:0:
203,164,464314,1,2,0:0:0:0:
269,107,464473,2,0,P|340:123|370:143,1,90,2|0,0:0|0:0,0:0:0:0:
191,72,464793,2,0,P|89:110|-2:75,1,180,8|0,0:0|0:0,0:0:0:0:
23,92,465431,6,0,P|25:177|101:217,1,180,8|0,0:0|0:0,0:0:0:0:
131,349,465910,2,0,P|204:306|200:220,1,180,8|0,0:0|0:0,0:0:0:0:
307,137,466388,2,0,P|232:95|160:141,1,180,8|0,0:0|0:0,0:0:0:0:
101,216,466867,1,2,0:0:0:0:
214,240,467027,1,8,3:0:0:0:
200,220,467186,1,8,3:0:0:0:
277,349,467346,2,0,P|319:364|378:350,1,90,8|0,0:0|0:0,0:0:0:0:
420,263,467665,2,0,P|453:234|471:176,1,90,2|0,0:0|0:0,0:0:0:0:
367,22,467984,6,0,L|377:111,1,90,4|0,0:0|0:0,0:0:0:0:
267,159,468303,1,2,0:0:0:0:
345,218,468463,1,2,0:0:0:0:
303,83,468623,1,8,0:0:0:0:
297,66,468782,1,0,0:0:0:0:
257,246,468942,2,0,P|200:261|115:181,1,180,2|0,0:0|0:0,0:0:0:0:
120,90,469421,1,2,0:0:0:0:
26,128,469580,2,0,P|4:173|13:220,1,90,2|0,0:0|0:0,0:0:0:0:
208,169,469899,2,0,L|395:182,1,180,8|0,0:0|0:0,0:0:0:0:
387,181,470538,6,0,P|404:221|399:265,1,90,4|0,0:0|0:0,0:0:0:0:
320,336,470857,1,2,0:0:0:0:
478,329,471016,2,0,L|490:222,1,90,2|8,0:0|0:0,0:0:0:0:
461,143,471336,1,2,0:0:0:0:
319,231,471496,2,0,P|264:224|209:109,1,180,0|0,0:0|0:0,0:0:0:0:
286,71,471973,1,2,0:0:0:0:
180,36,472133,2,0,L|65:56,1,90,2|0,0:0|0:0,0:0:0:0:
22,138,472452,2,0,L|43:331,1,180,8|0,0:0|0:0,0:0:0:0:
41,316,473091,6,0,P|87:272|206:296,1,180,4|0,0:0|0:0,0:0:0:0:
241,357,473569,1,2,0:0:0:0:
355,244,473729,2,0,P|312:256|281:288,1,90,8|0,0:0|0:0,0:0:0:0:
404,304,474048,2,0,P|430:224|366:167,1,180,2|0,0:0|0:0,0:0:0:0:
277,183,474527,1,2,0:0:0:0:
353,82,474686,2,0,P|424:98|454:118,1,90,2|0,0:0|0:0,0:0:0:0:
260,99,475006,2,0,B|173:139|170:59|47:114,1,180,8|0,0:0|0:0,0:0:0:0:
39,182,475484,1,2,0:0:0:0:
89,270,475644,6,0,P|155:263|124:170,1,180,8|0,0:0|0:0,0:0:0:0:
175,350,476122,2,0,P|239:290|253:202,1,180,8|0,0:0|0:0,0:0:0:0:
292,374,476601,2,0,L|348:251,1,135,8|0,0:0|0:0,0:0:0:0:
359,232,476920,6,0,P|388:222|418:219,2,60,2|0|0,0:0|0:0|0:0,0:0:0:0:
337,149,477239,2,0,P|350:122|369:99,2,60,2|0|0,0:0|0:0|0:0,0:0:0:0:
265,110,477559,1,2,0:0:0:0:
252,73,477665,1,2,0:0:0:0:
227,46,477771,1,2,0:0:0:0:
193,31,477878,1,2,0:0:0:0:
156,31,477984,1,2,0:0:0:0:
122,47,478090,1,2,0:0:0:0:
105,77,478197,6,0,B|72:179|163:179|120:284,1,215.999993408203,4|0,0:0|0:0,0:0:0:0:
22,212,478676,1,0,0:0:0:0:
193,340,478835,2,0,P|149:371|96:375,1,107.999996704102,8|0,0:0|0:0,0:0:0:0:
230,197,479154,2,0,P|284:235|266:375,1,215.999993408203
120,284,479633,1,0,0:0:0:0:
185,122,479793,1,2,3:0:0:0:
210,111,479952,1,2,3:0:0:0:
371,228,480112,2,0,B|411:197|387:131|387:131|394:130|394:130|369:71|417:29,1,215.999993408203,8|0,0:0|0:0,0:0:0:0:
470,93,480591,1,0,0:0:0:0:
314,171,480750,6,0,B|273:206|298:266|298:266|291:267|291:267|315:332|274:363,1,215.999993408203,4|0,0:0|0:0,0:0:0:0:
373,301,481229,1,0,0:0:0:0:
219,308,481388,2,0,B|181:318|181:318|159:343,2,71.9999978027344,10|2|2,0:0|0:0|0:0,0:0:0:0:
171,219,481708,2,0,B|167:206|202:172|230:200|240:232|207:277|148:235|117:187|74:217,1,215.999993408203
89,300,482186,1,0,0:0:0:0:
292,228,482346,2,0,P|285:175|251:134,1,107.999996704102,2|0,0:0|0:0,0:0:0:0:
373,301,482665,2,0,P|407:260|414:207,1,107.999996704102,8|0,0:0|0:0,0:0:0:0:
314,38,482984,1,2,0:0:0:0:
314,38,483064,1,2,0:0:0:0:
314,38,483144,1,2,0:0:0:0:
314,38,483224,1,2,0:0:0:0:
314,39,483303,6,0,P|227:21|139:119,1,215.999993408203,6|0,0:0|0:0,0:0:0:0:
263,231,483782,2,0,P|276:180|251:134,1,107.999996704102,0|8,0:0|0:0,0:0:0:0:
187,301,484101,1,0,0:0:0:0:
141,102,484261,2,0,B|114:80|79:80|79:80|114:49|177:34|241:75,1,215.999993408203
251,133,484660,2,0,L|320:149,2,53.9999983520508,2|2|2,0:0|0:0|0:0,0:0:0:0:
191,183,484899,2,0,P|140:194|103:233,1,107.999996704102,2|0,0:0|0:0,0:0:0:0:
191,374,485218,2,0,L|181:266,1,107.999996704102,8|0,0:0|0:0,0:0:0:0:
303,145,485537,2,0,P|354:156|391:195,1,107.999996704102,2|0,0:0|0:0,0:0:0:0:
407,211,485777,1,2,0:0:0:0:
417,228,485856,6,0,B|435:156|435:156|419:91|419:91|439:8,1,215.999993408203,6|0,0:0|0:0,0:0:0:0:
251,133,486335,2,0,B|233:205|233:205|249:270|249:270|231:342,1,215.999993408203,4|0,0:0|0:0,0:0:0:0:
151,145,486814,1,0,0:0:0:0:
54,282,486974,1,2,0:0:0:0:
54,282,487053,1,2,0:0:0:0:
54,282,487133,2,0,P|79:246|143:229,2,107.999996704102,2|0|0,0:0|0:0|0:0,0:0:0:0:
231,342,487612,1,2,0:0:0:0:
434,327,487771,2,0,P|388:236|329:306,1,215.999993408203,8|0,0:0|0:0,0:0:0:0:
231,342,488250,1,2,0:0:0:0:
54,282,488410,6,0,B|-6:167|104:166|49:78,1,215.999993408203,4|0,0:0|0:0,0:0:0:0:
210,15,488888,2,0,B|154:103|265:104|205:218,1,215.999993408203,4|0,0:0|0:0,0:0:0:0:
326,174,489367,2,0,P|367:157|435:175,1,107.999996704102
365,370,489686,2,0,L|378:262,1,107.999996704102
329,88,490005,1,2,0:0:0:0:
340,70,490085,6,0,B|405:48|405:48|505:73,1,161.999995056153,2|8,0:0|0:0,0:0:0:0:
427,169,490484,2,0,B|376:191|376:191|324:174,1,107.999996704102
193,92,490803,1,2,0:0:0:0:
193,92,490883,1,2,0:0:0:0:
193,92,490963,6,0,P|181:38|135:13,1,107.999996704102,6|0,0:0|0:0,0:0:0:0:
147,225,491282,2,0,P|119:269|68:280,1,107.999996704102
27,114,491601,1,10,0:0:0:0:
27,114,491681,1,2,0:0:0:0:
27,114,491761,1,2,0:0:0:0:
27,114,491841,1,2,0:0:0:0:
27,114,491920,2,0,L|131:147,1,107.999996704102,2|0,0:0|0:0,0:0:0:0:
257,230,492239,6,0,P|316:293|295:197,1,215.999993408203,2|0,0:0|0:0,0:0:0:0:
275,139,492718,1,0,0:0:0:0:
430,243,492878,2,0,P|422:296|390:339,1,107.999996704102,8|0,0:0|0:0,0:0:0:0:
193,303,493197,2,0,P|226:345|276:366,1,107.999996704102,2|0,0:0|0:0,0:0:0:0:
112,291,493516,5,6,0:0:0:0:
101,310,493595,1,2,0:0:0:0:
81,319,493675,1,2,0:0:0:0:
59,315,493755,1,2,0:0:0:0:
45,298,493835,1,2,0:0:0:0:
43,276,493914,1,2,0:0:0:0:
55,257,493994,1,2,0:0:0:0:
76,250,494074,1,2,0:0:0:0:
99,258,494154,2,0,L|112:177,3,53.9999983520508,10|0|0|0,0:0|0:0|0:0|0:0,0:0:0:0:
171,162,494474,2,0,L|187:41,1,107.999996704102,2|0,0:0|0:0,0:0:0:0:
404,181,494793,6,0,P|321:207|255:108,1,215.999993408203
342,28,495271,1,0,0:0:0:0:
472,120,495431,2,0,P|491:154|474:239,1,107.999996704102,8|0,0:0|0:0,0:0:0:0:
409,379,495750,2,0,L|421:266,1,107.999996704102,2|0,0:0|0:0,0:0:0:0:
270,347,496069,6,0,B|216:351|191:291|191:291|185:295|185:295|156:232|105:239,1,215.999993408203,4|0,0:0|0:0,0:0:0:0:
301,228,496548,2,0,B|260:196|203:236|203:236|201:229|201:229|149:269|105:239,1,215.999993408203,4|0,0:0|0:0,0:0:0:0:
16,88,497027,1,2,0:0:0:0:
14,94,497107,1,2,0:0:0:0:
13,99,497186,1,2,0:0:0:0:
11,104,497266,1,2,0:0:0:0:
10,110,497346,6,0,P|53:135|131:127,1,107.999996704102,2|0,0:0|0:0,0:0:0:0:
187,34,497665,1,2,0:0:0:0:
245,144,497825,1,2,0:0:0:0:
341,90,497984,1,10,0:0:0:0:
276,35,498144,1,2,0:0:0:0:
322,174,498303,1,8,3:0:0:0:
345,183,498463,1,8,3:0:0:0:
463,321,498622,6,0,P|378:305|314:364,1,180,4|0,0:0|0:0,0:0:0:0:
253,224,499101,1,2,0:0:0:0:
118,277,499261,2,0,P|103:328|121:366,1,90,8|0,0:0|0:0,0:0:0:0:
20,267,499580,1,2,0:0:0:0:
174,200,499739,2,0,P|187:157|171:116,1,90,2|0,0:0|0:0,0:0:0:0:
0,47,500059,2,0,L|114:55,1,90
92,160,500378,1,0,0:0:0:0:
243,52,500537,2,0,B|289:37|289:37|375:100,1,135,10|0,0:0|0:0,0:0:0:0:
355,110,500857,2,0,B|398:131|398:131|414:237,1,135,2|0,0:0|0:0,0:0:0:0:
404,239,501176,6,0,P|385:286|396:333,1,90,2|0,0:0|0:0,0:0:0:0:
319,203,501495,1,0,0:0:0:0:
473,296,501654,2,0,L|491:392,1,90,0|8,0:0|0:0,0:0:0:0:
322,359,501974,1,2,0:0:0:0:
143,348,502133,2,0,P|183:295|301:289,1,180,2|0,0:0|0:0,0:0:0:0:
235,182,502612,2,0,P|195:201|150:202,1,90,2|0,0:0|0:0,0:0:0:0:
50,171,502931,1,2,0:0:0:0:
44,355,503091,2,0,P|24:315|23:270,1,90,10|0,0:0|0:0,0:0:0:0:
113,106,503410,1,2,3:0:0:0:
118,132,503569,1,2,3:0:0:0:
315,139,503729,6,0,P|411:126|469:44,1,180,2|0,0:0|0:0,0:0:0:0:
321,40,504208,1,2,0:0:0:0:
234,190,504367,2,0,P|190:183|150:201,1,90,10|0,0:0|0:0,0:0:0:0:
299,358,504686,2,0,L|305:260,1,90,2|2,0:0|0:0,0:0:0:0:
304,268,504926,1,2,0:0:0:0:
304,268,505005,2,0,P|347:275|388:256,1,90,2|0,0:0|0:0,0:0:0:0:
435,175,505325,1,2,0:0:0:0:
461,324,505484,1,2,0:0:0:0:
337,194,505644,2,0,L|331:96,1,90,8|0,0:0|0:0,0:0:0:0:
155,291,505963,2,0,L|149:193,1,90,2|0,0:0|0:0,0:0:0:0:
48,58,506282,5,2,0:0:0:0:
106,125,506442,1,2,0:0:0:0:
173,34,506601,1,2,3:0:0:0:
149,30,506761,1,2,3:0:0:0:
199,115,506920,1,8,0:0:0:0:
306,44,507080,1,2,0:0:0:0:
323,169,507240,1,2,0:0:0:0:
445,131,507399,6,0,P|481:165|448:299,1,180,2|0,0:0|0:0,0:0:0:0:
321,345,507878,1,2,0:0:0:0:
282,251,508037,1,2,0:0:0:0:
398,325,508197,1,8,0:0:0:0:
404,346,508357,1,2,3:0:0:0:
217,316,508516,2,0,P|181:292|163:251,1,90,2|0,0:0|0:0,0:0:0:0:
143,99,508835,6,0,P|107:183|21:251,1,180,4|0,0:0|0:0,0:0:0:0:
112,339,509314,1,2,0:0:0:0:
247,238,509474,2,0,P|286:220|348:215,1,90,8|0,0:0|0:0,0:0:0:0:
431,252,509793,1,2,0:0:0:0:
469,71,509952,2,0,P|491:110|493:155,2,90,2|0|0,0:0|0:0|0:0,0:0:0:0:
322,112,510431,1,2,3:0:0:0:
316,135,510591,1,2,3:0:0:0:
189,37,510750,2,0,B|107:31|107:31|58:87,1,135,10|0,0:0|0:0,0:0:0:0:
91,83,511069,2,0,B|154:136|154:136|149:210,1,135,2|0,0:0|0:0,0:0:0:0:
142,209,511389,6,0,P|103:229|59:226,1,90,2|0,0:0|0:0,0:0:0:0:
19,156,511708,1,2,0:0:0:0:
177,279,511867,2,0,L|195:375,1,90,2|8,0:0|0:0,0:0:0:0:
257,135,512186,2,0,L|239:231,1,90,2|0,0:0|0:0,0:0:0:0:
203,58,512505,1,2,0:0:0:0:
333,15,512665,2,0,P|376:22|413:48,2,90,2|0|0,0:0|0:0|0:0,0:0:0:0:
424,140,513144,1,2,0:0:0:0:
348,289,513303,2,0,P|389:271|418:237,1,90,8|0,0:0|0:0,0:0:0:0:
205,204,513623,1,2,3:0:0:0:
210,230,513782,1,2,3:0:0:0:
40,53,513942,6,0,L|67:231,1,180,2|0,0:0|0:0,0:0:0:0:
181,307,514421,1,2,0:0:0:0:
142,147,514580,2,0,P|147:103|174:68,1,90,8|0,0:0|0:0,0:0:0:0:
375,178,514899,2,0,L|265:187,1,90,2|2,0:0|0:0,0:0:0:0:
285,185,515139,1,2,0:0:0:0:
285,185,515218,2,0,P|312:220|316:264,1,90,2|0,0:0|0:0,0:0:0:0:
265,351,515538,1,2,0:0:0:0:
395,305,515697,1,2,0:0:0:0:
221,251,515857,2,0,L|119:270,1,90,8|0,0:0|0:0,0:0:0:0:
53,130,516176,2,0,L|155:149,1,90,2|0,0:0|0:0,0:0:0:0:
257,95,516495,5,2,0:0:0:0:
341,53,516655,1,2,0:0:0:0:
231,20,516814,1,2,3:0:0:0:
207,16,516974,1,2,3:0:0:0:
325,129,517133,1,8,0:0:0:0:
238,200,517293,1,2,0:0:0:0:
141,146,517453,1,2,0:0:0:0:
40,238,517612,6,0,P|101:277|114:384,1,180,2|0,0:0|0:0,0:0:0:0:
226,280,518091,1,2,0:0:0:0:
328,355,518250,1,2,0:0:0:0:
323,230,518410,1,8,0:0:0:0:
328,207,518570,1,2,3:0:0:0:
496,175,518729,2,0,P|447:178|397:152,1,90,2|0,0:0|0:0,0:0:0:0:
200,83,519048,6,0,P|286:99|357:49,1,180,4|0,0:0|0:0,0:0:0:0:
465,90,519527,1,2,0:0:0:0:
327,207,519687,2,0,P|315:249|328:292,1,90,8|0,0:0|0:0,0:0:0:0:
421,340,520006,1,2,0:0:0:0:
248,323,520165,2,0,L|151:340,1,90,2|0,0:0|0:0,0:0:0:0:
11,245,520484,2,0,L|108:262,1,90,2|0,0:0|0:0,0:0:0:0:
62,352,520804,1,2,0:0:0:0:
197,248,520963,2,0,P|204:163|135:110,1,180,8|0,0:0|0:0,0:0:0:0:
64,156,521442,1,2,0:0:0:0:
270,116,521602,6,0,P|279:73|263:31,1,90,2|0,0:0|0:0,0:0:0:0:
183,18,521921,1,0,0:0:0:0:
345,161,522080,2,0,L|363:257,1,90,2|8,0:0|0:0,0:0:0:0:
309,332,522400,1,2,0:0:0:0:
458,221,522559,2,0,L|476:317,2,90,2|0|0,0:0|0:0|0:0,0:0:0:0:
490,81,523038,2,0,P|454:106|410:108,1,90,2|0,0:0|0:0,0:0:0:0:
319,44,523357,1,2,0:0:0:0:
184,162,523516,2,0,P|220:136|265:135,1,90,10|0,0:0|0:0,0:0:0:0:
133,270,523836,1,2,3:0:0:0:
119,245,523995,1,2,3:0:0:0:
219,359,524155,6,0,P|307:351|367:286,1,180,0|0,0:0|0:0,0:0:0:0:
372,175,524634,1,2,0:0:0:0:
265,135,524793,2,0,P|240:98|239:53,1,90,8|0,0:0|0:0,0:0:0:0:
265,232,525112,2,0,L|155:241,1,90,2|2,0:0|0:0,0:0:0:0:
175,239,525352,1,2,0:0:0:0:
175,239,525431,2,0,P|174:283|149:320,1,90,2|0,0:0|0:0,0:0:0:0:
53,357,525751,1,2,0:0:0:0:
75,245,525910,1,2,0:0:0:0:
23,132,526070,2,0,L|12:42,1,90,8|0,0:0|0:0,0:0:0:0:
152,162,526388,2,0,L|141:72,1,90,2|0,0:0|0:0,0:0:0:0:
258,224,526708,5,2,0:0:0:0:
229,333,526868,1,2,0:0:0:0:
345,281,527027,1,2,3:0:0:0:
341,260,527187,1,2,3:0:0:0:
434,351,527346,1,8,0:0:0:0:
463,242,527506,1,2,0:0:0:0:
387,153,527666,1,2,0:0:0:0:
440,27,527825,6,0,P|363:71|276:58,1,180,2|0,0:0|0:0,0:0:0:0:
145,40,528304,1,2,0:0:0:0:
242,144,528463,1,2,0:0:0:0:
122,169,528623,1,8,0:0:0:0:
132,143,528783,1,2,3:0:0:0:
311,228,528942,2,0,P|312:272|291:311,1,90,2|0,0:0|0:0,0:0:0:0:
379,171,529261,6,0,P|399:228|369:352,1,180,4|0,0:0|0:0,0:0:0:0:
237,251,529740,1,2,0:0:0:0:
99,310,529899,2,0,P|143:313|182:335,1,90,8|0,0:0|0:0,0:0:0:0:
15,345,530219,1,2,3:0:0:0:
23,370,530378,1,2,3:0:0:0:
106,225,530537,2,0,L|91:136,2,90,2|0|0,0:0|0:0|0:0,0:0:0:0:
237,251,531017,1,2,0:0:0:0:
333,165,531176,2,0,P|340:80|271:27,1,180,8|0,0:0|0:0,0:0:0:0:
255,113,531654,1,2,0:0:0:0:
430,182,531815,6,0,P|442:139|436:95,1,90,2|0,0:0|0:0,0:0:0:0:
365,245,532134,1,2,0:0:0:0:
449,288,532293,2,0,P|456:333|444:376,1,90,2|8,0:0|0:0,0:0:0:0:
364,384,532613,1,2,0:0:0:0:
157,376,532772,2,0,P|205:326|315:317,1,180,2|0,0:0|0:0,0:0:0:0:
248,218,533251,2,0,L|131:225,1,90,2|0,0:0|0:0,0:0:0:0:
105,290,533570,1,2,0:0:0:0:
181,146,533729,2,0,L|64:153,1,90,8|0,0:0|0:0,0:0:0:0:
14,42,534049,1,2,3:0:0:0:
4,67,534208,1,2,3:0:0:0:
180,24,534368,6,0,P|272:12|361:70,1,180,2|0,0:0|0:0,0:0:0:0:
293,168,534847,1,2,0:0:0:0:
233,275,535006,2,0,P|227:318|247:358,1,90,8|0,0:0|0:0,0:0:0:0:
450,295,535325,2,0,L|340:304,1,90,2|2,0:0|0:0,0:0:0:0:
360,302,535564,1,2,0:0:0:0:
360,302,535644,2,0,P|354:258|374:218,1,90,2|0,0:0|0:0,0:0:0:0:
477,196,535964,1,2,0:0:0:0:
394,118,536123,1,2,0:0:0:0:
293,168,536283,2,0,L|195:179,1,90,8|0,0:0|0:0,0:0:0:0:
54,263,536601,2,0,L|152:274,1,90,2|0,0:0|0:0,0:0:0:0:
220,255,536921,5,2,0:0:0:0:
129,191,537081,1,2,0:0:0:0:
207,92,537240,1,2,3:0:0:0:
225,107,537400,1,2,3:0:0:0:
100,69,537559,1,8,0:0:0:0:
226,19,537719,1,2,0:0:0:0:
338,81,537879,1,2,0:0:0:0:
469,31,538038,6,0,P|489:114|430:177,1,180,2|0,0:0|0:0,0:0:0:0:
306,246,538517,1,2,0:0:0:0:
355,356,538676,1,2,0:0:0:0:
439,263,538836,1,8,0:0:0:0:
415,270,538996,1,2,3:0:0:0:
244,329,539155,2,0,P|199:327|160:305,1,90,2|0,0:0|0:0,0:0:0:0:
49,197,539474,6,0,L|35:137,3,45,4|0|0|0,0:0|0:0|0:0|0:0,0:0:0:0:
115,149,539783,2,0,L|101:89,1,45,2|0,0:0|0:0,0:0:0:0:
98,30,539937,2,0,L|185:49,1,90,8|2,0:0|0:0,0:0:0:0:
198,53,540169,1,2,0:0:0:0:
211,56,540247,1,2,0:0:0:0:
224,59,540324,1,2,0:0:0:0:
236,61,540401,2,0,P|262:98|266:143,1,90,8|0,0:0|0:0,0:0:0:0:
378,240,540711,2,0,P|333:244|293:225,1,90,8|0,0:0|0:0,0:0:0:0:
152,273,541020,2,0,P|172:233|208:207,2,90,8|2|2,0:0|0:0|0:0,0:0:0:0:
348,161,541484,6,0,P|406:96|368:21,1,180,4|0,0:0|0:0,0:0:0:0:
323,86,541948,1,2,0:0:0:0:
236,61,542102,1,2,0:0:0:0:
180,121,542257,1,10,0:0:0:0:
106,43,542412,1,2,3:0:0:0:
112,23,542566,1,2,3:0:0:0:
124,207,542721,2,0,P|85:230|40:231,1,90,2|0,0:0|0:0,0:0:0:0:
229,263,543030,2,0,L|248:376,1,90,2|0,0:0|0:0,0:0:0:0:
288,176,543339,2,0,P|332:176|371:154,1,90,2|8,0:0|0:0,0:0:0:0:
430,300,543649,1,2,0:0:0:0:
430,300,543726,1,2,0:0:0:0:
430,300,543803,1,2,0:0:0:0:
430,300,543881,1,2,0:0:0:0:
430,299,543958,6,0,P|430:224|495:261,1,180,6|0,0:0|0:0,0:0:0:0:
461,139,544422,2,0,L|473:41,1,90,2|0,0:0|0:0,0:0:0:0:
371,154,544731,2,0,L|383:56,1,90,8|0,0:0|0:0,0:0:0:0:
361,38,544963,2,0,P|311:21|269:25,1,90,2|0,0:0|0:0,0:0:0:0:
250,43,545195,2,0,L|241:106,1,45,2|0,0:0|0:0,0:0:0:0:
263,121,545350,6,0,P|216:168|151:163,1,135,8|8,0:0|0:0,0:0:0:0:
105,266,545698,2,0,P|88:281|55:295,2,56.25,2|2|2,3:0|3:0|3:0,3:0:0:0:
118,244,545968,5,8,0:0:0:0:
235,320,546200,1,8,0:0:0:0:
341,227,546394,1,2,3:0:0:0:
341,227,546490,1,2,3:0:0:0:
341,227,546587,1,6,3:0:0:0:
241,169,570066,6,0,P|221:95|296:105,1,180,4|0,0:0|0:0,0:0:0:0:
326,186,570544,1,0,0:0:0:0:
366,263,570704,2,0,P|376:306|363:348,1,90,8|0,0:0|0:0,0:0:0:0:
179,221,571023,2,0,P|137:153|174:35,1,180,4|0,0:0|0:0,0:0:0:0:
297,105,571502,1,0,0:0:0:0:
267,248,571661,2,0,P|243:285|204:306,1,90,8|0,0:0|0:0,0:0:0:0:
59,232,571980,6,0,L|39:34,1,180,4|0,0:0|0:0,0:0:0:0:
232,140,572459,2,0,P|181:143|235:87,1,180,4|0,0:0|0:0,0:0:0:0:
243,83,572831,2,0,L|281:79,1,30
287,78,572938,2,0,P|329:64|363:35,1,90,4|0,0:0|0:0,0:0:0:0:
432,135,573257,2,0,P|451:175|453:219,1,90,4|0,0:0|0:0,0:0:0:0:
371,312,573576,1,8,3:0:0:0:
334,208,573736,1,8,3:0:0:0:
356,340,573895,2,0,B|261:350|261:350|222:316,1,135,8|0,3:0|0:0,0:0:0:0:
210,300,574214,6,0,P|124:287|58:344,1,180,4|0,0:0|0:0,0:0:0:0:
31,223,574680,1,0,0:0:0:0:
183,182,574835,2,0,P|181:123|80:152,1,180,8|0,0:0|0:0,0:0:0:0:
256,225,575303,2,0,P|331:252|354:174,1,180,8|0,0:0|0:0,0:0:0:0:
259,89,575810,1,2,0:0:0:0:
278,99,575878,1,2,0:0:0:0:
299,104,575946,1,2,0:0:0:0:
321,103,576014,1,2,0:0:0:0:
342,96,576089,6,0,P|349:52|318:-9,1,90,2|0,0:0|0:0,0:0:0:0:
460,135,576422,2,0,P|445:177|452:221,1,90,2|0,0:0|0:0,0:0:0:0:
498,350,576749,1,8,0:0:0:0:
365,311,576910,1,2,0:0:0:0:
243,365,577071,1,8,0:0:0:0:
282,290,577232,1,2,0:0:0:0:
157,256,577394,1,8,3:0:0:0:
169,277,577555,1,8,3:0:0:0:
258,88,577714,6,0,P|184:41|98:58,1,180,12|0,0:0|0:0,0:0:0:0:
165,152,578192,1,0,0:0:0:0:
346,137,578352,2,0,L|340:47,1,90
305,208,578671,2,0,P|349:222|398:203,1,90,8|0,0:0|0:0,0:0:0:0:
433,130,578990,1,0,0:0:0:0:
224,200,579150,2,0,L|218:289,1,90
305,321,579469,1,0,0:0:0:0:
104,369,579628,6,0,L|116:182,1,180,8|0,0:0|0:0,0:0:0:0:
14,241,580107,1,0,0:0:0:0:
136,80,580267,2,0,P|99:104|55:105,1,90
289,164,580586,2,0,P|251:129|248:1,1,180,8|0,0:0|0:0,0:0:0:0:
408,117,581065,1,0,0:0:0:0:
344,231,581224,2,0,P|345:275|324:314,1,90
198,301,581543,6,0,P|191:225|262:250,2,180,8|0|0,0:0|0:0|0:0,0:0:0:0:
258,361,582341,1,0,0:0:0:0:
344,231,582501,2,0,L|325:27,1,180,8|0,0:0|0:0,0:0:0:0:
433,200,582979,2,0,P|477:128|423:64,1,180
250,127,583458,6,0,P|164:114|90:162,1,180,8|0,0:0|0:0,0:0:0:0:
124,330,583937,2,0,P|211:343|285:296,1,180
97,248,584416,2,0,P|58:268|35:306,2,90,8|0|0,0:0|0:0|0:0,0:0:0:0:
265,211,584894,2,0,P|304:190|327:152,2,90
434,65,585373,6,0,L|453:269,1,180,8|0,0:0|0:0,0:0:0:0:
373,321,585852,1,0,0:0:0:0:
289,364,586011,2,0,P|252:338|228:300,1,90
351,78,586331,2,0,P|327:162|363:243,1,180,8|0,0:0|0:0,0:0:0:0:
441,152,586809,1,0,0:0:0:0:
499,80,586969,2,0,P|473:43|435:19,1,90
256,203,587288,6,0,P|195:188|264:135,1,180,8|0,0:0|0:0,0:0:0:0:
298,277,587767,1,0,0:0:0:0:
158,256,587926,2,0,P|128:222|117:179,1,90
33,35,588245,2,0,L|25:216,1,180,8|0,0:0|0:0,0:0:0:0:
72,289,588724,1,0,0:0:0:0:
121,103,588884,2,0,P|132:59|161:26,1,90
368,102,589203,2,0,B|302:118|302:118|238:102,1,135,8|0,0:0|0:0,0:0:0:0:
209,97,589522,6,0,P|235:182|201:264,1,180,8|0,0:0|0:0,0:0:0:0:
470,353,590160,2,0,L|478:174,1,180,8|0,0:0|0:0,0:0:0:0:
391,302,590639,2,0,P|325:360|238:352,1,180,8|0,0:0|0:0,0:0:0:0:
163,180,591118,2,0,P|76:172|11:231,1,180,8|0,0:0|0:0,0:0:0:0:
254,241,591596,2,0,L|246:62,1,180,8|0,0:0|0:0,0:0:0:0:
450,51,592075,2,0,P|417:132|338:171,1,180,8|0,0:0|0:0,0:0:0:0:
163,180,592554,2,0,P|238:225|264:309,1,180,8|0,0:0|0:0,0:0:0:0:
78,217,593033,6,0,P|76:150|179:83,1,180,12|0,0:0|0:0,0:0:0:0:
246,128,593511,1,0,0:0:0:0:
339,92,593671,2,0,P|350:48|340:5,1,90
320,182,593990,2,0,L|429:198,1,90,8|0,0:0|0:0,0:0:0:0:
483,147,594309,1,0,0:0:0:0:
370,273,594469,2,0,L|261:289,1,90
449,328,594788,1,0,0:0:0:0:
244,366,594948,6,0,P|190:311|87:322,1,180,8|0,0:0|0:0,0:0:0:0:
18,238,595426,1,0,0:0:0:0:
131,133,595586,2,0,P|124:177|100:214,1,90
68,80,595905,2,0,P|55:31|139:57,1,180,8|0,0:0|0:0,0:0:0:0:
208,166,596384,1,0,0:0:0:0:
315,101,596543,2,0,P|329:54|319:-1,1,90
311,208,596862,6,0,P|369:264|478:266,2,180,8|0|0,0:0|0:0|0:0,0:0:0:0:
317,325,597660,1,0,0:0:0:0:
243,258,597820,2,0,P|154:261|89:321,1,180,8|0,0:0|0:0,0:0:0:0:
192,357,598299,2,0,L|166:142,1,180
292,84,598777,6,0,P|208:110|131:67,1,180,8|0,0:0|0:0,0:0:0:0:
331,174,599256,2,0,P|407:131|491:156,1,180
321,255,599735,2,0,P|327:299|352:336,2,90,8|0|0,0:0|0:0|0:0,0:0:0:0:
500,325,600214,2,0,P|515:283|510:239,2,90
331,174,600692,6,0,P|293:128|373:132,1,180,8|0,0:0|0:0,0:0:0:0:
404,196,601171,1,0,0:0:0:0:
234,220,601331,2,0,P|186:226|147:205,1,90
52,77,601650,2,0,L|28:260,1,180,8|0,0:0|0:0,0:0:0:0:
113,331,602128,1,0,0:0:0:0:
234,220,602288,2,0,L|222:311,1,90
199,117,602607,6,0,P|245:41|323:0,1,180,8|0,0:0|0:0,0:0:0:0:
396,108,603086,2,0,P|433:85|478:82,2,90
437,326,603565,2,0,P|481:251|461:166,1,180,8|0,0:0|0:0,0:0:0:0:
357,231,604043,1,0,0:0:0:0:
233,274,604203,2,0,P|256:313|292:340,1,90
138,252,604522,2,0,B|75:280|75:280|-4:256,1,135,8|0,0:0|0:0,0:0:0:0:
5,234,604842,6,0,L|30:42,1,180,8|0,0:0|0:0,0:0:0:0:
369,57,605484,2,0,P|323:102|191:79,1,180,8|0,0:0|0:0,0:0:0:0:
138,252,605962,2,0,P|224:238|293:292,1,180,8|0,0:0|0:0,0:0:0:0:
379,231,606441,2,0,P|399:270|402:315,1,90,8|2,0:0|0:0,0:0:0:0:
402,315,606667,1,2,0:0:0:0:
402,315,606742,6,0,L|518:303,1,90,2|0,0:0|0:0,0:0:0:0:
441,150,607075,1,10,0:0:0:0:
441,150,607158,1,2,0:0:0:0:
441,150,607242,2,0,L|325:138,1,90,2|0,0:0|0:0,0:0:0:0:
240,28,607558,1,2,0:0:0:0:
240,28,607634,1,2,0:0:0:0:
240,28,607709,2,0,L|356:16,1,90,2|0,0:0|0:0,0:0:0:0:
173,105,608028,2,0,P|134:55|138:0,1,90,8|0,0:0|0:0,0:0:0:0:
36,98,608354,2,0,B|57:169|57:169|47:229,1,135,8|0,0:0|0:0,0:0:0:0:
41,247,608685,5,4,0:0:0:0:
41,247,608992,2,0,L|47:338,1,90
277,270,609300,2,0,P|246:192|162:193,1,180,8|0,0:0|0:0,0:0:0:0:
336,104,609778,2,0,P|366:182|450:181,1,180,8|0,0:0|0:0,0:0:0:0:
393,38,610257,5,10,0:0:0:0:
371,30,610338,1,2,0:0:0:0:
348,27,610419,1,2,0:0:0:0:
325,28,610500,1,2,0:0:0:0:
303,35,610581,6,0,L|265:61,3,45
196,28,610905,2,0,L|158:54,3,45,2|0|0|0,0:0|0:0|0:0|0:0,0:0:0:0:
84,43,611229,5,10,0:0:0:0:
65,30,611307,1,2,0:0:0:0:
43,28,611387,1,2,0:0:0:0:
23,38,611467,1,2,0:0:0:0:
13,58,611547,1,2,0:0:0:0:
16,81,611626,1,2,0:0:0:0:
30,96,611706,1,2,0:0:0:0:
51,103,611786,1,2,0:0:0:0:
74,98,611866,6,0,L|118:112,1,45,8|0,0:0|0:0,0:0:0:0:
118,182,612025,2,0,L|162:196,1,45,2|0,0:0|0:0,0:0:0:0:
173,267,612185,2,0,L|217:281,3,45,8|0|0|0,0:0|0:0|0:0|0:0,0:0:0:0:
233,298,612504,6,0,P|274:278|334:284,1,90,4|0,0:0|0:0,0:0:0:0:
421,355,612823,2,0,L|411:266,1,90
426,152,613142,6,0,P|470:152|510:132,2,90,2|0|2,0:0|0:0|0:0,0:0:0:0:
288,35,613615,2,0,P|376:28|452:74,1,180,8|0,0:0|0:0,0:0:0:0:
247,120,614089,2,0,P|158:126|82:80,1,180,8|0,0:0|0:0,0:0:0:0:
36,179,614545,1,2,0:0:0:0:
125,257,614698,1,2,3:0:0:0:
134,232,614857,1,2,3:0:0:0:
54,345,615017,5,2,0:0:0:0:
54,345,615097,1,2,0:0:0:0:
54,345,615177,2,0,P|97:367|144:364,1,90,2|0,0:0|0:0,0:0:0:0:
230,202,615498,1,2,0:0:0:0:
233,214,615578,1,2,0:0:0:0:
236,227,615658,1,10,0:0:0:0:
330,308,615819,1,8,0:0:0:0:
226,188,615979,2,0,B|213:118|213:118|240:60,1,135,8|0,0:0|0:0,0:0:0:0:
259,39,616300,6,0,P|180:77|90:6,1,180,4|0,0:0|0:0,0:0:0:0:
71,132,616792,1,2,0:0:0:0:
236,227,616963,2,0,L|428:218,1,180,8|0,0:0|0:0,0:0:0:0:
409,340,617455,2,0,P|333:299|264:349,1,180,8|0,0:0|0:0,0:0:0:0:
144,174,617929,6,0,L|166:377,1,180,8|0,0:0|0:0,0:0:0:0:
71,132,618402,2,0,P|61:172|84:233,2,90,8|0|0,0:0|0:0|0:0,0:0:0:0:
205,30,618876,2,0,P|214:70|192:131,1,90,8|0,0:0|0:0,0:0:0:0:
129,67,619193,1,2,0:0:0:0:
223,188,619352,1,2,0:0:0:0:
309,90,619510,1,8,3:0:0:0:
298,73,619677,1,8,3:0:0:0:
355,278,619845,5,6,0:0:0:0:
308,201,620004,2,0,P|268:183|224:188,1,90
90,300,620323,2,0,P|130:318|174:313,1,90,4|0,0:0|0:0,0:0:0:0:
50,210,620642,1,2,0:0:0:0:
254,267,620802,2,0,L|246:363,1,90,4|0,0:0|0:0,0:0:0:0:
146,231,621121,1,2,0:0:0:0:
308,201,621281,2,0,L|300:111,1,90,4|0,0:0|0:0,0:0:0:0:
205,36,621600,1,2,0:0:0:0:
410,138,621759,6,0,P|454:139|488:111,1,90,4|0,0:0|0:0,0:0:0:0:
341,50,622079,1,2,0:0:0:0:
224,205,622238,2,0,P|179:203|145:231,1,90,4|0,0:0|0:0,0:0:0:0:
293,293,622557,1,2,0:0:0:0:
300,111,622717,2,0,L|308:201,1,90,4|0,0:0|0:0,0:0:0:0:
404,234,623036,1,2,0:0:0:0:
145,230,623196,2,0,L|152:319,1,90,4|0,0:0|0:0,0:0:0:0:
248,352,623515,1,2,0:0:0:0:
113,96,623674,6,0,P|76:68|33:65,2,90,4|0|2,0:0|0:0|0:0,0:0:0:0:
363,136,624153,2,0,P|344:176|307:200,1,90,2|0,0:0|0:0,0:0:0:0:
296,39,624472,1,2,0:0:0:0:
427,180,624632,2,0,P|471:174|511:193,2,90,4|0|2,0:0|0:0|0:0,0:0:0:0:
207,173,625110,2,0,P|186:133|190:89,1,90,2|0,0:0|0:0,0:0:0:0:
230,286,625430,1,4,3:0:0:0:
231,311,625589,1,12,3:0:0:0:
