osu file format v4

[General]
AudioFilename: Bureteiru.mp3
AudioLeadIn: 0
AudioHash: ec7666424d86a8d630c90903f9bab8d5
PreviewTime: -1
SampleSet: Normal
EditorBookmarks: 21937

[Metadata]
Title:Hitotoshite Jiku Ga Bureteiru
Artist:Ootsuki Kenji
Creator:Fox
Version:Normal

[Difficulty]
HPDrainRate:6
CircleSize:3
OverallDifficulty:6
SliderMultiplier: 1.4
SliderTickRate: 1

[Events]
0,0,"wp070726-6.png"
3,0,0,0,0

[TimingPoints]
2590,322.754168908015,4,1,0

[HitObjects]
160,80,2591,2,0,B|160:80|384:80,3,210
304,160,4528,1,0,
208,160,4851,1,0,
160,240,5173,6,0,B|160:240|384:240,3,210
304,160,7110,1,0,
208,160,7433,1,0,
160,80,7755,6,2,B|160:80|384:80,3,210
304,160,9692,1,2,
208,160,10015,1,2,
160,240,10337,6,6,B|160:240|384:240,3,210
352,128,12274,1,4,
256,128,12597,1,4,
160,128,12920,1,4,
256,336,14211,6,0,B|256:336|336:336,8,70
192,192,16793,6,0,B|192:192|272:192,8,70
320,64,19375,6,2,B|320:64|240:64,8,70
192,192,21957,6,6,B|192:192|272:192,8,70
80,192,23570,5,0,
128,256,23893,1,0,
176,320,24216,1,0,
224,256,24539,1,0,
272,192,24861,1,0,
320,256,25184,1,2,
400,160,25830,1,0,
400,160,26152,1,0,
256,64,27121,5,0,
256,192,27605,1,2,
256,320,28089,1,2,
432,192,28734,5,0,
384,256,29057,1,0,
336,320,29380,1,0,
288,256,29703,1,0,
240,192,30025,1,0,
192,256,30348,1,4,
112,160,30994,1,0,
112,160,31316,1,0,
256,64,32283,5,0,
256,192,32769,1,2,
256,320,33253,1,2,
256,192,33737,12,0,37933
96,80,39063,1,0,
192,80,39385,2,2,B|192:80|352:80,1,140
336,176,40031,2,2,B|336:176|176:176,1,140
192,272,40676,2,6,B|192:272|352:272,6,140
256,160,43097,5,0,
256,160,43258,1,0,
256,160,43420,1,2,
400,64,44227,6,0,B|400:64|400:192,1,105
400,256,44711,1,0,
304,256,45034,1,4,
80,128,45679,5,0,
80,128,45840,1,4,
80,128,46002,1,4,
176,128,46325,2,0,B|176:128|400:128,2,210
192,272,47777,5,0,
320,272,48261,1,0,
256,176,48745,1,2,
256,96,49068,1,6,
160,112,49391,6,0,B|160:112|160:208,3,70
160,288,50198,1,4,
352,288,50682,2,0,B|352:288|352:192,3,70
352,112,51489,1,4,
352,288,51973,2,0,B|352:288|256:288,3,70
176,288,52780,1,4,
176,96,53264,2,0,B|176:96|272:96,3,70
352,96,54071,1,4,
288,256,54716,5,2,
288,256,54878,2,0,B|288:256|64:256,1,210
80,112,56169,5,0,
192,112,56491,1,0,
288,176,56814,2,4,B|288:176|288:96,9,70
368,112,58428,2,2,B|368:112|400:352,1,210
256,304,59880,5,0,
256,304,60042,1,0,
256,304,60203,1,0,
256,304,60364,1,0,
256,304,60526,2,2,B|256:304|469:207|80:174|272:48,1,350
96,128,61978,6,0,B|96:128|48:176|112:240,2,105
176,208,62785,1,0,
256,128,63108,1,2,
256,128,63269,1,2,
336,208,63592,1,0,
336,208,63753,1,0,
400,128,64076,1,4,
256,304,65044,5,0,
256,304,65206,1,0,
256,304,65367,1,0,
256,208,65690,2,2,B|256:208|256:48,2,140
256,192,66819,12,0,69240
128,96,70047,1,0,
128,96,70208,1,0,
128,96,70370,2,2,B|128:96|436:110|432:304|112:336,1,560
48,192,72306,2,4,B|48:192|144:-48|256:352|336:352|480:176,2,560
144,320,75211,5,0,
144,320,75372,1,0,
144,320,75534,1,2,
144,320,75695,2,0,B|144:320|288:320,2,140
48,256,76663,1,0,
48,256,76825,1,0,
144,208,77148,1,0,
96,112,77470,6,6,B|96:112|208:32|272:32|192:336|320:336|400:320|416:96,2,560
