osu file format v4

[General]
AudioFilename: Bureteiru.mp3
AudioLeadIn: 0
AudioHash: ec7666424d86a8d630c90903f9bab8d5
PreviewTime: -1
SampleSet: Normal
EditorBookmarks: 21937

[Metadata]
Title:Hitotoshite Jiku Ga Bureteiru
Artist:Ootsuki Kenji
Creator:Fox
Version:Insane!!

[Difficulty]
HPDrainRate:8
CircleSize:5
OverallDifficulty:8
SliderMultiplier: 1.4
SliderTickRate: 1

[Events]
0,0,"wp070726-6.png"
3,0,0,0,0

[TimingPoints]
2590,322.754168908015,4,1,0

[HitObjects]
416,272,2590,1,0,
320,272,3074,1,0,
224,272,3559,1,0,
128,272,4043,1,0,
128,176,4527,1,0,
128,176,4850,1,0,
128,176,5172,5,0,
128,80,5657,1,0,
224,80,6141,1,0,
320,80,6625,1,0,
416,80,7109,1,0,
416,80,7432,1,2,
416,80,7754,5,0,
416,176,8239,1,0,
416,272,8723,1,0,
320,272,9207,1,0,
224,272,9691,1,0,
224,272,10014,1,0,
224,272,10336,5,0,
128,272,10821,1,0,
128,176,11305,1,0,
144,80,11789,1,0,
240,80,12273,1,2,
240,80,12596,1,6,
240,80,12919,6,2,B|240:80|427:70|448:224,1,280
256,192,14210,5,2,
256,192,14371,1,4,
256,192,14532,1,2,
256,192,14694,1,4,
256,192,14855,1,2,
256,192,15016,1,4,
256,192,15178,1,2,
256,192,15339,1,4,
256,192,15501,1,2,
181,119,16146,1,0,
112,192,16792,5,2,
112,192,16953,1,4,
112,192,17114,1,2,
112,192,17276,1,4,
112,192,17437,1,2,
112,192,17598,1,4,
112,192,17760,1,2,
112,192,17921,1,4,
112,192,18083,1,2,
181,260,18728,1,0,
256,336,19374,5,2,
256,336,19535,1,4,
256,336,19696,1,2,
256,336,19858,1,4,
256,336,20019,1,2,
256,336,20180,1,4,
256,336,20342,1,2,
256,336,20503,1,4,
256,336,20665,1,2,
336,272,21310,1,0,
400,192,21956,5,2,
400,192,22117,1,4,
400,192,22278,1,2,
400,192,22440,1,4,
400,192,22601,1,2,
400,192,22763,1,4,
400,192,22924,1,2,
400,192,23085,1,4,
400,192,23247,1,2,
288,256,23569,5,0,
256,256,23731,1,0,
224,256,23892,1,2,
160,176,24215,5,0,
160,144,24376,1,0,
160,112,24538,1,2,
256,96,24860,5,0,
288,128,25022,1,0,
320,160,25183,1,2,
272,256,25506,5,0,
240,224,25667,1,0,
208,192,25829,1,2,
112,192,26151,1,6,
144,96,27120,1,0,
240,96,27604,6,2,B|240:96|240:320,1,210
352,224,28733,5,0,
352,192,28895,1,0,
352,160,29056,1,4,
256,128,29379,5,0,
256,160,29540,1,0,
256,192,29702,1,4,
256,288,30024,5,0,
224,288,30186,1,0,
192,288,30347,1,4,
144,208,30670,5,0,
176,208,30831,1,0,
208,208,30993,1,4,
304,208,31315,1,6,
336,320,32284,1,0,
272,288,32768,6,2,B|272:288|272:64,1,210
224,288,33898,5,2,
256,288,34059,1,2,
288,288,34220,1,2,
288,192,34543,5,4,
256,192,34704,1,4,
224,192,34866,1,4,
182,110,35189,5,2,
208,64,35350,1,0,
224,112,35511,1,2,
256,64,35673,1,0,
272,112,35834,1,2,
304,64,35995,1,0,
320,112,36157,1,2,
416,176,36480,1,6,
160,96,37448,1,0,
240,96,37932,6,2,B|240:96|240:320,1,210
448,80,39062,1,0,
384,80,39223,1,0,
416,128,39384,2,2,B|416:128|384:272,1,140
336,256,39868,5,0,
288,256,40030,2,2,B|288:256|256:112,1,140
208,112,40514,5,0,
208,160,40675,2,4,B|208:160|112:160,3,70
144,208,41321,2,2,B|144:208|256:320|400:208,2,280
256,192,43096,5,0,
256,160,43257,1,0,
256,128,43419,1,4,
256,288,44226,5,0,
256,288,44387,2,2,B|256:288|64:288,1,175
80,192,45071,1,0,
80,80,45517,2,0,B|80:80|176:80,3,70
256,80,46324,1,2,
256,192,46808,2,0,B|256:192|208:256,1,70
208,304,47130,2,4,B|208:304|304:304,1,70
432,304,47776,6,2,B|432:304|474:215|416:96,2,210
352,256,49067,1,2,
272,320,49390,5,0,
272,320,49551,1,0,
272,320,49712,1,0,
272,320,49874,2,4,B|272:320|193:256|324:246|224:176,1,140
128,208,50681,5,0,
128,208,50842,1,0,
128,208,51003,1,0,
128,208,51165,2,6,B|128:208|192:129|202:260|272:176,1,140
240,64,51972,5,0,
240,64,52133,1,0,
240,64,52295,1,0,
240,64,52456,2,4,B|240:64|319:128|188:138|288:208,1,140
400,176,53263,5,0,
400,176,53424,1,0,
400,176,53586,1,0,
400,176,53747,2,6,B|400:176|336:255|326:124|256:224,1,140
288,336,54715,5,0,
240,336,54877,2,2,B|240:336|144:336,1,70
80,336,55361,2,4,B|80:336|80:112,1,210
176,96,56168,1,0,
256,96,56490,1,0,
336,96,56813,2,2,B|336:96|352:192,8,70
432,96,58427,2,4,B|432:96|432:192,1,70
432,272,58911,1,6,
96,320,59879,5,0,
144,320,60041,1,0,
192,320,60202,1,0,
240,320,60363,1,0,
288,320,60525,2,6,B|288:320|486:192|240:64,1,350
80,192,61977,5,0,
128,192,62139,2,2,B|128:192|272:192,1,140
368,192,62784,2,0,B|368:192|336:64|208:64,1,210
144,64,63591,1,0,
144,112,63752,1,0,
144,208,64075,1,0,
272,208,64559,1,0,
416,288,65043,6,2,B|416:288|416:192,2,70
304,288,65689,2,4,B|304:288|64:288,1,210
256,192,66657,12,4,69400
448,272,70046,1,0,
384,288,70207,1,0,
320,304,70369,2,2,B|320:304|192:240,1,140
176,320,70853,2,4,B|176:320|16:208|240:144|230:100|112:32,1,350
256,48,72305,2,0,B|256:48|464:240,2,280
256,192,74242,2,0,B|256:192|48:144,1,210
80,240,75210,5,0,
128,272,75371,1,0,
176,304,75533,1,0,
224,336,75694,2,2,B|224:336|336:224,2,140
144,336,76662,1,0,
128,272,76824,1,0,
208,272,77147,1,0,
144,224,77469,6,4,B|144:224|30:-48|478:-27|368:240,2,560
