osu file format v12

[General]
AudioFilename: Hito to Shite Jiku ga Bureteiru (TV SIZE).mp3
AudioLeadIn: 0
PreviewTime: -1
Countdown: 1
SampleSet: Soft
StackLeniency: 0.7
Mode: 0
LetterboxInBreaks: 1
WidescreenStoryboard: 0

[Editor]
DistanceSpacing: 0.8
BeatDivisor: 8
GridSize: 8
TimelineZoom: 1.6

[Metadata]
Title:Hito to Shite Jiku ga Bureteiru (TV SIZE)
TitleUnicode:Hito to Shite Jiku ga Bureteiru (TV SIZE)
Artist:Ootsuki Kenji
ArtistUnicode:Ootsuki Kenji
Creator:Glazbom
Version:GLZ
Source:
Tags:
BeatmapID:438285
BeatmapSetID:182870

[Difficulty]
HPDrainRate:6
CircleSize:4
OverallDifficulty:8
ApproachRate:10
SliderMultiplier:2.99999990463257
SliderTickRate:3

[Events]
//Background and Video events
0,0,"Case Cover Back Inner.jpg",0,0
//Break Periods
//Storyboard Layer 0 (Background)
//Storyboard Layer 1 (Fail)
//Storyboard Layer 2 (Pass)
//Storyboard Layer 3 (Foreground)
//Storyboard Sound Samples
//Background Colour Transformations
3,100,163,162,255

[TimingPoints]
340,645.138898450947,4,2,0,50,1,0
13248,-66.6666666666667,4,2,0,50,0,0
47773,-83.3333333333333,4,2,0,50,0,0
49548,-66.6666666666667,4,2,0,50,0,0
70202,-76.9230769230769,4,2,0,50,0,0
72451,-83.3333333333333,4,2,0,50,0,0
76163,-90.9090909090909,4,2,0,50,0,0
77615,-100,4,2,0,50,0,0

[Colours]
Combo1 : 255,128,128
Combo2 : 255,255,255
Combo3 : 255,255,174

[HitObjects]
320,272,2920,5,8,0:0:0:0:
120,168,3243,1,0,0:0:0:0:
120,168,3404,1,8,0:0:0:0:
392,72,3726,1,0,0:0:0:0:
392,72,3888,1,8,0:0:0:0:
64,320,4210,1,0,0:0:0:0:
64,320,4372,1,8,0:0:0:0:
256,40,4694,5,0,0:0:0:0:
256,40,4855,1,8,0:0:0:0:
152,216,5178,5,8,0:0:0:0:
368,216,5501,1,8,0:0:0:0:
144,56,5823,5,0,0:0:0:0:
96,144,5984,1,8,0:0:0:0:
424,296,6307,1,0,0:0:0:0:
288,248,6468,1,8,0:0:0:0:
360,32,6791,1,0,0:0:0:0:
368,240,6952,1,8,0:0:0:0:
256,192,7275,5,0,0:0:0:0:
256,192,7436,1,8,0:0:0:0:
448,336,7759,5,8,0:0:0:0:
72,192,8081,2,0,B|192:216|248:120,1,149.999995231629,8|0,0:0|0:0,0:0:0:0:
432,24,8565,2,0,B|460:108|400:184,1,149.999995231629,8|0,0:0|0:0,0:0:0:0:
256,360,9049,2,0,B|227:275|275:216,1,149.999995231629,8|0,0:0|0:0,0:0:0:0:
464,64,9533,1,8,0:0:0:0:
136,80,9855,5,0,0:0:0:0:
136,80,10017,1,8,0:0:0:0:
320,304,10339,1,8,0:0:0:0:
32,272,10662,6,0,B|88:336|168:304,1,149.999995231629,8|0,0:0|0:0,0:0:0:0:
168,304,11146,1,8,0:0:0:0:
472,112,11468,1,0,0:0:0:0:
472,112,11629,2,0,B|416:176|336:144,1,149.999995231629,8|0,0:0|0:0,0:0:0:0:
144,40,12113,1,8,0:0:0:0:
264,248,12436,5,0,0:0:0:0:
168,200,12597,1,8,0:0:0:0:
64,240,12758,5,0,0:0:0:0:
168,328,12920,1,8,0:0:0:0:
328,328,13081,1,0,0:0:0:0:
408,208,13242,1,8,0:0:0:0:
0,96,14533,6,0,B|32:40|112:24,3,112.500000715256,8|0|0|0,0:0|0:0|0:0|0:0,0:0:0:0:
176,144,15178,2,0,B|144:200|88:209,3,112.500000715256,8|0|0|0,0:0|0:0|0:0|0:0,0:0:0:0:
40,280,15823,5,8,0:0:0:0:
160,344,15984,1,0,0:0:0:0:
296,304,16145,1,0,0:0:0:0:
376,184,16307,1,0,0:0:0:0:
232,200,16468,5,8,0:0:0:0:
232,200,16629,1,0,0:0:0:0:
232,40,16791,1,0,0:0:0:0:
232,40,16952,1,0,0:0:0:0:
423,174,17113,6,0,B|368:184|336:240,3,112.500000715256,8|0|0|0,0:0|0:0|0:0|0:0,0:0:0:0:
424,353,17758,2,0,B|480:344|512:288,3,112.500000715256,8|0|0|0,0:0|0:0|0:0|0:0,0:0:0:0:
504,200,18403,5,8,0:0:0:0:
376,200,18565,1,0,0:0:0:0:
256,200,18726,1,0,0:0:0:0:
136,200,18887,1,0,0:0:0:0:
336,112,19049,5,8,0:0:0:0:
264,280,19210,1,0,0:0:0:0:
168,120,19371,1,0,0:0:0:0:
336,112,19532,1,0,0:0:0:0:
32,240,19694,6,0,B|57:303|136:288,2,112.500000715256,8|0|0,0:0|0:0|0:0,0:0:0:0:
78,151,20178,2,0,B|176:208,1,112.500000715256,0|8,0:0|0:0,0:0:0:0:
224,120,20500,2,0,B|199:57|136:72,2,112.500000715256
232,208,20984,5,8,0:0:0:0:
168,272,21145,1,0,0:0:0:0:
232,336,21307,1,0,0:0:0:0:
296,272,21468,1,0,0:0:0:0:
416,328,21629,5,8,0:0:0:0:
408,208,21790,1,0,0:0:0:0:
352,88,21952,1,0,0:0:0:0:
232,24,22113,1,0,0:0:0:0:
233,160,22274,6,0,B|209:99|144:112,2,112.500000715256,8|0|0,0:0|0:0|0:0,0:0:0:0:
192,248,22758,2,0,B|94:191,1,112.500000715256,0|8,0:0|0:0,0:0:0:0:
56,280,23081,2,0,B|81:343|144:328,2,112.500000715256
272,176,23565,5,8,0:0:0:0:
192,136,23726,1,0,0:0:0:0:
192,224,23887,2,0,B|144:248|72:224,1,112.500000715256
40,144,24210,1,8,0:0:0:0:
160,64,24371,1,0,0:0:0:0:
160,208,24532,1,0,0:0:0:0:
32,304,24693,6,0,B|97:303|160:312,1,112.500000715256,0|8,0:0|0:0,0:0:0:0:
280,336,25016,1,0,0:0:0:0:
344,200,25177,1,0,0:0:0:0:
424,360,25339,1,0,0:0:0:0:
456,144,25500,1,8,0:0:0:0:
120,256,25822,5,0,0:0:0:0:
128,296,25984,1,0,0:0:0:0:
136,328,26145,1,8,0:0:0:0:
344,120,26468,5,0,0:0:0:0:
256,48,26629,2,0,B|208:64|144:56,1,112.500000715256,0|8,0:0|0:0,0:0:0:0:
64,144,26951,1,0,0:0:0:0:
256,168,27113,2,0,B|208:208|144:208,1,112.500000715256
72,320,27435,1,8,0:0:0:0:
280,304,27597,2,0,B|256:368|160:384,1,112.500000715256
192,272,27919,5,8,0:0:0:0:
304,104,28080,1,0,0:0:0:0:
416,272,28242,1,8,0:0:0:0:
304,208,28403,1,0,0:0:0:0:
304,208,28564,1,8,0:0:0:0:
304,296,28726,5,0,0:0:0:0:
224,336,28887,1,0,0:0:0:0:
216,248,29048,2,0,B|152:248|112:296,1,112.500000715256,0|0,0:0|0:0,0:0:0:0:
32,208,29371,1,8,0:0:0:0:
128,128,29532,1,0,0:0:0:0:
256,56,29693,6,0,B|256:168,1,112.500000715256
256,312,30016,1,8,0:0:0:0:
360,200,30177,1,0,0:0:0:0:
160,200,30338,1,0,0:0:0:0:
256,56,30500,5,0,0:0:0:0:
256,312,30661,1,8,0:0:0:0:
424,144,30984,5,0,0:0:0:0:
400,96,31145,1,0,0:0:0:0:
376,48,31306,1,8,0:0:0:0:
104,272,31629,5,0,0:0:0:0:
168,136,31790,2,0,B|184:200|248:216,1,112.500000715256,0|8,0:0|0:0,0:0:0:0:
416,256,32113,5,0,0:0:0:0:
312,360,32274,2,0,B|192:360,1,112.500000715256
160,256,32596,1,8,0:0:0:0:
304,256,32758,2,0,B|416:256,1,112.500000715256
192,200,33080,5,8,0:0:0:0:
312,120,33242,1,0,0:0:0:0:
72,120,33403,1,8,0:0:0:0:
232,304,33564,1,0,0:0:0:0:
232,56,33725,1,0,0:0:0:0:
48,136,33887,6,0,B|168:136,1,112.500000715256
408,136,34209,2,0,B|440:136|440:136|440:264|336:288,1,225.000001430512,0|8,0:0|0:0,0:0:0:0:
192,288,34693,5,0,0:0:0:0:
256,112,34854,2,0,B|224:160|176:208,1,112.500000715256
48,320,35177,1,8,0:0:0:0:
112,184,35338,6,0,B|136:240|192:264,1,112.500000715256,0|0,0:0|0:0,0:0:0:0:
464,184,35661,2,0,B|440:240|384:264,1,112.500000715256,0|8,0:0|0:0,0:0:0:0:
232,304,35983,5,0,0:0:0:0:
232,104,36145,1,0,0:0:0:0:
160,232,36306,1,8,0:0:0:0:
368,232,36467,1,0,0:0:0:0:
224,64,36790,5,0,0:0:0:0:
72,144,36951,2,0,B|168:224,1,112.500000715256,0|8,0:0|0:0,0:0:0:0:
288,312,37274,1,0,0:0:0:0:
376,192,37435,2,0,B|264:192,1,112.500000715256
176,88,37758,1,8,0:0:0:0:
280,128,37919,1,0,0:0:0:0:
384,104,38080,1,0,0:0:0:0:
464,192,38241,5,8,0:0:0:0:
360,312,38403,1,0,0:0:0:0:
192,296,38564,1,8,0:0:0:0:
120,136,38725,1,0,0:0:0:0:
296,176,38887,1,8,0:0:0:0:
192,48,39048,6,0,B|192:111|168:176,1,112.500000715256,0|0,0:0|0:0,0:0:0:0:
120,264,39370,1,0,0:0:0:0:
32,320,39532,1,8,0:0:0:0:
0,208,39693,6,0,B|104:184|232:208,1,225.000001430512,8|0,0:0|0:0,0:0:0:0:
344,232,40177,1,0,0:0:0:0:
472,280,40338,2,0,B|376:360|256:336,1,225.000001430512,8|8,0:0|0:0,0:0:0:0:
160,280,40822,5,0,0:0:0:0:
96,152,40983,1,8,0:0:0:0:
232,56,41145,1,0,0:0:0:0:
368,152,41306,2,0,B|256:152,1,112.500000715256,8|0,0:0|0:0,0:0:0:0:
96,152,41628,6,0,B|48:232|120:328|216:304,1,225.000001430512,8|0,0:0|0:0,0:0:0:0:
336,312,42112,1,0,0:0:0:0:
448,224,42274,2,0,B|336:208,1,112.500000715256,8|0,0:0|0:0,0:0:0:0:
176,184,42596,1,0,0:0:0:0:
40,144,42757,2,0,B|168:112,1,112.500000715256,8|0,0:0|0:0,0:0:0:0:
312,64,43080,1,0,0:0:0:0:
312,64,43241,1,0,0:0:0:0:
352,152,43403,5,0,0:0:0:0:
168,80,43564,1,8,0:0:0:0:
200,256,43725,1,0,0:0:0:0:
304,320,43886,5,8,0:0:0:0:
304,288,43967,1,0,0:0:0:0:
304,256,44048,1,8,0:0:0:0:
304,224,44128,1,0,0:0:0:0:
304,192,44209,1,8,0:0:0:0:
304,104,44370,5,0,0:0:0:0:
384,48,44532,1,8,0:0:0:0:
424,144,44693,2,0,B|292:143|292:143|192:208,1,225.000001430512,0|8,0:0|0:0,0:0:0:0:
112,264,45177,5,0,0:0:0:0:
256,336,45338,1,0,0:0:0:0:
400,264,45499,1,8,0:0:0:0:
256,240,45661,6,0,B|256:128,1,112.500000715256
256,40,45983,1,0,0:0:0:0:
184,112,46144,1,8,0:0:0:0:
104,176,46306,1,0,0:0:0:0:
192,216,46467,5,8,0:0:0:0:
192,216,46628,2,0,B|312:216|312:216|376:128,1,225.000001430512,0|8,0:0|0:0,0:0:0:0:
448,40,47112,1,0,0:0:0:0:
496,144,47273,2,0,B|496:256,2,112.500000715256,8|0|8,0:0|0:0|0:0,0:0:0:0:
120,72,47918,5,8,0:0:0:0:
120,72,48080,2,0,B|112:176|224:224,1,179.999988784791
416,240,48564,2,0,B|416:128|312:80,1,179.999988784791,8|0,0:0|0:0,0:0:0:0:
256,352,49047,2,0,B|256:240,1,89.9999943923953,8|0,0:0|0:0,0:0:0:0:
256,96,49370,1,8,0:0:0:0:
168,344,49693,5,8,0:0:0:0:
272,192,49854,1,0,0:0:0:0:
432,312,50015,2,0,B|400:360|336:360,1,112.500000715256,0|8,0:0|0:0,0:0:0:0:
48,40,50499,6,0,B|47:186|184:232,1,225.000001430512,8|0,0:0|0:0,0:0:0:0:
336,272,50983,5,8,0:0:0:0:
448,136,51144,1,0,0:0:0:0:
256,168,51305,1,0,0:0:0:0:
160,312,51467,2,0,B|152:256|120:160,1,112.500000715256,8|0,0:0|0:0,0:0:0:0:
448,40,51789,2,0,B|352:256,1,225.000001430512,8|0,0:0|0:0,0:0:0:0:
88,312,52273,6,0,B|56:280|56:200,1,112.500000715256,8|0,0:0|0:0,0:0:0:0:
88,80,52596,1,8,0:0:0:0:
192,176,52757,1,0,0:0:0:0:
80,264,52918,1,0,0:0:0:0:
256,344,53080,1,8,0:0:0:0:
440,280,53241,6,8,B|440:224|424:168,1,112.500000715256
248,80,53563,1,8,0:0:0:0:
109,88,53725,1,8,0:0:0:0:
182,174,53886,5,8,0:0:0:0:
214,208,53967,1,0,0:0:0:0:
256,226,54047,1,0,0:0:0:0:
299,231,54128,1,0,0:0:0:0:
341,223,54209,1,0,0:0:0:0:
383,202,54289,1,0,0:0:0:0:
417,164,54370,1,0,0:0:0:0:
424,118,54451,1,0,0:0:0:0:
423,67,54531,1,8,0:0:0:0:
288,152,54692,5,8,0:0:0:0:
400,264,54854,1,0,0:0:0:0:
248,312,55015,2,0,B|195:285|128:312,1,112.500000715256,8|0,0:0|0:0,0:0:0:0:
32,128,55338,1,8,0:0:0:0:
488,240,55660,6,0,B|368:232|272:136,1,225.000001430512
160,256,56144,1,0,0:0:0:0:
192,40,56305,2,0,B|200:88|184:152,1,112.500000715256
64,240,56628,5,0,0:0:0:0:
64,240,56789,2,0,L|176:248,1,112.500000715256
464,272,57112,6,0,B|432:224|344:192,1,112.500000715256
72,80,57434,2,0,B|136:112|192:80,1,112.500000715256
224,344,57757,2,0,B|216:264|224:224,1,112.500000715256
416,48,58079,6,0,B|420:102|416:160,1,112.500000715256
312,304,58402,1,0,0:0:0:0:
272,96,58563,2,0,B|248:152|216:192,1,112.500000715256
72,352,58886,1,0,0:0:0:0:
480,192,59208,5,0,0:0:0:0:
480,192,59370,2,0,B|439:160|439:160|352:208|288:152|288:152|240:152,1,225.000001430512
104,152,59854,1,0,0:0:0:0:
24,288,60015,2,0,B|70:267|134:275,1,112.500000715256
272,296,60337,5,0,0:0:0:0:
272,136,60499,1,0,0:0:0:0:
408,224,60660,6,0,B|408:111,1,112.500000715256
312,208,60983,1,0,0:0:0:0:
184,256,61144,1,0,0:0:0:0:
104,152,61305,1,0,0:0:0:0:
200,48,61466,2,0,B|88:48,1,112.500000715256
32,192,61789,5,0,0:0:0:0:
256,192,61950,1,0,0:0:0:0:
384,288,62112,1,0,0:0:0:0:
160,288,62273,1,0,0:0:0:0:
248,288,62434,5,0,0:0:0:0:
352,200,62595,1,0,0:0:0:0:
248,112,62757,1,0,0:0:0:0:
248,216,62918,1,0,0:0:0:0:
376,216,63079,5,0,0:0:0:0:
376,40,63241,1,0,0:0:0:0:
400,152,63402,5,0,0:0:0:0:
368,120,63482,1,0,0:0:0:0:
327,102,63563,1,0,0:0:0:0:
280,95,63644,1,0,0:0:0:0:
233,100,63724,1,0,0:0:0:0:
196,127,63805,1,0,0:0:0:0:
176,172,63886,1,0,0:0:0:0:
176,217,63966,1,0,0:0:0:0:
190,255,64047,1,0,0:0:0:0:
225,278,64128,1,0,0:0:0:0:
267,288,64208,1,0,0:0:0:0:
314,284,64289,1,0,0:0:0:0:
352,264,64370,1,0,0:0:0:0:
370,225,64450,1,0,0:0:0:0:
345,198,64531,1,0,0:0:0:0:
311,170,64611,1,0,0:0:0:0:
273,135,64692,1,0,0:0:0:0:
258,94,64773,1,0,0:0:0:0:
259,52,64853,1,0,0:0:0:0:
144,112,65015,6,0,B|146:182|144:240,1,112.500000715256
144,344,65337,1,0,0:0:0:0:
24,112,65499,1,0,0:0:0:0:
24,344,65660,2,0,B|24:224,1,112.500000715256
192,128,65982,6,0,B|256:232|360:208|360:208|360:176,1,225.000001430512
360,56,66466,1,0,0:0:0:0:
448,192,66628,1,0,0:0:0:0:
336,328,66789,2,0,B|376:360|464:352,2,112.500000715256
256,240,67273,5,0,0:0:0:0:
256,136,67434,1,0,0:0:0:0:
392,88,67595,1,0,0:0:0:0:
456,232,67757,1,0,0:0:0:0:
56,232,67918,1,0,0:0:0:0:
120,88,68079,1,0,0:0:0:0:
256,272,68240,5,0,0:0:0:0:
256,88,68402,1,0,0:0:0:0:
128,192,68563,1,0,0:0:0:0:
384,192,68724,1,0,0:0:0:0:
256,344,68886,5,0,0:0:0:0:
256,192,69047,1,0,0:0:0:0:
256,40,69208,2,0,B|144:48|80:136,1,168.750001072884
77,132,69531,1,0,0:0:0:0:
51,169,69611,1,0,0:0:0:0:
40,213,69692,1,0,0:0:0:0:
51,258,69773,1,0,0:0:0:0:
79,287,69853,1,0,0:0:0:0:
121,293,69934,1,0,0:0:0:0:
163,283,70015,1,0,0:0:0:0:
256,240,70176,5,0,0:0:0:0:
176,184,70337,1,0,0:0:0:0:
336,184,70498,1,0,0:0:0:0:
256,48,70660,1,0,0:0:0:0:
432,48,70821,6,0,B|418:85|424:144,1,97.4999924373631
496,288,71143,2,0,B|408:272|280:304,1,194.999984874726
224,320,71627,1,0,0:0:0:0:
152,344,71789,1,0,0:0:0:0:
80,376,71950,6,0,B|64:320|72:272,1,97.4999924373631
112,128,72272,1,0,0:0:0:0:
248,264,72434,1,0,0:0:0:0:
304,56,72595,2,0,B|352:96|352:96|432:32|520:128|448:208,1,269.999983177186
408,272,73240,5,0,0:0:0:0:
320,216,73401,1,0,0:0:0:0:
360,112,73563,1,0,0:0:0:0:
360,112,73724,1,0,0:0:0:0:
456,192,73885,6,0,B|328:136|184:152,1,269.999983177186,0|0,0:0|0:0,0:0:0:0:
32,176,74530,5,0,0:0:0:0:
216,80,74692,1,0,0:0:0:0:
408,176,74853,1,0,0:0:0:0:
320,272,75014,1,0,0:0:0:0:
320,72,75176,1,0,0:0:0:0:
200,336,75498,5,0,0:0:0:0:
176,232,75659,1,0,0:0:0:0:
256,152,75821,1,0,0:0:0:0:
256,152,75982,1,0,0:0:0:0:
24,168,76305,6,0,B|148:226|260:154,1,247.499999685288
240,336,76950,1,0,0:0:0:0:
432,296,77111,2,0,B|360:224|344:152,1,164.999999790192
448,48,77595,1,0,0:0:0:0:
56,96,77756,2,0,B|168:72|168:72|272:112,2,224.999992847443
160,152,78885,5,0,0:0:0:0:
96,248,79046,2,0,B|56:312,1,74.9999976158143,8|0,0:0|0:0,0:0:0:0:
288,312,79369,1,0,0:0:0:0:
176,136,79530,1,0,0:0:0:0:
408,152,79692,2,0,B|448:224,1,74.9999976158143,8|0,0:0|0:0,0:0:0:0:
344,16,80014,5,0,0:0:0:0:
248,72,80175,1,0,0:0:0:0:
344,120,80337,1,12,0:0:0:0:
