osu file format v5

[General]
AudioFilename: Sayonara Zetsubou Sensei - Opening - Ootsuki Kenji - Hito Toshite Jiku ga Bureteiru 1.mp3
AudioLeadIn: 0
PreviewTime: -1
Countdown: 1
SampleSet: None
StackLeniency: 0.7
Mode: 0
LetterboxInBreaks: 1

[Metadata]
Title:Hito Toshite Jiku ga Bureteiru
Artist:Ootsuki Kenji
Creator:Kappa
Version:Hard
Source:
Tags:

[Difficulty]
HPDrainRate:3
CircleSize:5
OverallDifficulty:6
SliderMultiplier:1.4
SliderTickRate:1

[Events]
//Background and Video events
0,0,"2384887974_af3aa3453d.jpg"
//Break Periods
//Storyboard Layer 0 (Background)
//Storyboard Layer 1 (Failing)
//Storyboard Layer 2 (Passing)
//Storyboard Layer 3 (Foreground)
//Storyboard Sound Samples
//Background Colour Transformations
3,100,163,162,255

[TimingPoints]
0,1000,4,0,0,100,1

[HitObjects]
96,160,2375,2,0,B|224:160,1,116.666666666667
288,128,4375,1,0
416,224,5125,1,0
288,224,5625,1,0
128,224,6125,1,0
128,320,6625,1,0
288,320,7125,1,0
416,320,7625,1,0
416,224,8125,1,0
288,224,8875,1,0
128,224,9375,1,0
128,128,9875,1,0
288,128,10375,1,0
416,128,10875,1,0
416,192,11500,1,0
288,192,12000,1,0
160,192,12500,1,0
160,256,13000,1,0
288,256,13375,1,0
416,256,14000,1,0
160,128,15375,6,0,B|352:128,1,186.666666666667
352,128,17875,2,0,B|160:192,1,186.666666666667
192,192,20500,2,0,B|352:256,1,163.333333333333
139,111,24625,1,0
254,122,25000,1,0
351,124,25375,1,0
418,211,25625,1,0
372,286,26000,1,0
226,286,26125,1,0
141,276,26500,1,0
216,174,26875,1,0
323,215,27125,1,0
256,192,27500,12,0,29333
146,115,29875,1,0
307,119,30000,1,0
414,124,30375,1,0
387,252,30625,1,0
226,244,31000,1,0
239,146,31375,1,0
374,166,31625,1,0
148,221,32000,5,0
222,334,32375,1,0
256,192,32625,12,0,34625
109,167,35000,1,0
274,167,35375,1,0
425,323,35625,1,0
341,241,35875,1,0
186,290,36125,5,0
67,267,36500,1,0
117,175,36875,1,0
252,114,37125,1,0
311,222,37500,1,0
256,192,37875,12,0,39708
88,112,40125,1,0
316,117,40500,1,0
449,133,40625,1,0
423,272,41000,1,0
239,268,41375,1,0
114,251,41625,1,0
206,157,42000,1,0
363,208,42375,1,0
97,189,42875,2,0,B|226:264,1,140
241,162,44125,1,0
126,167,44500,1,0
321,246,45375,1,0
200,249,45500,1,0
143,254,46125,1,0
171,182,46500,1,0
211,160,46875,1,0
263,149,47375,1,0
314,151,47875,1,0
336,211,48875,1,0
293,229,49375,1,0
259,215,49625,1,0
282,172,50125,1,0
66,57,51375,1,0
204,62,52000,1,0
329,60,52625,1,0
442,61,53375,1,0
450,171,54000,1,0
261,196,55000,1,0
154,194,55375,1,0
119,153,55500,2,0,B|312:187,2,186.666666666667
256,336,58500,1,0
256,265,58875,1,0
255,218,59125,1,0
258,177,59625,1,0
258,133,60375,1,0
129,113,60625,2,0,B|336:309,1,280
90,204,63625,1,0
141,206,64000,1,0
183,204,64375,1,0
217,205,64875,1,0
274,206,65625,1,0
339,207,66000,1,0
400,211,66125,1,0
454,216,66500,1,0
465,267,66875,1,0
412,280,67125,1,0
346,278,67500,1,0
280,280,67875,1,0
205,279,68125,1,0
129,279,68500,1,0
254,198,70625,1,0
201,252,71000,1,0
350,264,71375,1,0
304,161,71625,1,0
179,144,72000,1,0
170,252,72375,1,0
327,259,72625,1,0
329,152,73000,1,0
97,149,73375,2,0,B|252:247,1,163.333333333333
227,221,75125,1,0
284,158,75500,1,0
214,154,76125,1,0
283,221,76500,1,0
223,225,77125,1,0
287,169,77500,1,0
227,156,78000,1,0
277,223,78375,1,0
191,235,78875,1,0
89,257,79125,1,0
143,124,79625,1,0
353,97,80125,1,0
417,191,80625,1,0
259,256,81000,1,0
420,312,81375,1,0
192,305,81625,1,0
96,199,82125,1,0
324,192,82625,1,0
297,299,83000,1,0
214,194,83500,1,0
349,77,84000,1,0
156,59,84375,1,0
104,153,84875,1,0
341,224,85125,1,0
454,227,85500,1,0
243,298,86125,1,0
98,111,86875,1,0
232,111,87375,1,0
419,115,88375,1,0
419,201,88500,1,0
416,290,88875,1,0
304,306,89125,1,0
187,299,89500,1,0
87,298,89875,1,0
99,213,90125,1,0
251,202,90500,1,0
359,191,90625,1,0
463,169,91000,1,0
165,117,92000,1,0
165,117,92125,1,0
165,117,92500,1,0
259,120,93375,1,0
346,157,94000,1,0
346,157,94125,1,0
346,157,94500,1,0
346,157,94875,1,0
308,226,95125,1,0
249,245,95500,1,0
249,245,95875,1,0
249,245,96125,1,0
143,249,96500,1,0
202,196,97000,1,0
202,196,97125,1,0
202,196,97375,1,0
309,184,97625,1,0
406,184,98500,1,0
430,250,98875,1,0
331,290,99125,1,0
254,281,99500,1,0
171,244,99875,1,0
106,303,100125,1,0
212,343,100375,1,0
233,328,100625,1,0
233,328,101000,1,0
233,328,101125,1,0
225,187,102000,1,0
225,187,102125,1,0
225,187,102375,1,0
225,187,102625,1,0
225,187,102875,1,0
225,187,103375,1,0
225,187,103625,1,0
341,190,104375,1,0
341,190,105000,1,0
341,190,105625,1,0
221,190,106125,1,0
142,190,106875,1,0
101,192,107125,1,0
101,192,107375,1,0
101,192,107500,1,0
227,220,108000,1,0
321,205,108875,1,0
241,182,109125,1,0
187,221,109500,1,0
234,263,110125,1,0
301,268,110375,1,0
324,215,110625,1,0
286,193,111375,1,0
216,197,111625,1,0
74,103,112125,2,0,B|301:174,1,233.333333333333
75,95,117500,2,0,B|398:108,1,303.333333333333
92,171,120125,5,0
189,219,120625,1,0
299,198,121625,1,0
367,122,122500,1,0
218,102,123375,1,0
191,226,124375,1,0
358,309,125125,1,0
228,137,126375,1,0
224,291,127500,1,0
103,139,127875,1,0
224,131,128125,1,0
341,141,128500,1,0
408,202,128875,1,0
358,273,129125,1,0
204,282,129500,1,0
144,181,129875,1,0
291,177,130125,1,0
366,115,130500,1,0
178,90,130875,1,0
74,118,131125,1,0
118,262,131375,1,0
261,287,131625,1,0
403,262,132000,1,0
296,164,132375,1,0
334,72,132625,1,0
167,113,133000,1,0
144,226,133375,1,0
122,300,133625,1,0
254,318,134000,1,0
303,223,134375,1,0
169,167,134625,1,0
315,147,135000,1,0
170,107,135375,1,0
308,69,135625,1,0
157,37,136000,1,0
209,178,136375,1,0
222,260,136625,1,0
222,321,136875,1,0
329,314,137375,1,0
373,256,137875,1,0
311,188,138125,1,0
189,190,138500,1,0
167,256,138875,1,0
232,305,139125,1,0
308,306,139500,1,0
338,231,139875,1,0
295,161,140125,1,0
215,149,140500,1,0
171,218,140875,1,0
199,293,141125,1,0
292,303,141375,1,0
350,244,141625,1,0
323,164,142000,1,0
229,140,142375,1,0
167,215,142625,1,0
186,286,143000,1,0
270,272,143375,1,0
252,203,143625,1,0
128,156,144000,1,0
269,118,144375,1,0
383,124,144625,5,0
409,250,145000,1,0
391,301,145375,1,0
252,308,145625,1,0
181,247,146000,1,0
167,173,146375,1,0
101,149,146500,1,0
99,223,146875,1,0
325,157,147500,5,0
400,76,147625,1,0
471,155,148125,1,0
377,248,148625,5,0
314,247,148875,1,0
216,244,149125,1,0
131,239,149625,1,0
122,161,150000,1,0
211,97,150125,1,0
338,94,150500,1,0
428,171,151000,1,0
401,241,151375,1,0
328,254,151500,1,0
227,249,152000,1,0
174,247,152500,1,0
119,231,153000,1,0
125,167,153375,1,0
311,143,153625,5,0
379,181,154000,1,0
404,227,154375,1,0
339,277,154500,1,0
257,257,155000,1,0
185,213,155125,1,0
97,176,155625,1,0
124,275,156375,5,0
190,295,156500,1,0
271,308,156875,1,0
339,286,157125,1,0
325,226,157625,1,0
206,201,158125,1,0
334,122,158875,5,0
387,154,159125,1,0
391,214,159625,1,0
357,252,160125,1,0
282,234,160500,1,0
224,154,161000,1,0
166,112,161375,1,0
94,129,161625,1,0
107,191,162000,1,0
248,230,162500,5,0
344,242,162875,1,0
408,182,163375,1,0
351,115,163625,1,0
277,121,164000,1,0
275,177,164375,1,0
279,217,164500,1,0
305,264,164875,1,0
401,273,165125,1,0
401,194,165500,1,0
318,160,165875,1,0
213,140,166125,1,0
111,142,166625,5,0
127,218,166875,1,0
218,260,167375,1,0
318,244,167875,1,0
350,169,168125,1,0
289,132,168375,1,0
184,112,168625,1,0
97,127,169375,5,0
94,186,169500,1,0
127,226,169625,1,0
236,235,170000,1,0
277,235,170625,1,0
311,236,171000,1,0
340,236,171500,1,0
366,237,171625,1,0
394,239,172000,1,0
394,239,172375,1,0
394,239,172625,1,0
394,239,173000,1,0
394,239,173125,1,0
394,239,173500,1,0
90,138,174375,1,0
162,142,174625,1,0
218,144,175000,1,0
293,146,175375,1,0
315,191,175875,1,0
174,213,176500,1,0
105,222,176875,1,0
102,269,177000,1,0
163,310,177375,1,0
249,305,177875,1,0
305,252,178125,1,0
299,202,178375,1,0
229,157,178625,1,0
129,134,179000,1,0
164,81,179625,1,0
232,69,179875,1,0
327,70,180375,1,0
417,85,181000,1,0
416,149,181375,1,0
414,221,181625,1,0
416,274,182000,1,0
304,301,182375,1,0
192,289,182625,1,0
142,242,183000,1,0
172,170,183375,1,0
231,145,183500,1,0
356,126,183875,1,0
433,187,184125,1,0
308,239,184625,5,0
251,229,184875,1,0
113,197,185375,1,0
94,153,185500,1,0
109,94,185625,1,0
236,66,186375,1,0
317,81,186500,1,0
379,154,186875,1,0
362,236,187125,1,0
274,257,187500,1,0
196,202,187875,1,0
180,132,188125,1,0
114,91,188625,1,0
45,122,189000,1,0
37,206,189500,1,0
127,232,189875,1,0
192,231,190000,1,0
250,230,190125,1,0
322,229,190375,1,0
417,156,191375,1,0
304,87,191625,1,0
144,84,192000,1,0
116,164,192375,1,0
146,216,192625,1,0
246,206,193000,1,0
336,171,193375,1,0
410,192,193625,1,0
417,286,194000,1,0
315,331,194375,1,0
131,198,194625,1,0
