osu file format v5

[General]
AudioFilename: Augen auf! - Oomph!.ogg
AudioLeadIn: 0
PreviewTime: 65650
Countdown: 0
SampleSet: Normal
StackLeniency: 0.2
Mode: 0
LetterboxInBreaks: 1

[Metadata]
Title:Augen auf!
Artist:Oomph!
Creator:DanieluYoshikoto
Version:Easy
Source:
Tags:

[Difficulty]
HPDrainRate:2
CircleSize:4
OverallDifficulty:2
SliderMultiplier:2
SliderTickRate:1

[Events]
//Background and Video events
0,0,"OOMPH-Performing.jpg"
//Break Periods
2,18419,46904
2,81660,94671
2,144439,150065
2,161980,175915
//Storyboard Layer 0 (Background)
//Storyboard Layer 1 (Failing)
//Storyboard Layer 2 (Passing)
//Storyboard Layer 3 (Foreground)
//Storyboard Sound Samples
//Background Colour Transformations
3,100,21,21,21

[TimingPoints]
3910,461.609478381289,4,1,0,100,1,0
55610,-200,4,1,0,100,0,0
62996,-100,4,1,0,100,0,0
66690,-50,4,1,0,100,0,0
80075,-100,4,1,0,100,0,0
103617,-200,4,1,0,100,0,0
111003,-100,4,1,0,100,0,0
144239,-200,4,1,0,100,0,0
151625,-100,4,1,0,100,0,0
161318,-50,4,1,0,100,0,0
190861,-100,4,1,0,100,0,0

[Colours]
Combo1 : 0,0,0
Combo2 : 0,128,0

[HitObjects]
32,32,3910,1,0
32,64,4833,1,0
32,96,5756,1,0
32,128,6679,1,0
32,192,7602,1,0
32,224,8526,1,0
32,256,9449,1,0
32,288,10372,1,0
32,352,11295,5,0
96,352,11757,1,0
160,352,12218,1,0
224,352,12680,1,0
256,352,12911,1,0
352,352,13603,1,0
416,352,14065,1,0
480,352,14527,1,0
480,288,14988,5,0
416,288,15449,1,0
352,288,15911,1,0
288,288,16372,1,0
256,288,16603,1,0
160,288,17296,1,0
96,288,17757,1,0
32,288,18219,1,0
32,32,48224,5,0
96,32,48686,1,0
160,32,49147,1,0
224,32,49609,1,0
256,32,49840,1,0
352,32,50532,1,0
416,32,50994,1,0
480,32,51455,1,0
480,96,51917,5,0
416,96,52378,1,0
352,96,52840,1,0
288,96,53302,1,0
256,96,53533,1,0
160,96,54225,1,0
96,96,54687,1,0
32,96,55148,1,0
256,32,55610,5,0
256,192,57456,1,0
256,352,59303,1,0
256,192,61149,1,0
32,32,62996,1,0
96,32,63457,1,0
160,32,63919,1,0
224,32,64380,1,0
288,32,64842,1,0
352,32,65304,1,0
256,192,65765,12,4,66688
256,192,69458,12,4,70381
256,192,73151,12,4,74074
256,192,76844,12,4,77767
256,32,80537,5,0
256,96,80998,1,0
256,160,81460,1,0
32,32,96231,5,0
96,32,96693,1,0
160,32,97155,1,0
224,32,97616,1,0
256,32,97847,1,0
352,32,98539,1,0
416,32,99001,1,0
480,32,99463,1,0
480,96,99924,5,0
416,96,100386,1,0
352,96,100847,1,0
288,96,101309,1,0
256,96,101540,1,0
160,96,102232,1,0
96,96,102694,1,0
32,96,103156,1,0
32,192,103617,5,0
96,192,105464,1,0
160,192,107310,1,0
224,192,109156,1,0
288,192,111003,1,0
320,192,111465,1,0
352,192,111926,1,0
384,192,112388,1,0
416,192,112849,1,0
448,192,113311,1,0
256,192,113773,12,0,114696
256,192,117465,12,0,118389
256,192,121158,12,0,122082
256,192,124851,12,0,125774
256,32,128544,5,0
256,96,129006,1,0
256,160,129467,1,0
256,192,130852,1,0
256,192,131545,1,0
256,192,134545,1,0
256,192,135237,1,0
256,192,138238,1,0
256,192,138930,1,0
256,192,141931,2,0,C|256:256,10,50
256,288,143316,1,0
256,224,143777,1,0
256,160,144239,1,0
32,32,151625,5,0
96,32,152086,1,0
160,32,152548,1,0
224,32,153009,1,0
256,32,153240,1,0
352,32,153933,1,0
416,32,154394,1,0
480,32,154856,1,0
480,96,155317,5,0
416,96,155779,1,0
352,96,156241,1,0
288,96,156702,1,0
256,96,156933,1,0
160,96,157625,1,0
96,96,158087,1,0
32,96,158549,1,0
256,192,159934,1,4
256,192,161318,12,4,161780
256,192,177475,12,4,178167
256,192,180937,12,4,181860
256,192,184630,12,4,185553
256,192,188322,12,4,190861
