osu file format v14

[General]
AudioFilename: meow.mp3
AudioLeadIn: 0
PreviewTime: 32421
Countdown: 0
SampleSet: Soft
StackLeniency: 0.7
Mode: 3
LetterboxInBreaks: 0
SpecialStyle: 0
WidescreenStoryboard: 0

[Editor]
DistanceSpacing: 0.8
BeatDivisor: 12
GridSize: 32
TimelineZoom: 1.5

[Metadata]
Title:Kakushin Observation
TitleUnicode:核心オブザベーション
Artist:Ookawa Shigenobu
ArtistUnicode:大川茂伸
Creator:shionelove
Version:NM
Source:運命線上のφ
Tags:unmei senjyou fai phi eroge Lump of Suger yoshilove
BeatmapID:788899
BeatmapSetID:358766

[Difficulty]
HPDrainRate:7.5
CircleSize:7
OverallDifficulty:7.5
ApproachRate:5
SliderMultiplier:1.4
SliderTickRate:1

[Events]
//Background and Video events
0,0,"nagisa_1.png",0,0
//Break Periods
//Storyboard Layer 0 (Background)
//Storyboard Layer 1 (Fail)
//Storyboard Layer 2 (Pass)
//Storyboard Layer 3 (Foreground)
//Storyboard Sound Samples

[TimingPoints]
1783,638.297872340426,4,2,69,30,1,0

[HitObjects]
36,192,1783,5,0,0:0:0:0:
475,192,1783,1,0,0:0:0:0:
109,192,4336,1,0,0:0:0:0:
402,192,4336,1,0,0:0:0:0:
329,192,6889,1,0,0:0:0:0:
182,192,6889,1,0,0:0:0:0:
475,192,8485,1,8,0:0:0:0:
182,192,8644,1,0,0:0:0:0:
402,192,8804,1,8,0:0:0:0:
109,192,8923,1,0,0:0:0:0:
329,192,9123,1,8,0:0:0:0:
36,192,9283,1,8,0:0:0:0:
402,192,9442,1,8,0:0:0:0:
109,192,9442,1,8,0:0:0:0:
402,192,9602,1,8,0:0:0:0:
109,192,9602,1,8,0:0:0:0:
329,192,9761,1,0,0:0:0:0:
182,192,10080,1,0,0:0:0:0:
256,192,10400,1,0,0:0:0:0:
256,192,10559,1,0,0:0:0:0:
475,192,10798,1,8,0:0:0:0:
329,192,10878,1,8,0:0:0:0:
182,192,10958,1,8,0:0:0:0:
36,192,11038,1,0,0:0:0:0:
256,192,11357,1,8,0:0:0:0:
402,192,11517,1,8,0:0:0:0:
109,192,11676,1,0,0:0:0:0:
256,192,11995,1,4,0:0:0:0:
36,192,11995,1,0,0:0:0:0:
182,192,12155,1,0,0:0:0:0:
329,192,12474,1,0,0:0:0:0:
36,192,12634,1,8,0:0:0:0:
182,192,12634,1,8,0:0:0:0:
402,192,12793,1,0,0:0:0:0:
256,192,12953,128,0,13910:0:0:0:0:
109,192,13112,1,8,0:0:0:0:
402,192,13431,1,8,0:0:0:0:
36,192,13910,1,8,0:0:0:0:
182,192,13910,1,8,0:0:0:0:
329,192,14229,1,0,0:0:0:0:
36,192,14309,1,0,0:0:0:0:
402,192,14389,1,0,0:0:0:0:
109,192,14469,1,0,0:0:0:0:
475,192,14548,1,0,0:0:0:0:
182,192,14708,1,0,0:0:0:0:
256,192,14868,128,0,16463:0:0:0:0:
329,192,15187,1,8,0:0:0:0:
475,192,15187,1,8,0:0:0:0:
402,192,15665,1,8,0:0:0:0:
109,192,15985,1,8,0:0:0:0:
475,192,16463,1,8,0:0:0:0:
329,192,16463,1,8,0:0:0:0:
402,192,16942,1,8,0:0:0:0:
36,192,17102,1,0,0:0:0:0:
182,192,17261,1,0,0:0:0:0:
329,192,17580,1,0,0:0:0:0:
182,192,17740,1,8,0:0:0:0:
36,192,17740,1,8,0:0:0:0:
402,192,17900,1,0,0:0:0:0:
256,192,18059,128,0,19017:0:0:0:0:
109,192,18219,1,8,0:0:0:0:
402,192,18538,1,8,0:0:0:0:
36,192,19017,1,8,0:0:0:0:
182,192,19017,1,8,0:0:0:0:
329,192,19336,1,0,0:0:0:0:
36,192,19415,1,0,0:0:0:0:
402,192,19495,1,0,0:0:0:0:
109,192,19575,1,0,0:0:0:0:
475,192,19655,1,0,0:0:0:0:
329,192,19814,1,0,0:0:0:0:
182,192,19974,128,0,21251:0:0:0:0:
475,192,20293,1,8,0:0:0:0:
329,192,20293,1,8,0:0:0:0:
402,192,20772,1,8,0:0:0:0:
256,192,21251,1,8,0:0:0:0:
475,192,21729,1,8,0:0:0:0:
329,192,21889,1,8,0:0:0:0:
475,192,22048,1,8,0:0:0:0:
36,192,22208,1,4,0:0:0:0:
256,192,22208,128,0,22846:0:0:0:0:
329,192,22846,1,8,0:0:0:0:
475,192,22846,1,8,0:0:0:0:
36,192,23165,1,0,0:0:0:0:
109,192,23272,1,0,0:0:0:0:
402,192,23325,1,8,0:0:0:0:
182,192,23378,1,0,0:0:0:0:
256,192,23485,1,0,0:0:0:0:
402,192,23644,1,8,0:0:0:0:
182,192,23963,1,0,0:0:0:0:
329,192,24123,1,8,0:0:0:0:
475,192,24123,1,8,0:0:0:0:
109,192,24442,1,0,0:0:0:0:
182,192,24761,1,0,0:0:0:0:
475,192,24761,1,4,0:0:0:0:
402,192,25187,1,4,0:0:0:0:
109,192,25187,1,0,0:0:0:0:
36,192,25612,1,0,0:0:0:0:
329,192,25612,1,4,0:0:0:0:
402,192,26038,1,4,0:0:0:0:
182,192,26038,1,0,0:0:0:0:
109,192,26463,1,0,0:0:0:0:
329,192,26463,1,0,0:0:0:0:
475,192,26676,1,8,0:0:0:0:
256,192,26889,1,0,0:0:0:0:
36,192,26889,1,0,0:0:0:0:
109,192,27314,1,0,0:0:0:0:
402,192,27314,1,4,0:0:0:0:
36,192,27953,1,8,0:0:0:0:
182,192,27953,1,8,0:0:0:0:
475,192,28325,1,0,0:0:0:0:
329,192,28378,1,0,0:0:0:0:
182,192,28485,1,0,0:0:0:0:
36,192,28591,1,0,0:0:0:0:
109,192,29070,1,0,0:0:0:0:
182,192,29229,1,8,0:0:0:0:
329,192,29229,1,8,0:0:0:0:
402,192,29389,1,0,0:0:0:0:
256,192,29868,1,0,0:0:0:0:
256,192,30346,1,0,0:0:0:0:
475,192,30506,1,8,0:0:0:0:
36,192,30506,1,8,0:0:0:0:
256,192,30825,1,0,0:0:0:0:
475,192,31783,1,8,0:0:0:0:
36,192,31783,1,8,0:0:0:0:
256,192,32421,1,4,0:0:0:0:
329,192,32421,1,0,0:0:0:0:
36,192,32421,1,0,0:0:0:0:
109,192,32580,1,0,0:0:0:0:
402,192,32580,1,0,0:0:0:0:
475,192,32900,1,0,0:0:0:0:
182,192,32900,1,0,0:0:0:0:
475,192,33219,1,0,0:0:0:0:
36,192,33219,1,0,0:0:0:0:
109,192,33378,128,0,34336:0:0:0:0:
402,192,33378,128,0,34336:0:0:0:0:
475,192,34655,1,0,0:0:0:0:
182,192,34735,1,0,0:0:0:0:
402,192,34814,1,0,0:0:0:0:
109,192,34894,1,0,0:0:0:0:
329,192,34974,1,0,0:0:0:0:
36,192,35134,1,0,0:0:0:0:
182,192,35293,128,0,36889:0:0:0:0:
475,192,35772,128,0,36091:0:0:0:0:
402,192,36091,128,0,36889:0:0:0:0:
329,192,36889,128,0,37368:0:0:0:0:
36,192,37527,1,0,0:0:0:0:
182,192,37527,1,0,0:0:0:0:
109,192,37687,1,0,0:0:0:0:
256,192,37687,1,0,0:0:0:0:
182,192,38006,1,0,0:0:0:0:
329,192,38006,1,0,0:0:0:0:
329,192,38325,1,0,0:0:0:0:
475,192,38325,1,0,0:0:0:0:
256,192,38485,128,0,39442:0:0:0:0:
402,192,38485,128,0,39442:0:0:0:0:
475,192,39761,1,0,0:0:0:0:
182,192,39841,1,0,0:0:0:0:
402,192,39921,1,0,0:0:0:0:
109,192,40001,1,0,0:0:0:0:
329,192,40080,1,0,0:0:0:0:
36,192,40240,1,0,0:0:0:0:
256,192,40400,128,0,41995:0:0:0:0:
109,192,42155,1,8,0:0:0:0:
256,192,42314,1,0,0:0:0:0:
36,192,42314,1,8,0:0:0:0:
329,192,42394,1,0,0:0:0:0:
109,192,42474,1,8,0:0:0:0:
402,192,42474,1,0,0:0:0:0:
475,192,42634,128,0,43910:0:0:0:0:
36,192,42634,1,8,0:0:0:0:
256,192,42634,1,4,0:0:0:0:
109,192,43272,1,8,0:0:0:0:
256,192,43272,1,8,0:0:0:0:
182,192,43751,1,8,0:0:0:0:
36,192,43910,128,0,44229:0:0:0:0:
329,192,44070,1,8,0:0:0:0:
182,192,44389,128,0,44868:0:0:0:0:
402,192,44548,1,8,0:0:0:0:
256,192,44548,1,8,0:0:0:0:
109,192,44868,128,0,45187:0:0:0:0:
182,192,45187,1,0,0:0:0:0:
475,192,45187,1,4,0:0:0:0:
402,192,45612,1,4,0:0:0:0:
109,192,45612,1,0,0:0:0:0:
36,192,46038,1,0,0:0:0:0:
329,192,46038,1,4,0:0:0:0:
402,192,46463,1,4,0:0:0:0:
182,192,46463,1,0,0:0:0:0:
109,192,46889,1,0,0:0:0:0:
329,192,46889,1,0,0:0:0:0:
475,192,47102,1,8,0:0:0:0:
36,192,47314,1,0,0:0:0:0:
256,192,47314,1,0,0:0:0:0:
182,192,47740,128,0,49336:0:0:0:0:
329,192,47740,128,0,49336:0:0:0:0:
36,192,48378,1,8,0:0:0:0:
36,192,49655,1,8,0:0:0:0:
182,192,49655,1,0,0:0:0:0:
256,192,49814,1,0,0:0:0:0:
329,192,49974,1,0,0:0:0:0:
402,192,50134,1,0,0:0:0:0:
475,192,50293,1,0,0:0:0:0:
329,192,50453,1,0,0:0:0:0:
475,192,50533,128,0,52527:0:0:0:0:
36,192,50931,1,8,0:0:0:0:
182,192,51570,1,0,0:0:0:0:
109,192,51650,1,0,0:0:0:0:
182,192,51729,1,0,0:0:0:0:
36,192,52208,1,8,0:0:0:0:
36,192,52846,1,0,0:0:0:0:
182,192,52846,1,0,0:0:0:0:
109,192,53006,1,0,0:0:0:0:
256,192,53006,1,0,0:0:0:0:
182,192,53325,1,0,0:0:0:0:
329,192,53325,1,0,0:0:0:0:
475,192,53644,1,0,0:0:0:0:
329,192,53644,1,0,0:0:0:0:
256,192,53804,128,0,55400:0:0:0:0:
402,192,53804,128,0,55400:0:0:0:0:
109,192,54123,1,8,0:0:0:0:
109,192,54442,1,8,0:0:0:0:
109,192,54761,1,8,0:0:0:0:
182,192,55400,1,0,0:0:0:0:
109,192,55719,1,0,0:0:0:0:
36,192,56038,1,0,0:0:0:0:
329,192,56038,1,8,0:0:0:0:
475,192,56038,1,8,0:0:0:0:
109,192,56357,1,0,0:0:0:0:
402,192,56517,1,8,0:0:0:0:
36,192,56676,1,0,0:0:0:0:
402,192,56836,1,8,0:0:0:0:
109,192,56995,1,0,0:0:0:0:
36,192,57314,1,0,0:0:0:0:
329,192,57314,1,8,0:0:0:0:
475,192,57314,1,8,0:0:0:0:
109,192,57634,1,0,0:0:0:0:
182,192,57953,1,0,0:0:0:0:
109,192,58272,1,0,0:0:0:0:
36,192,58591,1,0,0:0:0:0:
329,192,58591,1,8,0:0:0:0:
475,192,58591,1,8,0:0:0:0:
109,192,58910,1,0,0:0:0:0:
402,192,59070,1,8,0:0:0:0:
182,192,59229,1,0,0:0:0:0:
402,192,59389,1,8,0:0:0:0:
109,192,59548,1,0,0:0:0:0:
329,192,59868,1,8,0:0:0:0:
475,192,59868,1,8,0:0:0:0:
256,192,59974,1,0,0:0:0:0:
182,192,60080,1,0,0:0:0:0:
109,192,60187,128,0,60506:0:0:0:0:
36,192,60506,1,0,0:0:0:0:
109,192,60719,1,0,0:0:0:0:
182,192,60931,1,0,0:0:0:0:
256,192,61144,1,0,0:0:0:0:
329,192,61357,1,0,0:0:0:0:
402,192,61570,1,0,0:0:0:0:
475,192,61783,1,0,0:0:0:0:
402,192,61995,1,0,0:0:0:0:
329,192,62208,1,0,0:0:0:0:
256,192,62421,1,0,0:0:0:0:
182,192,62634,1,0,0:0:0:0:
109,192,62846,1,0,0:0:0:0:
475,192,63059,1,0,0:0:0:0:
329,192,63219,1,0,0:0:0:0:
182,192,63378,1,0,0:0:0:0:
36,192,63538,1,0,0:0:0:0:
109,192,63697,1,0,0:0:0:0:
256,192,63857,1,0,0:0:0:0:
402,192,64017,1,0,0:0:0:0:
256,192,64176,1,0,0:0:0:0:
36,192,64336,1,0,0:0:0:0:
182,192,64495,1,0,0:0:0:0:
475,192,64575,1,0,0:0:0:0:
329,192,64655,128,0,65134:0:0:0:0:
109,192,65134,1,0,0:0:0:0:
182,192,65240,1,0,0:0:0:0:
256,192,65346,1,0,0:0:0:0:
329,192,65453,1,0,0:0:0:0:
402,192,65559,1,0,0:0:0:0:
36,192,65612,1,0,0:0:0:0:
109,192,65612,1,0,0:0:0:0:
475,192,65772,1,0,0:0:0:0:
402,192,65772,1,0,0:0:0:0:
36,192,66091,1,0,0:0:0:0:
109,192,66091,1,0,0:0:0:0:
402,192,66251,1,0,0:0:0:0:
475,192,66251,1,0,0:0:0:0:
36,192,66570,1,0,0:0:0:0:
109,192,66570,1,0,0:0:0:0:
402,192,66729,1,0,0:0:0:0:
475,192,66729,1,0,0:0:0:0:
256,192,67048,1,8,0:0:0:0:
182,192,67527,1,8,0:0:0:0:
329,192,67527,1,8,0:0:0:0:
36,192,68165,1,0,0:0:0:0:
182,192,68165,1,0,0:0:0:0:
329,192,68325,1,0,0:0:0:0:
475,192,68325,1,0,0:0:0:0:
36,192,68644,1,0,0:0:0:0:
182,192,68644,1,0,0:0:0:0:
329,192,68804,1,0,0:0:0:0:
475,192,68804,1,0,0:0:0:0:
36,192,69123,1,0,0:0:0:0:
182,192,69123,1,0,0:0:0:0:
329,192,69283,1,0,0:0:0:0:
475,192,69283,1,0,0:0:0:0:
256,192,69602,1,8,0:0:0:0:
36,192,70080,1,8,0:0:0:0:
475,192,70080,1,8,0:0:0:0:
182,192,70719,1,0,0:0:0:0:
109,192,70719,1,0,0:0:0:0:
402,192,70878,1,0,0:0:0:0:
329,192,70878,1,0,0:0:0:0:
109,192,71197,1,0,0:0:0:0:
182,192,71197,1,0,0:0:0:0:
329,192,71357,1,0,0:0:0:0:
402,192,71357,1,0,0:0:0:0:
182,192,71676,1,0,0:0:0:0:
109,192,71676,1,0,0:0:0:0:
402,192,71836,1,0,0:0:0:0:
329,192,71836,1,0,0:0:0:0:
256,192,72155,1,8,0:0:0:0:
36,192,72634,1,8,0:0:0:0:
475,192,72634,1,8,0:0:0:0:
36,192,73272,1,0,0:0:0:0:
182,192,73272,1,0,0:0:0:0:
329,192,73431,1,0,0:0:0:0:
475,192,73431,1,0,0:0:0:0:
36,192,73751,1,0,0:0:0:0:
182,192,73751,1,0,0:0:0:0:
329,192,73910,1,0,0:0:0:0:
475,192,73910,1,0,0:0:0:0:
182,192,74229,1,0,0:0:0:0:
36,192,74229,1,0,0:0:0:0:
475,192,74389,1,0,0:0:0:0:
329,192,74389,1,0,0:0:0:0:
402,192,75187,1,8,0:0:0:0:
256,192,75346,1,8,0:0:0:0:
109,192,75506,1,0,0:0:0:0:
36,192,75825,1,0,0:0:0:0:
475,192,75825,1,4,0:0:0:0:
109,192,78378,1,0,0:0:0:0:
402,192,78378,1,0,0:0:0:0:
402,192,80931,1,0,0:0:0:0:
36,192,80931,1,0,0:0:0:0:
109,192,83485,1,0,0:0:0:0:
402,192,83485,1,0,0:0:0:0:
36,192,84921,1,8,0:0:0:0:
182,192,84974,1,8,0:0:0:0:
329,192,85027,1,8,0:0:0:0:
475,192,85080,1,8,0:0:0:0:
36,192,85240,1,0,0:0:0:0:
402,192,85400,1,8,0:0:0:0:
256,192,85400,1,8,0:0:0:0:
256,192,85719,1,8,0:0:0:0:
402,192,85719,1,8,0:0:0:0:
109,192,85878,1,8,0:0:0:0:
402,192,86038,1,0,0:0:0:0:
475,192,86038,1,0,0:0:0:0:
109,192,86197,1,0,0:0:0:0:
36,192,86197,1,0,0:0:0:0:
475,192,86517,1,0,0:0:0:0:
402,192,86517,1,0,0:0:0:0:
109,192,86676,1,0,0:0:0:0:
36,192,86676,1,0,0:0:0:0:
402,192,86995,1,0,0:0:0:0:
475,192,86995,1,0,0:0:0:0:
36,192,87155,1,0,0:0:0:0:
109,192,87155,1,0,0:0:0:0:
256,192,87474,1,8,0:0:0:0:
36,192,87953,1,8,0:0:0:0:
475,192,87953,1,8,0:0:0:0:
475,192,88591,1,0,0:0:0:0:
329,192,88591,1,0,0:0:0:0:
36,192,88751,1,0,0:0:0:0:
182,192,88751,1,0,0:0:0:0:
475,192,89070,1,0,0:0:0:0:
329,192,89070,1,0,0:0:0:0:
182,192,89229,1,0,0:0:0:0:
36,192,89229,1,0,0:0:0:0:
329,192,89548,1,0,0:0:0:0:
475,192,89548,1,0,0:0:0:0:
36,192,89708,1,0,0:0:0:0:
182,192,89708,1,0,0:0:0:0:
256,192,90027,1,8,0:0:0:0:
182,192,90506,1,8,0:0:0:0:
329,192,90506,1,8,0:0:0:0:
329,192,91144,1,0,0:0:0:0:
402,192,91144,1,0,0:0:0:0:
109,192,91304,1,0,0:0:0:0:
182,192,91304,1,0,0:0:0:0:
402,192,91623,1,0,0:0:0:0:
329,192,91623,1,0,0:0:0:0:
182,192,91783,1,0,0:0:0:0:
109,192,91783,1,0,0:0:0:0:
402,192,92102,1,0,0:0:0:0:
329,192,92102,1,0,0:0:0:0:
182,192,92261,1,0,0:0:0:0:
109,192,92261,1,0,0:0:0:0:
256,192,92580,1,8,0:0:0:0:
182,192,93059,1,8,0:0:0:0:
329,192,93059,1,8,0:0:0:0:
475,192,93697,1,0,0:0:0:0:
329,192,93697,1,0,0:0:0:0:
36,192,93857,1,0,0:0:0:0:
182,192,93857,1,0,0:0:0:0:
475,192,94176,1,0,0:0:0:0:
329,192,94176,1,0,0:0:0:0:
182,192,94336,1,0,0:0:0:0:
36,192,94336,1,0,0:0:0:0:
475,192,94655,1,0,0:0:0:0:
329,192,94655,1,0,0:0:0:0:
182,192,94814,1,0,0:0:0:0:
36,192,94814,1,0,0:0:0:0:
36,192,95612,1,8,0:0:0:0:
475,192,95612,1,8,0:0:0:0:
329,192,95772,1,0,0:0:0:0:
182,192,95931,1,0,0:0:0:0:
402,192,96251,1,8,0:0:0:0:
109,192,96251,1,0,0:0:0:0:
402,192,96410,1,8,0:0:0:0:
109,192,96410,1,0,0:0:0:0:
329,192,96570,1,0,0:0:0:0:
182,192,96889,1,0,0:0:0:0:
256,192,97208,1,0,0:0:0:0:
402,192,97208,1,8,0:0:0:0:
256,192,97368,1,0,0:0:0:0:
36,192,97527,1,8,0:0:0:0:
329,192,97607,1,8,0:0:0:0:
109,192,97687,1,8,0:0:0:0:
402,192,97767,1,8,0:0:0:0:
182,192,97846,1,0,0:0:0:0:
475,192,98165,1,8,0:0:0:0:
329,192,98165,1,8,0:0:0:0:
182,192,98325,1,8,0:0:0:0:
36,192,98325,1,8,0:0:0:0:
256,192,98485,1,0,0:0:0:0:
256,192,98804,1,4,0:0:0:0:
36,192,98804,1,0,0:0:0:0:
475,192,98804,1,0,0:0:0:0:
