osu file format v9

[General]
AudioFilename: arumujika ac14.0V.mp3
AudioLeadIn: 2000
PreviewTime: 1905
Countdown: 0
SampleSet: Normal
StackLeniency: 0.7
Mode: 1
LetterboxInBreaks: 1
SkinPreference:taiko

[Editor]
DistanceSpacing: 0.8
BeatDivisor: 4
GridSize: 32

[Metadata]
Title:Arumujika ac14.0V
Artist:Ookami Akiko
Creator:aquabluu
Version:Taiko Oni
Source:Taiko no Tatsujin
Tags:numujika 10 namco

[Difficulty]
HPDrainRate:5
CircleSize:5
OverallDifficulty:5
ApproachRate:5
SliderMultiplier:1.4
SliderTickRate:1

[Events]
//Background and Video events
0,0,"arumu-bg2.jpg"
//Break Periods
//Storyboard Layer 0 (Background)
//Storyboard Layer 1 (Fail)
//Storyboard Layer 2 (Pass)
//Storyboard Layer 3 (Foreground)
Sprite,Foreground,Centre,"sb.png",320,240 M,0,-558,-556,315,266,314,269 S,0,-558,99787,0.8156799 V,0,-558,99787,0.92832,0.9180795 F,0,-556,1158,0,1 F,0,1158,98015,1 F,0,98015,99729,1,0
//Storyboard Sound Samples
//Background Colour Transformations
3,100,163,162,255

[TimingPoints]
301,428.571428571429,4,1,0,100,1,0
2015,-100,4,1,0,100,0,1
15729,-100,4,1,0,100,0,0
43158,-100,4,1,0,100,0,1
50015,-100,4,1,0,100,0,0
84300,-100,4,1,0,100,0,1
98015,-100,4,1,0,100,0,0

[HitObjects]
108,142,2015,1,0
135,170,2122,1,0
179,140,2229,5,2
206,160,2336,1,2
136,260,2443,5,0
186,222,2551,1,0
271,199,2658,5,2
310,162,2765,1,2
307,269,2872,5,0
344,265,2979,1,0
364,200,3086,5,2
397,225,3193,1,2
37,197,3301,5,0
71,92,3408,5,2
132,79,3515,1,2
210,68,3622,1,2
256,192,3729,12,0,4158
255,225,4586,5,6
202,160,4801,5,2
124,210,5015,1,6
156,152,5229,1,2
176,57,5443,5,0
327,67,5658,5,2
305,136,5872,5,0
337,149,5979,1,0
362,205,6086,5,2
228,232,6301,1,2
264,240,6408,1,2
350,309,6515,5,0
292,316,6622,1,0
192,293,6729,1,0
81,148,6943,5,2
164,110,7158,1,2
184,128,7265,1,2
68,248,7372,5,0
112,244,7479,1,0
174,215,7586,1,0
209,197,7693,1,0
290,145,7801,5,2
290,145,7908,1,2
335,180,8015,1,2
73,80,8229,5,4
188,61,8443,5,6
95,141,8872,5,0
145,160,8979,5,2
209,197,9086,1,2
209,197,9193,5,0
249,208,9301,1,0
286,252,9408,5,2
352,239,9515,1,2
354,149,9622,5,0
291,116,9729,1,0
271,73,9836,5,2
196,115,9943,1,2
66,230,10051,5,0
90,244,10158,1,0
193,301,10265,5,2
232,304,10372,1,2
288,316,10479,1,2
256,192,10586,12,0,11015
79,144,11443,5,6
183,141,11658,5,2
128,212,11872,1,6
168,215,12086,1,2
242,194,12301,5,0
295,152,12408,5,2
295,152,12515,1,2
320,204,12622,5,0
351,107,12729,5,2
372,150,12836,1,2
160,272,12943,5,0
213,283,13051,1,0
270,268,13158,5,2
59,116,13372,5,0
121,108,13586,5,2
124,147,13801,1,2
202,171,14015,1,6
50,227,14443,5,4
179,240,14872,5,6
271,189,15301,5,4
104,104,15729,1,0
152,110,15943,5,2
200,112,16051,5,0
80,240,16372,1,0
80,240,16479,1,0
124,247,16586,1,0
184,248,16801,5,2
184,248,16908,5,0
309,142,17229,1,4
308,177,17443,1,4
119,98,17658,5,2
149,101,17765,5,0
251,112,18086,1,0
300,83,18158,1,0
349,94,18229,1,0
372,137,18301,1,0
40,236,18515,5,2
85,239,18622,5,0
189,200,18943,5,6
245,234,19158,5,4
336,216,19372,5,2
341,250,19479,5,0
89,122,19801,1,0
148,116,19908,1,0
209,123,20015,1,0
340,90,20229,5,2
368,117,20336,5,0
63,219,20658,1,4
63,219,20872,1,4
165,236,21086,5,2
216,224,21301,1,2
143,90,21515,1,2
171,80,21586,1,2
196,95,21658,1,2
234,109,21729,1,2
332,129,21943,1,2
344,189,22051,1,2
99,152,22372,1,6
104,104,22586,5,4
152,110,22800,5,2
200,112,22908,5,0
80,240,23229,1,0
80,240,23336,1,0
124,247,23443,1,0
184,248,23658,5,2
184,248,23765,5,0
309,142,24086,1,4
308,177,24300,1,4
119,98,24515,5,2
149,101,24622,5,0
251,112,24943,1,0
300,83,25015,1,0
349,94,25086,1,0
372,137,25158,1,0
40,236,25372,5,2
85,239,25479,5,0
189,200,25800,5,6
245,234,26015,5,4
336,216,26229,5,2
341,250,26336,5,0
89,122,26658,1,0
148,116,26765,1,0
209,123,26872,1,0
340,90,27086,5,2
368,117,27193,5,0
63,219,27515,1,4
63,219,27729,1,4
179,228,27943,5,2
252,184,28158,1,2
330,192,28265,1,2
321,252,28372,5,0
76,100,28586,1,0
128,104,28693,5,2
128,104,28801,1,2
194,104,28908,1,2
241,100,29015,1,2
82,200,29229,1,6
111,320,29443,5,0
159,307,29551,1,0
159,307,29658,1,0
229,308,29765,1,0
232,239,29872,5,2
275,224,29979,1,2
298,268,30086,5,0
336,272,30193,1,0
336,272,30301,1,0
342,196,30408,5,2
282,157,30515,1,2
146,168,30622,5,0
90,80,31158,5,2
116,80,31265,1,2
234,104,31372,1,2
193,141,31479,1,2
176,190,31586,5,0
193,216,31693,1,0
92,196,31801,1,0
338,62,31908,5,2
342,108,32015,5,0
297,176,32122,5,2
341,192,32229,1,2
244,244,32336,5,0
59,148,32551,5,2
77,230,32765,1,2
104,240,32872,1,2
151,280,32979,1,2
140,82,33193,1,2
203,111,33408,1,2
256,79,33622,1,2
275,120,33836,1,2
297,178,34051,1,2
145,184,34265,1,2
183,190,34372,1,2
114,291,34586,5,0
184,263,34801,5,2
230,260,34908,5,0
93,91,35122,1,0
122,102,35229,5,2
172,96,35336,1,2
244,144,35443,5,0
48,170,35551,5,2
258,86,35658,1,2
358,158,35765,1,2
258,215,35872,1,2
309,250,36086,1,2
93,251,36301,5,0
140,224,36408,5,2
181,272,36515,5,0
263,292,36622,5,2
185,160,36836,5,0
115,84,37051,1,0
161,57,37158,5,2
55,207,37586,1,6
117,264,38015,1,2
172,254,38122,5,0
172,254,38229,5,2
228,236,38336,5,0
243,160,38551,5,2
274,151,38765,1,2
321,205,38872,5,0
89,100,39301,1,4
70,204,39729,5,2
102,205,39836,1,2
134,215,39943,1,2
171,230,40051,1,2
186,125,40265,1,2
251,99,40479,1,2
272,125,40586,1,2
275,213,40801,1,6
264,273,41015,1,2
356,187,41229,1,6
68,145,41443,5,0
145,87,41658,1,0
183,51,41765,1,0
132,148,41979,1,0
180,160,42086,1,0
123,220,42301,1,4
94,100,43158,1,0
212,104,43372,5,2
280,148,43586,5,0
371,168,43693,1,0
376,108,43801,5,2
181,233,44015,5,0
251,223,44229,5,2
344,238,44443,5,0
344,238,44551,1,0
280,148,44658,5,2
256,192,44872,12,0,45408
256,192,45729,12,0,46265
101,150,46586,5,4
124,165,46801,1,4
168,205,47015,1,4
206,136,47229,1,4
224,188,47443,1,4
25,259,47658,1,4
100,281,47872,1,4
184,261,48086,1,4
69,107,48301,1,0
97,94,48408,5,2
143,85,48515,1,2
189,84,48622,1,2
189,84,48729,1,2
266,136,48836,1,2
266,136,48943,1,2
332,120,49051,1,2
268,271,49158,1,2
321,210,49372,5,4
37,200,50015,1,0
96,190,50122,5,2
145,203,50229,1,2
190,164,50336,1,2
148,283,50551,5,0
180,286,50658,1,0
241,283,50765,1,0
268,195,50872,5,2
184,87,51193,5,0
218,87,51301,1,0
273,106,51408,1,0
324,130,51515,5,2
66,148,51729,1,2
66,148,51836,1,2
175,172,51943,5,0
238,192,52051,5,2
333,232,52158,5,0
357,194,52265,5,2
372,260,52372,5,0
209,238,52479,5,2
40,239,52586,5,0
96,259,52908,1,0
165,83,53229,5,6
108,170,53443,5,0
220,134,53551,5,2
232,78,53658,1,2
265,96,53765,1,2
272,186,53979,5,0
305,175,54086,1,0
341,143,54193,1,0
357,96,54301,5,2
110,249,54622,5,0
166,246,54729,5,2
192,247,54836,1,2
233,257,54943,1,2
85,148,55158,5,0
150,126,55265,5,2
180,118,55372,1,2
252,169,55479,5,0
304,222,55586,5,2
347,196,55693,5,0
266,124,55801,5,2
313,114,55908,5,0
360,139,56015,1,0
70,208,56229,5,2
136,206,56336,5,0
231,262,56658,5,6
85,103,56872,5,0
125,88,56979,5,2
219,146,57193,1,2
281,188,57408,1,2
356,214,57622,1,2
90,264,57836,1,2
118,262,57943,1,2
164,207,58051,5,0
62,148,58265,5,2
164,100,58372,5,0
216,92,58586,1,0
264,98,58693,5,2
415,33,58908,1,2
447,80,59122,1,2
425,165,59336,1,2
164,207,59551,1,2
222,196,59658,1,2
263,218,59765,5,0
100,241,59979,5,2
136,252,60086,5,0
218,273,60301,1,0
253,277,60408,5,2
70,116,60622,1,2
163,105,60836,1,2
277,68,61051,1,2
290,142,61265,1,2
345,127,61372,1,2
361,187,61479,5,0
439,83,61693,1,0
440,128,61801,5,2
90,200,62015,5,4
173,238,62229,5,2
257,242,62443,1,2
300,248,62658,1,2
131,141,62872,5,0
188,129,62979,5,2
240,134,63086,1,2
296,136,63193,1,2
340,156,63301,1,2
42,203,63515,1,6
150,276,63729,5,0
289,205,63943,5,2
344,204,64158,5,0
376,215,64265,1,0
398,160,64372,5,2
268,252,64586,5,0
328,267,64801,5,2
278,82,65015,5,0
176,87,65122,1,0
112,94,65229,5,2
124,148,65443,5,0
195,157,65658,5,2
236,159,65765,5,0
288,157,65979,1,0
340,110,66086,5,2
56,284,66301,5,0
112,287,66408,1,0
148,240,66515,5,2
196,243,66622,1,2
275,250,66836,1,2
275,250,66943,1,2
57,133,67158,5,0
92,98,67265,1,0
92,98,67372,1,0
182,105,67479,5,2
182,105,67586,1,2
259,144,67693,1,2
259,144,67801,5,0
317,116,67908,1,0
404,204,68015,1,0
192,285,68122,5,2
309,300,68229,1,2
372,160,68336,1,2
427,68,68443,5,0
36,80,68872,5,2
93,62,68979,1,2
179,72,69086,1,2
204,151,69193,5,0
244,172,69301,1,0
321,214,69408,1,0
307,94,69515,5,2
384,88,69622,1,2
430,131,69729,1,2
404,228,69836,5,0
388,276,69943,1,0
282,265,70051,1,0
71,173,70158,5,2
107,219,70265,5,0
188,274,70372,5,2
104,72,70586,1,2
188,86,70693,5,0
246,116,70801,5,2
320,156,70908,5,0
326,59,71015,5,2
364,44,71122,1,2
369,100,71229,5,0
428,38,71336,5,2
456,183,71443,5,0
120,281,71765,1,4
75,218,72301,1,0
128,200,72408,5,2
168,196,72515,5,0
240,200,72622,5,2
123,126,72729,1,2
184,105,72836,5,0
212,107,72943,1,0
326,117,73051,5,2
344,184,73158,5,0
214,285,73479,1,4
57,199,74015,5,2
108,186,74122,1,2
269,211,74229,1,2
326,244,74336,1,2
114,86,74551,1,2
188,79,74765,1,2
236,86,74872,1,2
191,156,75086,1,6
317,122,75301,1,2
358,153,75515,1,6
132,229,75729,5,0
206,235,75943,1,0
308,225,76051,1,0
379,250,76265,1,0
413,186,76372,1,0
172,39,76586,1,4
79,134,77015,5,2
116,129,77122,1,2
190,133,77229,1,2
246,148,77336,1,2
402,60,77443,1,2
395,100,77515,1,2
339,177,77586,1,2
131,253,77658,1,2
201,249,77729,1,2
292,244,77801,1,2
327,252,77872,1,2
288,73,78086,1,2
327,92,78193,1,2
395,151,78301,1,2
71,58,78515,1,2
179,58,78729,1,2
178,175,78943,1,2
58,184,79158,1,2
49,280,79372,1,2
113,279,79479,1,2
190,275,79586,1,2
289,253,79801,1,2
256,192,80015,12,0,80551
114,172,80872,5,2
148,158,80943,5,2
208,163,81015,1,2
260,160,81086,1,2
260,160,81158,1,2
323,204,81229,1,2
390,151,81301,1,2
91,92,81515,1,2
67,156,81622,1,2
134,226,81729,1,2
223,276,81943,1,2
248,73,82158,1,2
364,70,82372,1,2
383,265,82586,1,2
151,164,82801,1,2
229,145,82908,1,2
347,161,83015,1,2
428,132,83229,1,2
256,192,83443,12,0,84086
108,142,84301,5,0
135,170,84408,1,0
179,140,84515,5,2
206,160,84622,1,2
136,260,84729,5,0
186,222,84837,1,0
271,199,84944,5,2
310,162,85051,1,2
307,269,85158,5,0
344,265,85265,1,0
364,200,85372,5,2
397,225,85479,1,2
37,197,85587,5,0
71,92,85694,5,2
132,79,85801,1,2
210,68,85908,1,2
256,192,86015,12,0,86444
255,225,86872,5,6
202,160,87087,5,2
124,210,87301,1,6
156,152,87515,1,2
176,57,87729,5,0
327,67,87944,5,2
305,136,88158,5,0
337,149,88265,1,0
362,205,88372,5,2
228,232,88587,1,2
264,240,88694,1,2
350,309,88801,5,0
292,316,88908,1,0
192,293,89015,1,0
81,148,89229,5,2
164,110,89444,1,2
184,128,89551,1,2
68,248,89658,5,0
112,244,89765,1,0
174,215,89872,1,0
209,197,89979,1,0
290,145,90087,5,2
290,145,90194,1,2
335,180,90301,1,2
73,80,90515,5,4
188,61,90729,5,6
95,141,91158,5,0
145,160,91265,5,2
209,197,91372,1,2
209,197,91479,5,0
249,208,91587,1,0
286,252,91694,5,2
352,239,91801,1,2
354,149,91908,5,0
291,116,92015,1,0
271,73,92122,5,2
196,115,92229,1,2
66,230,92337,5,0
90,244,92444,1,0
193,301,92551,5,2
232,304,92658,1,2
288,316,92765,1,2
256,192,92872,12,0,93301
79,144,93729,5,6
183,141,93944,5,2
128,212,94158,1,6
168,215,94372,1,2
242,194,94587,5,0
295,152,94694,5,2
295,152,94801,1,2
320,204,94908,5,0
351,107,95015,5,2
372,150,95122,1,2
160,272,95229,5,0
213,283,95337,1,0
270,268,95444,5,2
59,116,95658,5,0
121,108,95872,5,2
124,147,96087,1,2
202,171,96301,1,6
50,227,96729,5,4
179,240,97158,5,6
345,181,97372,1,2
274,60,97443,1,2
248,103,97515,1,2
187,76,97586,1,2
