osu file format v9

[General]
AudioFilename: arumujika ac14.0V.mp3
AudioLeadIn: 2000
PreviewTime: 1905
Countdown: 0
SampleSet: Normal
StackLeniency: 0.7
Mode: 1
LetterboxInBreaks: 1
SkinPreference:taiko

[Editor]
DistanceSpacing: 0.8
BeatDivisor: 6
GridSize: 32

[Metadata]
Title:Arumujika ac14.0V
Artist:Ookami Akiko
Creator:aquabluu
Version:Taiko Futsuu
Source:Taiko no Tatsujin
Tags:numujika 10 namco

[Difficulty]
HPDrainRate:5
CircleSize:5
OverallDifficulty:5
ApproachRate:5
SliderMultiplier:1.4
SliderTickRate:1

[Events]
//Background and Video events
0,0,"arumu-bg2.jpg"
//Break Periods
//Storyboard Layer 0 (Background)
//Storyboard Layer 1 (Fail)
//Storyboard Layer 2 (Pass)
//Storyboard Layer 3 (Foreground)
Sprite,Foreground,Centre,"sb.png",320,240 M,0,-558,-556,315,266,314,269 S,0,-558,99787,0.8156799 V,0,-558,99787,0.92832,0.9180795 F,0,-556,1158,0,1 F,0,1158,98015,1 F,0,98015,99729,1,0
//Storyboard Sound Samples
//Background Colour Transformations
3,100,163,162,255

[TimingPoints]
301,428.571428571429,4,1,0,100,1,0
2015,-100,4,1,0,100,0,1
15729,-100,4,1,0,100,0,0
43158,-100,4,1,0,100,0,1
50015,-100,4,1,0,100,0,0
84301,-100,4,1,0,100,0,1
98015,-100,4,1,0,100,0,0

[HitObjects]
120,162,2015,1,0
161,159,2230,1,0
208,151,2444,1,0
292,138,2658,1,0
296,187,2873,1,0
339,216,3087,1,0
374,159,3301,1,0
161,54,3730,1,4
87,134,4587,5,2
168,137,5016,1,2
237,189,5444,5,0
286,199,5873,1,0
367,174,6301,1,0
116,90,7158,1,4
148,97,7587,1,4
241,116,8016,5,6
224,138,8230,1,6
234,173,8444,1,6
57,152,8873,5,0
93,173,9087,1,0
144,190,9301,1,0
204,227,9516,1,0
289,195,9730,1,0
344,141,9944,1,0
170,69,10158,1,0
170,69,10587,1,4
99,166,11444,5,2
164,164,11873,1,2
288,124,12301,5,0
214,194,12730,1,0
317,225,13158,1,0
380,160,13373,1,0
265,104,13587,1,0
97,96,14016,5,6
157,160,14444,5,4
195,151,14873,5,6
282,160,15730,5,0
252,205,16051,1,0
123,128,16587,1,0
147,153,16908,1,0
72,258,17444,1,4
152,242,17766,1,4
212,228,18301,5,6
212,228,18623,1,6
133,88,19158,5,0
153,123,19480,1,0
275,134,20016,1,0
275,134,20337,1,0
112,188,20873,1,0
142,194,21087,1,0
240,194,21301,1,0
241,137,21516,1,0
154,61,21730,5,2
286,53,21944,1,2
350,102,22158,1,2
85,240,22587,5,0
144,191,22908,5,2
172,244,23444,1,2
222,221,23766,5,0
102,130,24301,1,4
164,136,24623,5,6
254,144,25158,1,6
315,165,25480,5,4
80,223,26016,1,0
195,229,26337,5,2
256,234,26873,1,2
256,234,27194,5,0
91,130,27730,1,0
196,153,27944,1,0
253,164,28158,1,0
352,181,28587,5,2
370,214,28801,1,2
391,257,29016,1,2
70,215,29444,5,0
108,224,29658,1,0
151,217,29873,1,0
213,195,30301,1,4
268,220,30623,1,4
70,215,31158,1,0
108,224,31372,1,0
151,217,31587,1,0
213,195,32015,1,4
268,220,32337,1,4
439,66,32873,2,0,B|113:249,1,350
256,192,34587,12,0,35873
103,176,36301,5,0
152,196,36516,5,0
152,196,36730,1,0
242,152,37158,5,6
242,152,37587,1,6
116,96,38016,1,2
135,114,38230,1,2
170,139,38444,1,2
234,203,38873,5,4
258,218,39301,1,4
76,97,39730,5,2
110,97,40158,1,2
205,100,40587,1,2
274,127,40801,1,2
274,127,41016,1,2
89,228,41444,5,4
89,228,41658,1,4
175,220,42087,1,4
211,217,42301,1,4
256,192,43158,12,0,44444
256,192,44873,12,0,46158
189,176,46587,5,4
276,179,46801,5,4
344,144,47016,1,4
289,108,47230,1,4
152,87,47444,1,4
85,117,47658,1,4
122,194,47873,1,4
211,252,48087,1,4
256,192,48301,12,0,49587
282,160,50016,1,0
252,205,50337,5,0
123,128,50873,1,0
147,153,51194,1,0
72,258,51730,1,4
152,242,52052,1,4
212,228,52587,5,6
212,228,52909,1,6
282,160,53444,5,0
252,205,53765,1,0
123,128,54301,1,0
147,153,54622,1,0
72,258,55158,1,4
152,242,55480,1,4
212,228,56015,5,6
212,228,56337,1,6
85,240,56873,5,0
144,191,57194,5,2
172,244,57730,1,2
222,221,58052,5,0
102,130,58587,1,4
164,136,58909,5,6
254,144,59444,1,6
315,165,59766,5,4
80,223,60302,1,0
195,229,60623,5,2
256,234,61159,1,2
256,234,61480,5,0
91,130,62016,1,0
196,153,62230,1,0
253,164,62444,1,0
352,181,62873,5,2
370,214,63087,1,2
391,257,63302,1,2
132,127,63730,5,0
214,220,63944,1,0
258,255,64158,1,0
278,130,64587,1,0
398,88,65016,1,0
78,66,65444,5,2
76,132,65658,1,2
119,184,65873,1,2
176,189,66301,1,2
360,196,66730,1,2
61,308,67158,5,0
142,280,67373,1,0
179,285,67587,1,0
155,92,68016,5,2
200,106,68444,1,2
256,192,68873,12,0,70158
148,169,70587,5,0
196,201,70801,1,0
216,218,71016,1,0
105,248,71444,1,4
156,248,71766,1,4
148,169,72301,1,0
196,201,72515,1,0
216,218,72730,1,0
105,248,73158,1,4
156,248,73480,1,4
74,139,74016,5,2
156,159,74444,1,2
200,172,74873,1,2
247,200,75087,1,2
247,200,75301,1,2
115,96,75730,5,4
182,103,75944,1,4
321,160,76373,1,4
326,192,76587,1,4
452,72,77444,2,0,B|128:238,1,350
72,92,79158,2,0,B|376:273,1,350
412,52,80873,2,4,B|118:279,1,350
43,152,82587,1,4
116,179,83016,1,4
213,211,83444,5,6
225,120,84301,5,0
262,148,84516,1,0
320,205,84730,1,0
128,168,84944,1,0
220,262,85158,1,0
302,297,85373,1,0
416,143,85587,1,0
111,240,86016,1,4
101,92,86873,5,2
141,116,87087,1,2
183,139,87301,1,2
210,153,87516,1,2
232,96,87730,5,0
68,276,88158,1,0
149,245,88587,1,0
202,164,89444,1,4
253,188,89873,1,4
240,96,90301,5,6
288,116,90516,1,6
320,129,90730,1,6
296,224,91158,5,0
161,198,91373,1,0
248,268,91587,1,0
355,209,91801,1,0
402,102,92016,1,0
182,68,92230,1,0
96,88,92444,1,0
96,167,92873,1,4
124,266,93730,5,2
204,256,93944,1,2
251,264,94158,1,2
251,264,94373,1,2
214,196,94587,5,0
121,68,95016,1,0
156,86,95444,1,0
304,132,95658,1,0
344,177,95873,1,0
98,234,96301,5,6
184,226,96730,5,4
308,184,97158,5,6
174,129,97587,5,4
