osu file format v9

[General]
AudioFilename: !.mp3
AudioLeadIn: 0
PreviewTime: -1
Countdown: 0
SampleSet: Soft
StackLeniency: 0.7
Mode: 0
LetterboxInBreaks: 1

[Editor]
DistanceSpacing: 0.8
BeatDivisor: 4
GridSize: 8

[Metadata]
Title:!
Artist:Onyx
Creator:Aliasss
Version:Normal
Source:In the groove 2
Tags:

[Difficulty]
HPDrainRate:4
CircleSize:4
OverallDifficulty:4
ApproachRate:5
SliderMultiplier:1.00000000596046
SliderTickRate:2

[Events]
//Background and Video events
0,0,"!-bg.png"
//Break Periods
2,65967,67663
//Storyboard Layer 0 (Background)
//Storyboard Layer 1 (Fail)
//Storyboard Layer 2 (Pass)
//Storyboard Layer 3 (Foreground)
//Storyboard Sound Samples
//Background Colour Transformations
3,100,163,162,255

[TimingPoints]
-30,387.046832666753,4,2,0,78,1,0
27063,1546.39175257732,4,2,0,78,1,0
28611,387.046832666753,4,2,0,78,1,0
53381,387.046832666753,4,2,0,78,1,1
65766,387.046832666753,4,2,0,78,1,0
68863,1546.39175257732,4,2,0,78,1,0
69636,387.046832666753,4,2,0,78,1,0
85891,387.046832666753,4,2,0,78,1,1
110661,387.046832666753,4,2,0,78,1,0

[Colours]
Combo1 : 205,152,29
Combo2 : 3,171,3
Combo3 : 3,3,154
Combo4 : 189,4,4
Combo5 : 206,217,9
Combo6 : 117,4,140
Combo7 : 211,211,211

[HitObjects]
480,288,5388,2,0,B|496:208|480:144|400:144|336:160,1,250.000001490115
256,104,6549,6,0,B|256:48|256:48,2,50.000000298023
320,272,7323,1,0
256,320,7517,6,0,B|216:304|200:272|200:232,1,100.000000596046
128,240,8097,2,0,B|128:192|160:152|192:144,1,100.000000596046
192,64,9065,5,0
320,96,9646,2,0,B|304:112|304:112|288:128|272:144,2,50.000000298023
416,72,10420,1,0
448,160,10807,6,0,B|496:240|464:320|416:320|352:336,1,250.000001490115
336,264,11968,2,0,B|368:248|352:216,2,50.000000298023
192,304,12742,1,0
120,288,12936,6,0,B|80:288|56:256|56:208,1,100.000000596046
56,152,13516,2,0,B|56:120|80:88|120:88,1,100.000000596046
192,128,14484,5,0
160,208,15064,2,0,B|104:208|104:208,2,50.000000298023
200,296,15838,1,0
256,224,16225,6,0,B|304:224|384:224|384:144|352:112|288:144|288:192|320:240|336:256|352:256|352:256,1,250.000001490115
424,288,17387,2,0,B|456:272|456:256|456:256|456:240,2,50.000000298023
304,344,18161,1,0
208,344,18354,6,0,B|176:344|136:320|128:288,1,100.000000596046
216,264,18935,2,0,B|200:192|152:176|104:184,1,150.000000894069
112,96,19902,5,0
208,80,20483,2,0,B|208:144|208:144,2,50.000000298023
304,80,21257,1,0
384,72,21644,6,0,B|384:176,1,100.000000596046
456,176,22225,2,0,B|456:248,1,50.000000298023
344,296,22805,6,0,B|392:344,2,50.000000298023
256,208,23579,1,0
192,320,23966,2,0,B|152:312|136:280|136:256|136:232,1,100.000000596046
96,184,24547,2,0,B|144:152,1,50.000000298023
256,120,25321,5,0
208,40,25708,2,0,B|320:40,1,100.000000596046
368,72,26289,2,0,B|488:72,1,100.000000596046
304,160,27063,6,0,B|240:160|192:160,1,100
128,240,28998,2,0,B|128:288|176:336|224:336,1,140
288,336,29772,2,0,B|336:336|384:288|384:240,1,140
440,128,30739,5,0
376,48,31126,1,0
256,168,31707,1,0
192,80,32094,6,0,B|112:32|64:48|48:80|48:96,1,140
48,144,32868,2,0,B|64:192|144:208|192:208,1,140
64,304,34416,5,0
144,320,34803,1,0
240,320,35190,6,0,B|240:240|320:320|320:224,1,140
384,208,35964,2,0,B|384:112|464:208|464:80,1,140
408,32,36932,5,0
320,80,37319,2,0,B|288:120,1,50.000000298023
192,72,37900,1,0
256,192,38287,12,0,40996
280,192,41383,5,0
336,256,41577,2,0,B|400:272|432:224|432:224,1,100.000000596046
432,160,42157,2,0,B|432:128|400:80,1,75.0000004470345
360,64,42544,1,0
240,80,44092,5,0
144,24,44479,1,0
96,80,44673,6,0,B|48:80|32:128|32:160,1,100.000000596046
128,160,45254,2,0,B|128:224|96:240,1,75.0000004470345
96,288,45641,1,0
256,336,46608,6,0,B|256:304,6,25.0000001490115
360,248,47576,1,0
288,208,47769,2,0,B|256:176|224:176|192:192,1,100.000000596046
128,160,48350,2,0,B|128:128|144:80|144:80,1,75.0000004470345
152,48,48737,1,0
216,336,50285,5,0
352,344,50672,1,0
432,336,50866,6,0,B|464:304|464:272|432:240,1,100.000000596046
360,264,51446,2,0,B|328:248|304:224|296:216,1,75.0000004470345
264,192,51833,1,0
368,40,52607,5,0
304,80,52801,2,0,B|288:80,8,12.5000000745057
224,40,53381,5,0
256,200,53769,1,0
256,288,53962,2,0,B|304:272,2,50.000000298023
136,280,54736,2,0,B|152:240|176:208|216:192|240:192|264:200,1,150.000000894069
360,208,55704,6,0,B|352:192,2,12.5000000745057
440,312,56284,1,0
368,336,56478,1,0
256,320,56865,1,0
208,256,57058,2,0,B|208:224|240:224|240:224,2,50.000000298023
104,288,57833,2,0,B|64:264|40:232|32:200|32:152|48:112,1,200.000001192092
128,80,58897,5,0
192,80,59090,2,0,B|192:120,2,25.0000001490115
280,48,59574,1,0
384,112,59961,2,0,B|430:78,2,50.000000298023
424,192,60542,2,0,B|424:232|392:256|360:264|360:264,1,100.000000596046
256,136,61509,1,0
160,248,61897,6,0,B|152:304,2,50.000000298023
280,344,62671,1,0
408,336,63058,2,0,B|424:272,1,50.000000298023
472,224,63445,1,0
408,168,63638,2,0,B|448:160|472:128|472:88,1,100.000000596046
328,144,64606,6,0,B|260:90|145:127|110:198|132:291,1,300.000001788138,0|4
296,64,68863,6,0,B|332:92,1,37.5000002235172
376,128,69636,2,0,B|432:88,4,50.000000298023
416,200,70603,6,0,B|424:240|408:288|360:304|312:304,1,150.000000894069
320,232,71377,2,0,B|256:232|216:272|216:344,1,150.000000894069
144,320,72151,2,0,B|112:320|88:296|80:280|72:248,1,100.000000596046
144,232,72732,2,0,B|144:168|120:128|80:96,1,150.000000894069
32,144,73506,2,0,B|16:120|8:88|24:64|48:48,1,100.000000596046
112,32,74087,2,0,B|136:40|168:96|216:72,1,100.000000596046
256,136,74669,2,0,B|256:160,2,25.0000001490115
304,80,75054,6,0,B|344:104|376:16|448:64,1,150.000000894069
408,128,75828,2,0,B|424:184|368:216,1,100.000000596046
376,288,76411,2,0,B|399:309,2,25.0000001490115
304,288,76796,6,0,B|280:248|248:224|200:240|176:208,1,150.000000894069
152,144,77570,2,0,B|120:144|80:176|88:232|120:256,1,150.000000894069
144,328,78344,6,0,B|248:376|192:200|328:312,1,200.000001192092
376,328,79314,2,0,B|376:352,4,25.0000001490115
440,280,79894,6,0,B|440:248|416:224|392:216|360:224,1,100.000000596046
384,144,80475,1,0
304,64,80765,2,0,B|288:40|256:40,1,50.000000298023
192,152,81249,2,0,B|176:176,6,25.0000001490115
256,192,82021,1,0
352,152,82313,2,0,B|368:176,5,25.0000001490115
256,192,83182,12,0,85891
328,152,86279,2,0,B|384:152,1,50.000000298023
456,160,86666,2,0,B|464:192|456:240|432:264|392:272|376:272,1,150.000000894069
256,336,87827,1,0
128,312,88214,2,0,B|128:296,2,12.5000000745057
256,216,88794,5,0
296,176,88988,1,0
296,56,89375,2,0,B|240:24,3,50.000000298023
168,112,90343,2,0,B|128:112|88:128|64:168|64:224|80:272,1,200.000001192092
160,240,91407,1,0
232,208,91600,2,0,B|240:224,1,12.5000000745057
264,288,91891,2,0,B|272:320|312:336,1,50.000000298023
384,272,92471,5,0
384,192,92665,2,0,B|328:192,2,50.000000298023
392,96,93439,2,0,B|416:64|472:72|488:112|472:176,1,150.000000894069
432,304,94406,2,0,B|400:328,1,25.0000001490115
304,328,94794,1,0
224,328,94987,1,0
136,312,95181,6,0,B|96:304|64:272|56:240,1,100.000000596046
88,176,95761,2,0,B|56:128|56:128,2,50.000000298023
104,64,96535,1,0
232,96,97116,2,0,B|264:56,1,50.000000298023
352,56,97503,1,0
392,120,97600,2,0,B|352:136,6,25.0000001490115
416,192,98277,6,0,B|416:224|448:224|488:224|472:280,1,100.000000596046
408,312,98858,2,0,B|360:360,2,50.000000298023
304,248,99632,2,0,B|304:208|256:192|224:232|192:224|176:184,1,150.000000894069
120,56,100599,2,0,B|104:56,2,12.5000000745057
288,56,101180,5,0
352,88,101373,2,0,B|400:120|424:144|432:176,1,100.000000596046
440,224,101954,2,0,B|376:224,2,50.000000298023
424,320,102728,2,0,B|416:288|392:264|368:240|336:216|304:208,1,150.000000894069
304,288,103502,1,0
216,336,103792,1,0
152,328,103986,2,0,B|144:312,1,12.5000000745057
184,232,104276,5,0
120,192,104470,1,0
48,80,104857,2,0,B|48:24,3,50.000000298023
136,40,105631,1,0
224,40,105824,1,0
200,144,106211,1,0
256,192,106405,1,0
352,144,106792,2,0,B|352:104,1,25.0000001490115
360,40,107082,2,0,B|416:40,1,50.000000298023
464,136,107566,5,0
464,240,107953,2,0,B|456:296|416:328|376:352|352:352,1,150.000000894069
288,328,108921,1,0
216,328,109114,1,0
144,312,109308,1,0
96,248,109501,1,0
152,200,109695,1,0
224,192,109888,2,0,B|256:192,8,25.0000001490115,0|0|0|0|0|0|0|0|4
