osu file format v9

[General]
AudioFilename: !.mp3
AudioLeadIn: 0
PreviewTime: -1
Countdown: 0
SampleSet: Soft
StackLeniency: 0.7
Mode: 0
LetterboxInBreaks: 1

[Editor]
DistanceSpacing: 0.8
BeatDivisor: 4
GridSize: 8

[Metadata]
Title:!
Artist:Onyx
Creator:Aliasss
Version:Insane
Source:In the groove 2
Tags:

[Difficulty]
HPDrainRate:8
CircleSize:4
OverallDifficulty:8
ApproachRate:9
SliderMultiplier:2.00000000596046
SliderTickRate:2

[Events]
//Background and Video events
0,0,"!-bg.png"
//Break Periods
2,65967,68263
//Storyboard Layer 0 (Background)
//Storyboard Layer 1 (Fail)
//Storyboard Layer 2 (Pass)
//Storyboard Layer 3 (Foreground)
//Storyboard Sound Samples
//Background Colour Transformations
3,100,163,162,255

[TimingPoints]
-30,387.046832666753,4,2,0,70,1,0
27063,1546.39175257732,4,2,0,70,1,0
28611,387.046832666753,4,2,0,70,1,0
53381,387.046832666753,4,2,0,70,1,1
65766,387.046832666753,4,2,0,70,1,0
68863,1546.39175257732,4,2,0,70,1,0
69636,387.046832666753,4,2,0,70,1,0
85891,387.046832666753,4,2,0,70,1,1
110661,387.046832666753,4,2,0,70,1,0

[Colours]
Combo1 : 254,156,24
Combo2 : 3,171,3
Combo3 : 3,3,154
Combo4 : 189,4,4
Combo5 : 206,217,9
Combo6 : 117,4,140
Combo7 : 211,211,211

[HitObjects]
256,56,1324,1,0
152,328,1711,1,0
360,328,1905,1,0
112,192,2679,1,0
256,192,2872,1,0
400,192,3066,1,0
384,56,3840,1,0
88,320,4421,1,0
88,48,4808,1,0
216,192,5001,1,0
400,192,5195,1,0
352,56,5388,6,2,B|248:56,1,100.000000298023
248,56,5775,1,2
192,192,5969,2,2,B|304:192,1,100.000000298023
288,192,6356,1,2
432,224,6549,6,0,B|432:120,2,100.000000298023
432,232,7130,1,0
256,80,7323,1,0
192,200,7517,6,2,B|304:200,1,100.000000298023
440,56,7904,2,2,B|440:160,1,100.000000298023
376,320,8291,2,2,B|264:320,1,100.000000298023
120,320,8678,1,0
48,200,8872,1,0
96,80,9065,6,0,B|128:56|128:56|152:96|216:48,1,100.000000298023
288,192,9452,1,0
432,352,9646,2,0,B|432:240,1,100.000000298023
432,248,10033,1,0
416,72,10226,2,0,B|384:48|384:48|360:88|296:40,1,100.000000298023
264,192,10613,1,0
72,112,10807,6,2,B|168:48,1,100.000000298023
72,112,11194,2,2,B|160:168,1,100.000000298023
72,112,11581,2,2,B|72:224,1,100.000000298023
168,336,11968,5,0
256,192,12161,1,0
256,40,12355,1,0
456,40,12549,1,0
320,152,12742,1,0
456,256,12936,6,2,B|368:184,2,100.000000298023
456,128,13516,2,0,B|368:200,2,100.000000298023,2|0|2
480,192,14097,1,0
352,112,14290,1,0
256,264,14484,5,0
200,104,14677,1,0
160,152,14774,1,0
200,192,14871,1,0
80,256,15064,6,0,B|80:144,2,100.000000298023
224,312,15645,1,0
344,304,15838,1,0
448,232,16032,1,0
448,48,16225,6,2,B|448:168,1,100.000000298023
384,48,16613,2,2,B|352:152,1,100.000000298023
320,48,17000,2,2,B|240:144,1,100.000000298023
64,48,17387,5,0
88,192,17580,1,0
64,344,17774,1,0
256,304,17967,2,0,B|256:384,2,50.0000001490115
160,192,18354,6,2,B|160:136|160:136|144:136|144:96,1,100.000000298023
296,48,18741,2,2,B|272:80|224:88|208:40,1,100.000000298023
352,104,19128,2,2,B|352:160|352:160|368:160|368:200,1,100.000000298023
432,312,19515,1,0
256,336,19709,1,0
64,288,19902,5,0
104,128,20096,2,0,B|144:72|216:64,1,100.000000298023
328,192,20483,2,0,B|232:256|232:256,2,100.000000298023
352,344,21064,1,0
456,232,21257,1,0
416,40,21451,6,2,B|392:88|392:88|424:128|368:160,1,100.000000298023
256,192,21838,1,2
104,40,22031,2,2,B|128:88|128:88|96:128|152:160,1,100.000000298023
256,32,22418,1,2
256,192,22612,1,0
408,272,22805,6,0,B|480:344,2,100.000000298023
256,192,23386,1,0
256,320,23579,1,0
32,352,23773,1,0
120,240,23966,6,2,B|88:216|88:152|144:120,1,100.000000298023
256,56,24353,1,2
392,240,24547,2,2,B|424:216|424:152|368:120,1,100.000000298023
256,192,24934,1,0
96,328,25128,1,0
96,192,25321,1,0
96,48,25515,1,0
320,56,25708,6,2,B|368:8|440:72,1,100.000000298023
368,192,26095,1,2
320,328,26289,2,2,B|368:376|440:312,1,100.000000298023
424,192,26676,1,2
256,192,26869,1,0
336,120,27063,6,0,B|240:16|144:152,1,200.000000596046
112,288,28901,1,0
112,288,28998,5,0
112,288,29094,1,0
200,288,29191,1,0
200,288,29288,1,0
296,328,29481,5,0
296,328,29578,1,0
296,328,29675,1,0
376,288,29771,1,0
376,288,29868,6,0,B|376:239,2,50.0000001490115
376,144,30159,2,0,B|272:144,1,100.000000298023
276,144,30449,1,0
276,144,30546,1,0
152,48,30739,2,0,B|280:48,1,100.000000298023
360,48,31126,2,0,B|464:104,1,100.000000298023
464,176,31417,1,0
456,256,31513,1,0
400,344,31707,2,0,B|304:264,1,100.000000298023
208,280,31997,1,0
208,280,32094,1,0
208,280,32191,1,0
112,240,32287,1,0
112,240,32384,1,0
112,96,32578,5,0
112,96,32674,1,0
112,96,32771,1,0
192,96,32868,1,0
192,96,32965,6,0,B|224:144,2,50.0000001490115
256,40,33255,1,0
312,104,33352,1,0
368,40,33449,1,0
400,120,33545,1,0
464,64,33642,1,0
472,168,33739,1,0
416,224,33836,1,0
296,192,34029,1,0
216,192,34126,1,0
256,256,34223,1,0
200,328,34319,2,0,B|72:328,1,100.000000298023
56,40,34803,1,0
200,184,35094,5,0
200,184,35190,1,0
200,184,35287,1,0
200,112,35384,1,0
200,112,35481,1,0
312,112,35674,5,0
312,112,35771,1,0
312,112,35868,1,0
312,192,35964,1,0
312,192,36061,6,0,B|312:248,2,50.0000001490115
392,192,36351,1,0
456,256,36448,1,0
376,296,36545,1,0
304,344,36642,1,0
208,344,36738,1,0
96,328,36835,2,0,B|160:264,1,50.0000001490115
32,184,37126,1,0
112,192,37222,2,0,B|144:128,1,50.0000001490115
104,48,37416,2,0,B|184:48,1,50.0000001490115
456,320,37900,1,0
456,192,38190,5,0
456,192,38287,1,0
456,192,38383,1,0
376,192,38480,1,0
376,192,38577,1,0
304,104,38770,5,0
304,104,38867,1,0
304,104,38964,1,0
208,104,39061,1,0
208,104,39158,6,0,B|160:152,2,50.0000001490115
256,192,39448,1,0
456,56,39835,1,0
456,320,40222,1,0
256,304,40415,2,0,B|256:328,4,25.0000000745058
256,96,40802,2,0,B|256:72,4,25.0000000745058
144,136,41190,5,0
72,152,41286,1,0
64,224,41383,1,8
152,336,41577,1,0
152,336,41673,2,0,B|256:336,1,100.000000298023
256,336,41964,1,0
216,264,42157,1,0
296,256,42254,1,0
376,280,42351,1,0
456,320,42447,1,0
440,240,42544,5,0
408,104,42738,2,0,B|464:104,2,50.0000001490115,0|0|8
320,104,43028,1,0
256,48,43125,1,0
216,192,43318,1,0
168,328,43512,2,8,B|120:360|56:328,1,100.000000298023,0|8
96,192,43899,1,0
256,192,44092,5,0
440,72,44479,1,8
312,48,44673,1,0
312,48,44770,2,0,B|208:48,1,100.000000298023
208,48,45060,1,0
96,40,45254,1,8
48,96,45350,1,0
112,144,45447,1,0
184,176,45544,1,0
120,232,45641,5,0
256,192,45834,2,0,B|312:192,2,50.0000001490115,0|0|8
400,232,46221,1,0
296,320,46415,1,0
160,320,46608,2,0,B|184:320,2,25.0000000745058
80,320,46802,1,8
80,320,46898,1,0
80,320,46995,1,0
80,320,47092,1,0
80,248,47189,5,0
224,192,47382,2,0,B|224:128,2,50.0000001490115,0|0|8
352,320,47769,1,0
352,320,47866,2,0,B|352:216,1,100.000000298023
352,216,48156,1,0
256,112,48350,1,8
256,112,48447,6,0,B|256:56,2,50.0000001490115
176,112,48737,1,0
112,224,48930,2,0,B|72:264|112:336|120:336,1,100.000000298023,0|8
256,328,49318,1,0
256,144,49511,1,0
384,224,49705,2,0,B|408:272|384:320,1,100.000000298023,0|8
256,240,50092,1,0
256,40,50285,5,0
128,64,50479,1,0
72,128,50575,1,0
128,192,50672,1,8
56,320,50866,1,0
56,320,50962,2,0,B|160:320,1,100.000000298023
156,320,51253,1,0
224,352,51446,1,8
304,336,51543,1,0
376,304,51640,1,0
432,248,51737,1,0
360,200,51833,5,0
208,240,52027,2,0,B|176:200|208:136,1,100.000000298023,0|8
360,200,52414,1,0
472,80,52607,1,0
256,64,52801,2,0,B|256:128,1,50.0000001490115
256,184,52994,2,0,B|280:184,2,25.0000000745058,8|0|0
256,256,53188,1,0
112,320,53381,5,0
112,192,53574,2,0,B|160:192|160:192|160:216|208:216|216:216,1,100.000000298023,0|8
256,48,53962,2,0,B|256:176,2,100.000000298023
400,192,54542,2,0,B|352:192|352:192|352:216|304:216|296:216,1,100.000000298023,8|0
256,280,54832,1,0
312,344,54929,2,0,B|368:344|424:344,1,100.000000298023
464,280,55219,1,0
464,200,55316,2,0,B|464:144|424:96,1,100.000000298023,8|0
352,112,55606,1,0
352,32,55704,6,0,B|376:32,2,25.0000000745058,0|0|0
256,192,56090,1,8
256,112,56187,1,0
256,32,56283,2,0,B|224:32|184:56|176:104,1,100.000000298023
136,152,56574,1,0
56,152,56670,2,0,B|32:192|32:248,1,100.000000298023
96,304,56961,1,0
176,344,57057,6,0,B|176:280|224:264|224:264,2,100.000000298023
312,336,57638,1,8
312,256,57735,1,0
392,280,57832,1,0
464,336,57928,1,0
464,256,58025,2,0,B|464:208|464:208|440:208|440:168,1,100.000000298023
472,104,58315,1,0
448,24,58412,2,0,B|408:40|392:64|392:104,1,100.000000298023,8|0
352,160,58702,6,0,B|304:200|248:144,1,100.000000298023
152,56,59089,2,0,B|152:32,1,25.0000000745058
80,128,59283,2,0,B|80:104,1,25.0000000745058
80,304,59573,1,0
80,224,59670,2,0,B|192:224,1,100.000000298023,0|0
224,288,59960,6,0,B|296:216,3,100.000000298023,8|0|0|0
304,344,60734,1,8
344,272,60831,1,0
408,312,60928,1,0
464,256,61025,1,0
408,200,61121,2,0,B|376:152|320:152,1,100.000000298023
256,192,61412,1,0
184,152,61508,2,0,B|126:153|96:201|89:196,1,100.000000298023,8|0
256,24,61896,2,0,B|256:80,1,50.0000001490115
80,48,62186,1,0
80,48,62234,6,0,B|80:73,1,25.0000000745058,0|8
72,280,62476,1,0
256,344,62670,2,0,B|168:264,1,100.000000298023
232,216,62960,1,0
304,216,63058,2,0,B|304:320,3,100.000000298023,8|0|0|0
384,328,63831,1,8
456,288,63928,1,0
392,240,64024,1,0
456,200,64121,1,0
408,136,64218,5,0
480,32,64411,1,0
360,40,64605,6,0,B|352:88|320:112|256:96,1,100.000000298023
192,128,64993,1,0
256,192,65089,2,0,B|256:160,4,25.0000000745058
256,280,65379,1,8
256,280,65476,1,0
256,280,65572,1,0
256,280,65669,1,0
256,280,65766,1,0
96,64,68863,6,0,B|176:112,1,75.0000002235173
256,72,69636,5,0
256,72,69732,1,0
256,72,69829,1,0
256,72,69926,1,0
256,72,70023,1,0
256,184,70216,1,0
256,184,70313,1,0
256,184,70410,1,0
336,112,70603,6,0,B|408:32,1,100.000000298023
464,192,70990,1,0
464,192,71184,1,0
408,336,71377,2,0,B|336:264,1,100.000000298023
256,344,71766,1,0
256,344,71958,1,0
256,192,72151,2,0,B|184:120,1,100.000000298023
256,32,72538,5,0
256,32,72732,1,0
256,192,72925,2,0,B|184:272,1,100.000000298023
256,192,73312,2,0,B|328:120,1,100.000000298023
256,192,73699,6,0,B|344:272,1,100.000000298023
256,352,74087,1,0
256,352,74280,1,0
128,320,74476,1,0
112,192,74669,2,0,B|112:136,2,50.0000001490115
48,40,75054,1,0
176,40,75248,6,0,B|264:104,1,100.000000298023
112,192,75635,1,0
112,192,75830,1,0
272,200,76024,2,0,B|168:128,1,100.000000298023
352,200,76411,2,0,B|352:144,2,50.0000001490115
248,288,76796,2,0,B|216:312|168:352,1,100.000000298023
256,192,77183,5,0
256,192,77376,1,0
432,192,77570,2,0,B|456:152|448:88,1,100.000000298023
256,40,77957,1,0
256,40,78151,1,0
72,96,78344,2,0,B|61:141|88:199,1,100.000000298023
256,128,78731,5,0
256,128,78925,1,0
392,192,79118,1,0
256,272,79314,2,0,B|192:272,4,50.0000001490115
104,192,79892,5,0
192,328,80086,2,0,B|192:216,1,100.000000298023
344,280,80475,1,0
392,80,80765,2,0,B|376:56|296:48,1,100.000000298023
168,88,81249,2,0,B|128:120,2,50.0000001490115
136,288,81636,2,0,B|136:320|136:344,2,50.0000001490115
232,192,82023,2,0,B|288:192,1,50.0000001490115
384,272,82313,2,0,B|384:328,5,50.0000001490115
72,96,83182,5,0
256,96,83472,1,0
256,192,83666,1,0
256,192,83763,1,0
376,280,84053,2,0,B|336:248,5,50.0000001490115
256,296,84634,2,0,B|256:352,2,50.0000001490115
168,256,84924,2,0,B|104:304,5,50.0000001490115
256,192,85504,12,0,85891
256,248,86278,1,8
104,160,86471,2,0,B|160:160|160:160|160:192|208:192,1,100.000000298023
256,80,86859,1,0
408,160,87052,2,0,B|352:160|352:160|352:192|304:192,1,100.000000298023,8|0
384,248,87342,1,0
456,296,87439,1,0
304,336,87632,2,0,B|272:312|224:312|192:352,1,100.000000298023,0|8
256,192,88019,1,0
368,72,88214,2,0,B|368:40,2,30.0000001490115
192,80,88600,1,8
56,56,88794,5,0
72,192,88987,2,0,B|104:240|160:240|160:232,1,100.000000298023
192,80,89375,2,0,B|128:192,3,100.000000298023
256,80,90149,1,8
320,32,90245,1,0
376,96,90343,1,0
384,176,90438,1,0
304,152,90536,6,0,B|264:192|240:240|264:296|312:336,1,200.000000596046,0|8
112,328,91117,1,0
40,176,91407,1,0
88,48,91600,2,0,B|104:72,1,30.0000001490115
200,152,91891,1,0
304,40,92083,2,0,B|392:128|392:120,1,100.000000298023
256,192,92471,5,8
376,208,92665,2,0,B|288:128,2,100.000000298023
312,280,93245,1,8
240,296,93341,1,0
168,320,93439,1,0
96,344,93535,1,0
48,280,93632,6,0,B|24:256|24:208|48:168,1,100.000000298023
128,72,94018,1,8
128,224,94212,1,0
232,72,94406,2,0,B|280:104,1,50.0000001490115
400,112,94697,1,0
344,184,94794,2,0,B|320:184,2,25.0000000745058
400,248,94987,1,0
256,296,95181,5,0
256,192,95373,2,0,B|256:80,1,100.000000298023,0|8
96,56,95760,2,0,B|200:56,2,100.000000298023
32,160,96342,1,8
88,216,96438,1,0
56,288,96535,1,0
136,304,96631,1,0
208,320,96728,1,0
256,192,96921,1,0
208,80,97116,2,0,B|312:32,1,100.000000298023
256,192,97503,1,0
384,232,97600,2,0,B|400:208,4,25.0000000745058
480,112,97890,2,0,B|448:152,3,50.0000001490115
360,80,98277,5,0
208,80,98470,2,8,B|208:24|136:48|88:72,1,100.000000298023,0|8
40,144,98858,2,0,B|120:208,2,100.000000298023
40,280,99438,1,8
104,336,99534,1,0
176,296,99632,1,0
240,336,99727,1,0
312,288,99825,2,0,B|272:280|240:256|232:224,1,100.000000298023
400,256,100211,6,0,B|381:219|349:195|316:196,1,100.000000298023,8|0
256,56,100599,2,0,B|256:30,2,25.0000000745058
160,192,100985,1,8
256,56,101180,5,0
448,72,101372,1,0
336,144,101566,2,0,B|272:144|248:176|264:240,1,100.000000298023
256,336,101954,2,0,B|152:336,2,100.000000298023
256,192,102534,1,8
328,208,102630,1,0
384,256,102727,1,0
448,216,102824,1,0
472,144,102921,5,0
392,48,103114,2,8,B|336:48|336:48|336:72|280:72,1,100.000000298023,0|8
184,192,103502,1,0
184,48,103792,1,0
96,112,103986,2,0,B|72:144,2,25.0000000745058
88,272,104276,5,0
256,336,104469,2,0,B|256:272|256:272|232:232,1,100.000000298023
360,192,104856,1,8
232,136,105049,2,0,B|256:104|256:104|256:32,1,100.000000298023
360,192,105436,1,0
432,64,105631,1,8
480,128,105727,1,0
432,200,105823,1,0
440,272,105920,1,0
384,328,106017,6,0,B|360:304|360:304|320:304|320:304|288:344,1,100.000000298023
256,192,106405,1,8
184,320,106598,1,0
64,240,106792,2,0,B|64:184,1,50.0000001490115
64,64,107082,2,0,B|120:64,1,50.0000001490115,0|8
184,64,107227,1,0
256,192,107373,5,0
336,64,107565,2,0,B|408:56|424:128,1,100.000000298023
256,192,107953,1,8
416,264,108146,2,0,B|400:336|320:336,1,100.000000298023
216,328,108533,6,0,B|240:272|312:272,1,100.000000298023,0|8
344,216,108823,1,0
400,176,108920,1,0
464,144,109017,1,0
464,64,109113,2,0,B|352:64,1,100.000000298023
240,72,109501,1,0
176,112,109598,1,0
136,176,109695,1,0
120,248,109792,1,0
120,320,109887,2,0,B|176:320,8,50.0000001490115,0|0|0|0|0|0|0|0|4
