osu file format v9

[General]
AudioFilename: !.mp3
AudioLeadIn: 0
PreviewTime: -1
Countdown: 0
SampleSet: Soft
StackLeniency: 0.7
Mode: 0
LetterboxInBreaks: 1

[Editor]
DistanceSpacing: 1.2
BeatDivisor: 4
GridSize: 8

[Metadata]
Title:!
Artist:Onyx
Creator:Aliasss
Version:Hard
Source:In the groove 2
Tags:

[Difficulty]
HPDrainRate:5
CircleSize:4
OverallDifficulty:5
ApproachRate:6
SliderMultiplier:1.80000000596046
SliderTickRate:2

[Events]
//Background and Video events
0,0,"!-bg.png"
//Break Periods
2,65967,67813
//Storyboard Layer 0 (Background)
//Storyboard Layer 1 (Fail)
//Storyboard Layer 2 (Pass)
//Storyboard Layer 3 (Foreground)
//Storyboard Sound Samples
//Background Colour Transformations
3,100,163,162,255

[TimingPoints]
-30,387.046832666753,4,2,0,78,1,0
27063,1546.39175257732,4,2,0,78,1,0
28611,387.046832666753,4,2,0,78,1,0
53381,387.046832666753,4,2,0,78,1,1
65960,387.046832666753,4,2,0,78,1,0
68863,1546.39175257732,4,2,0,78,1,0
69636,387.046832666753,4,2,0,78,1,0
85891,387.046832666753,4,2,0,78,1,1
110661,387.046832666753,4,2,0,78,1,0

[Colours]
Combo1 : 254,156,24
Combo2 : 3,171,3
Combo3 : 3,3,154
Combo4 : 189,4,4
Combo5 : 206,217,9
Combo6 : 117,4,140
Combo7 : 211,211,211

[HitObjects]
72,136,5388,1,0
168,80,5582,2,0,B|280:80|280:80,1,90.000000298023
352,32,5969,2,0,B|432:112,1,90.000000298023
360,192,6356,1,0
256,192,6549,6,0,B|160:192,2,90.000000298023
472,192,7323,1,0
360,192,7517,6,0,B|360:296|360:296,2,90.000000298023
256,192,8097,2,0,B|184:280,1,90.000000298023
256,352,8485,1,0
40,112,9065,5,0
352,32,9646,2,0,B|336:48|336:48|320:64|288:96,2,90.000000298023
480,192,10420,1,0
336,120,10710,5,0
336,120,10807,2,0,B|336:232,1,90.000000298023
424,144,11194,1,0
472,240,11387,2,0,B|472:344,1,90.000000298023
360,336,11774,1,0
256,336,11968,2,0,B|256:312|256:240,2,90.000000298023
256,120,12742,1,0
328,200,12936,6,0,B|248:264,1,90.000000298023
184,336,13323,1,0
80,336,13516,2,0,B|24:264,1,90.000000298023
104,192,13903,1,0
432,192,14484,5,0
112,192,15064,2,0,B|32:152|32:152,2,90.000000298023
256,352,15838,1,0
216,136,16225,6,0,B|320:136,1,90.000000298023
360,40,16613,2,0,B|456:40,1,90.000000298023
472,144,17000,2,0,B|472:240,1,90.000000298023
368,192,17387,1,0
408,288,17580,2,0,B|312:288,1,90.000000298023
256,80,18161,1,0
256,184,18354,5,0
256,296,18548,2,0,B|160:296,1,90.000000298023
72,344,18935,1,0
40,240,19128,2,0,B|40:144,1,90.000000298023
48,40,19515,1,0
256,104,19902,5,0
472,352,20483,2,0,B|360:352|360:352,2,90.000000298023
296,232,21257,1,0
336,24,21644,1,0
424,80,21838,2,0,B|344:136,1,90.000000298023
440,192,22225,2,0,B|368:248|368:248,1,90.000000298023
160,192,22805,6,0,B|88:256,2,90.000000298023
360,272,23579,1,0
152,336,23966,6,0,B|56:336|56:336,2,90.000000298023
128,232,24547,2,0,B|128:136,1,90.000000298023
448,192,25321,1,0
232,168,25708,5,0
136,112,25902,1,0
216,40,26095,1,0
328,32,26289,1,0
432,56,26482,1,0
464,160,26676,1,0
336,168,27063,6,0,B|256:88|160:176,1,180.000000596046
88,232,28804,5,0
120,336,28998,2,0,B|216:336,1,90.000000298023
320,336,29385,2,0,B|376:264,1,90.000000298023
456,192,29772,2,0,B|488:144,3,45.0000001490115
120,32,30739,1,0
120,248,31126,1,0
440,192,31707,1,0
440,88,31900,5,0
336,64,32094,2,0,B|272:136,1,90.000000298023
184,64,32481,2,0,B|248:136,1,90.000000298023
256,240,32868,2,0,B|256:312,3,45.0000001490115
456,320,34416,5,0
464,104,34803,1,0
408,200,34997,1,0
320,264,35190,2,0,B|248:344,1,90.000000298023
192,240,35577,2,0,B|264:160,1,90.000000298023
256,64,35964,2,0,B|256:16,3,45.0000001490115
40,328,36932,5,0
256,344,37319,2,0,B|256:232,1,90.000000298023
464,192,37900,1,0
464,88,38093,5,0
368,32,38287,2,0,B|248:32,1,90.000000298023
256,136,38674,6,0,B|256:232,1,90.000000298023
152,192,39061,2,0,B|152:144,3,45.0000001490115
152,184,39448,5,0
344,288,39835,1,0
136,336,40222,1,0
80,240,40415,2,0,B|80:264,4,15.0000000745058
80,136,40802,2,0,B|80:120,4,15.0000000745058
312,40,41383,5,8
296,144,41577,2,0,B|296:256,1,90.000000298023
392,288,41964,2,0,B|392:176,1,90.000000298023,0|8
448,192,42254,2,0,B|448:144,3,45.0000001490115,0|0|0|0
256,48,42931,1,8
192,256,43318,1,0
400,192,43705,1,8
256,352,44092,5,0
144,344,44286,2,0,B|56:264,1,90.000000298023,0|8
48,192,44673,2,0,B|48:88,1,90.000000298023
160,104,45060,2,0,B|160:200,1,90.000000298023,0|8
160,192,45350,2,0,B|208:192,3,45.0000001490115,0|0|0|0
352,40,46028,1,8
256,192,46415,1,0
256,296,46608,6,0,B|224:296,2,22.5000000745057
256,352,46802,2,0,B|304:352,4,45.0000001490115
464,280,47576,2,0,B|464:184,1,90.000000298023
472,80,47963,2,0,B|368:40,1,90.000000298023
360,152,48350,2,0,B|360:200,3,45.0000001490115,8|0|0|0
360,200,48737,5,0
200,48,49124,1,8
40,192,49511,1,0
256,192,49898,1,8
88,328,50285,5,0
192,344,50479,2,0,B|240:256,1,90.000000298023,0|8
320,344,50866,2,0,B|272:256,1,90.000000298023,0|8
384,264,51253,1,0
464,192,51446,2,0,B|464:136,3,45.0000001490115,8|0|0|0
464,144,51833,5,0
256,192,52220,1,8
40,192,52607,1,0
88,96,52801,2,0,B|88:56,8,22.5000000745058
192,112,53381,5,0
256,24,53575,1,0
320,112,53769,1,8
256,192,53962,2,0,B|256:96,2,90.000000298023
368,192,54543,2,0,B|368:288,1,90.000000298023,8|0
256,328,54930,1,0
256,328,55123,1,0
160,280,55317,2,0,B|160:176,1,90.000000298023,8|0
256,144,55704,6,0,B|256:112,2,22.5000000745058
416,136,56091,1,8
440,240,56284,1,0
440,248,56478,1,0
408,352,56671,2,0,B|336:280,1,90.000000298023,0|8
256,216,57058,2,0,B|256:168|312:152|312:152,2,90.000000298023
256,328,57639,1,8
160,288,57833,2,0,B|80:352,1,90.000000298023
24,256,58220,2,0,B|120:184,1,90.000000298023,0|8
40,112,58607,2,0,B|96:40,1,90.000000298023
152,48,58897,5,0
256,48,59090,2,0,B|256:128,2,67.5000002235172
368,48,59574,5,0
352,152,59768,1,0
256,192,59961,2,0,B|184:136,2,90.000000298023,8|0|0
256,304,60542,1,0
360,344,60735,2,0,B|440:288,1,90.000000298023,8|0
440,184,61122,1,0
440,184,61316,1,0
448,80,61509,2,0,B|368:40,1,90.000000298023,8|0
256,48,61896,5,0
256,48,61992,1,0
256,160,62186,2,0,B|256:208,2,45.0000001490115
256,320,62671,5,0
256,320,62864,1,0
144,320,63058,2,0,B|24:320,2,90.000000298023,8|0|0
200,232,63638,1,0
256,320,63832,1,8
360,320,64025,2,0,B|312:232,1,90.000000298023
424,240,64412,1,0
480,144,64606,6,0,B|408:80,1,90.000000298023
320,56,64993,1,0
256,56,65089,2,0,B|256:32,4,22.5000000745057
256,120,65380,2,0,B|256:184,4,45.0000001490115,0|0|0|0|4
256,32,68863,6,0,B|328:32,1,67.5000002235173
432,80,69637,6,0,B|456:40,4,45.0000001490115
336,136,70218,2,0,B|296:104,2,45.0000001490115
416,208,70603,6,0,B|480:144,1,90.000000298023
480,256,70990,1,0
416,344,71184,1,0
328,280,71377,2,0,B|264:216,1,90.000000298023
256,328,71766,1,0
184,248,71958,1,0
128,336,72151,2,0,B|56:272,1,90.000000298023
128,192,72538,5,0
80,96,72732,1,0
184,96,72925,2,0,B|248:160,1,90.000000298023
352,168,73312,2,0,B|272:240,1,90.000000298023
296,336,73699,6,0,B|360:272,1,90.000000298023
248,280,74087,2,0,B|184:216,1,90.000000298023
152,112,74476,1,0
256,88,74669,2,0,B|256:40,2,45.0000001490115
360,56,75054,1,0
432,136,75248,6,0,B|360:192,1,90.000000298023
256,192,75635,1,0
256,192,75830,1,0
360,192,76024,2,0,B|432:248,1,90.000000298023
360,328,76411,2,0,B|360:280,2,45.0000001490115
256,304,76796,2,0,B|224:328|184:360,1,90.000000298023
80,344,77183,5,0
80,344,77376,1,0
72,240,77570,2,0,B|152:192,1,90.000000298023
64,120,77957,1,0
64,120,78151,1,0
168,104,78344,2,0,B|248:160|248:160,1,90.000000298023
256,48,78731,1,0
344,104,78925,6,0,B|256:160,1,90.000000298023
256,264,79314,2,0,B|256:320,4,45.0000001490115
336,336,79892,6,0,B|464:336,1,90.000000298023
464,232,80279,2,0,B|424:152,1,90.000000298023
296,48,80765,2,0,B|248:8|208:56,1,90.000000298023
64,104,81249,2,0,B|32:136,2,45.0000001490115
128,192,81636,2,0,B|128:240|128:240,2,45.0000001490115
240,192,82023,2,0,B|288:192,1,45.0000001490115
392,192,82313,2,0,B|392:240,5,45.0000001490115
256,192,83182,12,0,85891
224,192,86279,2,0,B|128:192,1,90.000000298023
152,88,86666,1,0
256,88,86859,1,0
280,192,87053,2,0,B|384:192,1,90.000000298023
480,192,87440,2,0,B|431:255|328:288,1,180.000000596046
120,344,88214,2,0,B|120:296,2,45.0000001490115
48,144,88794,5,0
48,144,88988,1,0
144,192,89181,1,0
256,192,89375,2,0,B|256:96,3,90.000000298023
168,40,90149,2,0,B|72:40,1,90.000000298023
112,144,90536,2,0,B|48:128|8:192|48:248|128:232,1,180.000000596046
136,336,91117,5,0
200,192,91407,1,0
304,192,91600,2,0,B|304:240,3,45.0000001490115
256,336,92084,1,0
256,224,92278,1,0
344,288,92471,5,0
400,192,92665,2,0,B|304:192,2,90.000000298023
352,96,93245,1,0
448,48,93439,1,0
480,152,93632,2,0,B|384:200|552:248|464:312,1,180.000000596046
256,280,94406,1,0
256,280,94502,1,0
320,192,94697,1,0
256,192,94794,2,0,B|256:160,2,22.5000000745057
192,192,94987,1,0
200,80,95181,6,0,B|128:144,1,90.000000298023
40,192,95568,1,0
136,240,95761,2,0,B|224:312|224:312,1,90.000000298023
256,200,96148,1,0
312,296,96342,2,0,B|392:232,1,90.000000298023
64,192,97116,2,0,B|64:96,1,90.000000298023
160,144,97503,1,0
216,144,97600,2,0,B|216:104,4,22.5000000745058
272,144,97890,2,0,B|272:192,4,45.0000001490115
256,40,98470,5,0
360,64,98664,1,0
464,40,98858,2,0,B|464:136,2,90.000000298023
360,64,99437,2,0,B|296:104|296:184|368:240,1,180.000000596046
448,192,100018,2,0,B|448:304,1,90.000000298023
344,248,100405,1,0
256,200,100599,2,0,B|256:240,2,22.5000000745057
40,32,101180,5,0
144,32,101373,2,0,B|80:104,1,90.000000298023
32,192,101760,1,0
144,200,101954,2,0,B|224:112,2,90.000000298023
248,192,102534,1,0
360,192,102728,2,0,B|360:144|376:104|432:80|488:88,1,180.000000894069
472,192,103308,1,0
360,192,103502,1,0
256,64,103792,1,0
168,120,103986,2,0,B|168:152,2,22.5000000745057
160,224,104276,5,0
256,192,104470,1,0
256,296,104663,1,0
152,336,104857,2,0,B|56:336,3,90.000000298023
64,232,105630,2,0,B|16:192|16:104|80:40,1,180.000000596046
152,120,106210,1,0
256,160,106405,1,0
256,48,106791,1,0
256,48,106888,1,0
360,48,107081,6,0,B|416:48,3,45.0000001490115
368,152,107566,1,0
472,192,107760,1,0
376,240,107953,1,0
472,296,108147,1,0
376,344,108340,1,0
272,304,108534,1,0
256,184,108727,6,0,B|256:152|240:120|184:136,1,90.0000004470345
192,240,109114,1,0
104,304,109308,1,0
88,216,109501,1,0
96,160,109598,1,0
120,112,109695,1,0
152,72,109792,1,0
200,48,109888,2,0,B|248:48,8,45.0000001490115,0|0|0|0|0|0|0|0|4
