osu file format v14

[General]
AudioFilename: OP.mp3
AudioLeadIn: 1000
PreviewTime: 55327
Countdown: 0
SampleSet: Soft
StackLeniency: 0.7
Mode: 0
LetterboxInBreaks: 0
WidescreenStoryboard: 0

[Editor]
DistanceSpacing: 1.1
BeatDivisor: 4
GridSize: 4
TimelineZoom: 1

[Metadata]
Title:Orange Mint
TitleUnicode:オレンジミント
Artist:Ononoki Yotsugi(Hayami Saori)
ArtistUnicode:斧乃木余接(早見沙織)
Creator:Ranger
Version:Normal
Source:憑物語
Tags:tsukimonogatari opening meg rock ミト mito
BeatmapID:603837
BeatmapSetID:263217

[Difficulty]
HPDrainRate:4
CircleSize:3.5
OverallDifficulty:4
ApproachRate:5
SliderMultiplier:1.4
SliderTickRate:1

[Events]
//Background and Video events
Video,0,"video.avi"
0,0,"Image.jpg",0,0
//Break Periods
//Storyboard Layer 0 (Background)
//Storyboard Layer 1 (Fail)
//Storyboard Layer 2 (Pass)
//Storyboard Layer 3 (Foreground)
//Storyboard Sound Samples

[TimingPoints]
737,491.803278688525,4,2,1,55,1,0
737,-100,4,2,1,55,0,0
8605,-100,4,2,1,65,0,0
24343,-100,4,2,1,60,0,0
40081,-100,4,2,1,70,0,0
44015,-100,4,2,1,40,0,0
44138,-100,4,2,1,70,0,0
55818,-100,4,2,1,80,0,1
71556,-100,4,2,1,80,0,0

[Colours]
Combo1 : 255,192,0
Combo2 : 70,255,70
Combo3 : 128,255,255
Combo4 : 247,113,133

[HitObjects]
416,40,737,6,0,P|432:108|416:176,1,140,2|0,0:0|0:0,0:0:0:0:
304,280,1720,2,0,P|288:212|304:144,1,140,2|0,0:0|0:0,0:0:0:0:
200,32,2704,6,0,P|84:60|56:220,1,280,2|2,0:0|0:0,0:0:0:0:
200,176,4179,1,0,0:0:0:0:
308,284,4671,6,0,P|344:336|416:336,1,140,2|0,0:0|0:0,0:0:0:0:
400,180,5655,2,0,P|359:125|292:127,1,140,2|0,0:0|0:0,0:0:0:0:
140,104,6638,6,0,L|28:188,1,140,2|0,0:0|0:0,0:0:0:0:
80,332,7622,1,2,0:0:0:0:
180,216,8114,1,2,0:0:0:0:
332,244,8605,5,4,0:0:0:0:
452,148,9097,2,0,P|400:96|336:96,1,140,2|0,0:0|0:0,0:0:0:0:
220,196,10081,2,0,P|100:172|80:32,2,280,2|2|2,0:0|0:0|0:0,0:0:0:0:
112,304,12540,5,4,0:0:0:0:
264,276,13032,2,0,P|324:308|392:288,1,140,2|0,0:0|0:0,0:0:0:0:
460,152,14015,2,0,B|428:80|428:80|320:152|276:20,2,280,2|2|2,0:0|0:0|0:0,0:0:0:0:
376,280,16474,5,4,0:0:0:0:
228,316,16966,2,0,P|160:336|92:312,1,140,2|0,0:0|0:0,0:0:0:0:
64,164,17950,2,0,B|128:124|128:124|164:140|208:160|256:112|256:112|264:44,2,280,2|2|2,0:0|0:0|0:0,0:0:0:0:
116,308,20409,5,4,0:0:0:0:
256,248,20900,2,0,P|324:224|392:224,2,140,2|0|2,0:0|0:0|0:0,0:0:0:0:
260,92,22376,1,0,0:0:0:0:
116,148,22868,1,2,0:0:0:0:
172,292,23359,2,0,L|156:360,2,70,2|2|2,0:0|0:0|0:0,0:0:0:0:
328,300,24343,6,0,B|396:260|396:260|352:184|396:140,1,210,2|0,0:0|0:0,0:0:0:0:
348,80,25327,2,0,P|296:80|260:44,1,105,0|2,0:0|0:0,0:0:0:0:
108,100,26310,6,0,P|80:168|104:228,1,140,2|0,0:0|0:0,0:0:0:0:
168,268,27048,1,0,0:0:0:0:
168,268,27294,2,0,P|232:208|316:216,1,175,2|2,0:0|0:0,0:0:0:0:
400,140,28277,6,0,B|340:68|264:112|264:112|216:84,1,210,2|0,0:0|0:0,0:0:0:0:
140,108,29261,2,0,P|88:128|60:168,1,105,0|2,0:0|0:0,0:0:0:0:
196,304,30245,6,0,P|300:312|368:240,1,210,2|0,0:0|0:0,0:0:0:0:
308,192,31228,1,2,0:0:0:0:
308,192,31474,2,0,P|256:192|216:224,1,105,0|2,0:0|0:0,0:0:0:0:
116,284,32212,6,0,B|84:228|132:184|132:184|180:140|152:88,1,210,2|0,0:0|0:0,0:0:0:0:
112,32,33196,2,0,P|164:20|212:40,1,105,0|2,0:0|0:0,0:0:0:0:
384,124,34179,6,0,P|304:196|204:196,1,210,2|2,0:0|0:0,0:0:0:0:
164,132,35163,1,0,0:0:0:0:
164,132,35409,2,0,P|112:140|72:176,1,105,0|2,0:0|0:0,0:0:0:0:
108,284,36146,6,0,B|208:224|208:344|304:280,1,210,2|0,0:0|0:0,0:0:0:0:
372,248,37130,2,0,P|335:211|284:205,1,105,0|2,0:0|0:0,0:0:0:0:
300,92,37868,5,0,0:0:0:0:
300,92,38114,2,0,P|404:84|452:168,1,210,2|0,0:0|0:0,0:0:0:0:
456,244,39097,1,2,0:0:0:0:
456,244,39343,2,0,P|424:288|372:296,1,105,0|2,0:0|0:0,0:0:0:0:
292,216,40081,5,4,0:0:0:0:
292,216,40327,2,0,L|244:268,1,70,0|2,0:0|0:0,0:0:0:0:
192,324,40818,1,0,0:0:0:0:
128,280,41064,2,0,P|96:292|64:312,2,70,0|0|2,0:0|0:0|0:0,0:0:0:0:
196,244,41802,6,0,P|236:184|216:120,1,140
176,56,42540,1,2,0:0:0:0:
176,56,42786,2,0,P|136:116|156:180,1,140
196,244,43523,1,2,0:0:0:0:
268,272,43769,1,0,0:0:0:0:
296,200,44015,6,0,P|324:136|292:80,1,140,4|2,0:0|0:0,0:0:0:0:
240,136,44753,2,0,P|212:72|244:16,2,140
184,188,45982,6,0,P|116:208|80:268,1,140,0|2,0:0|0:0,0:0:0:0:
52,336,46720,1,0,0:0:0:0:
128,324,46966,2,0,L|200:312,2,70,0|0|2,0:0|0:0|0:0,0:0:0:0:
80,264,47704,2,0,L|68:192,1,70,0|4,0:0|0:0,0:0:0:0:
60,120,48196,1,0,0:0:0:0:
200,64,48687,5,0,0:0:0:0:
200,64,48933,2,0,L|268:40,2,70,0|0|2,0:0|0:0|0:0,0:0:0:0:
168,136,49671,2,0,P|216:188|280:180,1,140,0|0,0:0|0:0,0:0:0:0:
412,260,50655,6,0,P|368:312|300:332,1,140,0|2,0:0|0:0,0:0:0:0:
236,292,51392,1,0,0:0:0:0:
176,244,51638,1,0,0:0:0:0:
124,188,51884,6,0,P|96:168|64:140,2,70,4|0|2,0:0|0:0|0:0,0:0:0:0:
152,116,52622,2,0,P|130:89|106:54,2,70,0|0|0,0:0|0:0|0:0,0:0:0:0:
220,80,53359,2,0,P|205:48|192:8,2,70,2|0|4,0:0|0:0|0:0,0:0:0:0:
292,108,54097,5,0,0:0:0:0:
364,132,54343,2,0,P|400:144|432:144,1,70,2|0,0:0|0:0,0:0:0:0:
460,216,54835,2,0,P|424:228|392:228,1,70
316,232,55327,2,0,P|256:260|192:228,1,140,2|4,0:0|0:0,0:0:0:0:
212,76,56310,6,0,P|172:88|144:108,1,70,2|0,0:0|0:0,0:0:0:0:
124,176,56802,2,0,P|92:196|68:224,1,70
116,284,57294,1,2,2:0:0:0:
116,284,57540,2,0,P|214:256|289:323,1,210,0|2,0:0|0:0,2:0:0:0:
364,316,58523,6,0,L|436:292,1,70
476,232,59015,1,0,0:0:0:0:
476,232,59261,2,0,P|416:196|408:132,1,140,2|0,0:0|0:0,0:0:0:0:
228,76,60245,5,2,0:0:0:0:
228,76,60491,2,0,P|168:92|128:156,1,140
176,216,61228,1,2,0:0:0:0:
176,216,61474,2,0,P|236:200|276:136,1,140
320,72,62212,1,2,0:0:0:0:
320,72,62458,1,0,0:0:0:0:
192,264,63196,6,0,P|256:288|324:264,1,140,2|4,0:0|0:0,0:0:0:0:
436,160,64179,1,2,0:0:0:0:
436,160,64425,2,0,P|436:112|376:44,1,140
300,40,65163,5,2,0:0:0:0:
300,40,65409,2,0,P|192:52|136:128,1,210,0|2,0:0|0:0,0:0:0:0:
160,200,66392,1,0,0:0:0:0:
160,200,66638,2,0,P|112:252|40:260,2,140,0|2|0,0:0|0:0|0:0,0:0:0:0:
304,256,68114,5,2,0:0:0:0:
304,256,68359,2,0,P|224:196|228:92,1,210,0|2,0:0|0:0,0:0:0:0:
276,36,69343,6,0,P|328:72|344:144,1,140,0|2,0:0|0:0,0:0:0:0:
260,272,70327,2,0,P|208:236|192:164,1,140,0|2,0:0|0:0,0:0:0:0:
248,112,71064,2,0,P|188:88|124:124,1,140,0|4,0:0|0:0,0:0:0:0:
68,264,72048,5,2,0:0:0:0:
208,332,72540,1,0,0:0:0:0:
304,212,73032,1,2,0:0:0:0:
356,156,73277,1,0,0:0:0:0:
416,108,73523,6,0,B|444:160|444:160|444:248,1,140,0|2,0:0|0:0,0:0:0:0:
332,344,74507,2,0,B|304:292|304:292|304:204,1,140,0|2,0:0|0:0,0:0:0:0:
428,124,75491,5,4,0:0:0:0:
296,44,75982,1,2,0:0:0:0:
164,124,76474,1,0,0:0:0:0:
32,44,76966,1,2,0:0:0:0:
52,120,77212,1,0,0:0:0:0:
72,196,77458,6,0,P|116:256|180:268,1,140,0|2,0:0|0:0,0:0:0:0:
316,196,78441,2,0,P|272:136|208:124,1,140,0|2,0:0|0:0,0:0:0:0:
72,196,79425,5,4,0:0:0:0:
104,348,79917,1,2,0:0:0:0:
260,344,80409,1,0,0:0:0:0:
228,192,80900,1,2,0:0:0:0:
244,116,81146,1,0,0:0:0:0:
260,40,81392,6,0,P|328:64|400:76,1,140,0|2,0:0|0:0,0:0:0:0:
476,208,82376,2,0,P|408:232|336:244,1,140,0|2,0:0|0:0,0:0:0:0:
208,324,83359,5,4,0:0:0:0:
60,276,83851,1,2,0:0:0:0:
176,172,84343,1,0,0:0:0:0:
36,104,84835,1,2,0:0:0:0:
100,64,85081,1,0,0:0:0:0:
168,28,85327,6,0,L|224:156,1,140,0|2,0:0|0:0,0:0:0:0:
368,220,86310,2,0,L|312:92,1,140,0|2,0:0|0:0,0:0:0:0:
168,28,87294,5,4,0:0:0:0:
52,228,88032,1,2,0:0:0:0:
280,200,88769,1,4,0:0:0:0:
