osu file format v14

[General]
AudioFilename: OP.mp3
AudioLeadIn: 1000
PreviewTime: 55327
Countdown: 0
SampleSet: Soft
StackLeniency: 0.7
Mode: 0
LetterboxInBreaks: 0
WidescreenStoryboard: 0

[Editor]
DistanceSpacing: 0.8
BeatDivisor: 4
GridSize: 4
TimelineZoom: 1

[Metadata]
Title:Orange Mint
TitleUnicode:オレンジミント
Artist:Ononoki Yotsugi(Hayami Saori)
ArtistUnicode:斧乃木余接(早見沙織)
Creator:Ranger
Version:Insane
Source:憑物語
Tags:tsukimonogatari opening meg rock ミト mito
BeatmapID:600657
BeatmapSetID:263217

[Difficulty]
HPDrainRate:7
CircleSize:4
OverallDifficulty:7
ApproachRate:8
SliderMultiplier:1.8
SliderTickRate:1

[Events]
//Background and Video events
0,0,"Image.jpg",0,0
Video,0,"video.avi"
//Break Periods
//Storyboard Layer 0 (Background)
//Storyboard Layer 1 (Fail)
//Storyboard Layer 2 (Pass)
//Storyboard Layer 3 (Foreground)
//Storyboard Sound Samples

[TimingPoints]
737,491.803278688525,4,2,0,55,1,0
737,-133.333333333333,4,2,1,55,0,0
8605,-100,4,2,1,65,0,0
24343,-100,4,2,1,60,0,0
40081,-100,4,2,1,70,0,0
44015,-100,4,2,1,40,0,0
44138,-100,4,2,1,70,0,0
55818,-100,4,2,1,80,0,1
71556,-100,4,2,1,80,0,0

[Colours]
Combo1 : 255,192,0
Combo2 : 70,255,70
Combo3 : 128,255,255
Combo4 : 247,113,133

[HitObjects]
120,72,737,6,0,P|100:104|92:136,1,67.5000025749208,2|0,0:0|0:0,0:0:0:0:
24,152,1228,2,0,P|64:200|132:192,1,135.000005149842,0|2,0:0|0:0,0:0:0:0:
212,164,1966,2,0,P|244:140|260:112,2,67.5000025749208,0|0|0,0:0|0:0|0:0,0:0:0:0:
232,240,2704,5,2,0:0:0:0:
308,292,2950,1,0,0:0:0:0:
220,320,3196,1,0,0:0:0:0:
384,300,3441,1,0,0:0:0:0:
384,300,3687,2,0,P|360:236|300:216,1,135.000005149842,2|0,0:0|0:0,0:0:0:0:
384,32,4671,6,0,P|404:64|412:96,1,67.5000025749208,2|0,0:0|0:0,0:0:0:0:
480,112,5163,2,0,P|440:160|372:152,1,135.000005149842,0|2,0:0|0:0,0:0:0:0:
307,95,5900,2,0,P|279:77|247:67,2,67.5000025749208
180,32,6638,5,2,0:0:0:0:
80,100,6884,1,0,0:0:0:0:
136,208,7130,1,0,0:0:0:0:
236,136,7376,1,0,0:0:0:0:
352,164,7622,5,2,0:0:0:0:
448,244,7868,1,0,0:0:0:0:
460,268,7991,1,0,0:0:0:0:
472,292,8114,1,2,0:0:0:0:
360,352,8359,1,0,0:0:0:0:
232,292,8605,5,4,0:0:0:0:
232,292,8851,2,0,P|188:312|144:316,1,90,0|2,0:0|0:0,0:0:0:0:
60,220,9343,1,0,0:0:0:0:
60,220,9466,1,0,0:0:0:0:
60,220,9589,2,0,L|108:144,1,90
256,56,10081,5,2,0:0:0:0:
256,56,10327,2,0,P|296:132|384:116,1,180
368,272,11064,1,2,0:0:0:0:
216,280,11310,1,0,0:0:0:0:
272,140,11556,1,0,0:0:0:0:
304,120,11679,1,0,0:0:0:0:
336,100,11802,2,0,P|376:72|408:40,2,90,0|2|0,0:0|0:0|0:0,0:0:0:0:
164,64,12540,5,4,0:0:0:0:
164,64,12786,2,0,P|124:96|104:128,1,90,0|2,0:0|0:0,0:0:0:0:
164,264,13277,1,0,0:0:0:0:
192,288,13400,1,0,0:0:0:0:
224,304,13523,2,0,P|268:320|312:320,1,90
384,192,14015,5,2,0:0:0:0:
384,192,14261,2,0,P|309:138|226:155,1,180
160,236,14999,1,2,0:0:0:0:
40,156,15245,1,0,0:0:0:0:
112,44,15491,1,0,0:0:0:0:
256,60,15737,1,0,0:0:0:0:
400,44,15982,1,2,0:0:0:0:
472,156,16228,1,0,0:0:0:0:
348,236,16474,5,4,0:0:0:0:
348,236,16720,2,0,P|340:192|348:148,1,90,0|2,0:0|0:0,0:0:0:0:
232,88,17212,1,0,0:0:0:0:
232,88,17335,1,0,0:0:0:0:
232,88,17458,2,0,L|144:112,1,90
72,224,17950,5,2,0:0:0:0:
72,224,18196,2,0,P|128:296|212:300,1,180
328,208,18933,1,2,0:0:0:0:
232,88,19179,1,0,0:0:0:0:
152,220,19425,1,0,0:0:0:0:
128,244,19548,1,0,0:0:0:0:
104,268,19671,2,0,P|64:304|32:324,2,90,0|2|0,0:0|0:0|0:0,0:0:0:0:
300,264,20409,5,4,0:0:0:0:
300,264,20655,2,0,P|348:256|384:236,1,90,0|2,0:0|0:0,0:0:0:0:
432,136,21146,1,0,0:0:0:0:
432,136,21269,1,0,0:0:0:0:
432,136,21392,2,0,L|372:68,1,90
256,88,21884,5,2,0:0:0:0:
140,68,22130,2,0,L|80:136,1,90
76,256,22622,1,0,0:0:0:0:
192,348,22868,1,2,0:0:0:0:
220,204,23114,1,0,0:0:0:0:
328,276,23359,5,2,0:0:0:0:
340,232,23482,1,0,0:0:0:0:
352,188,23605,1,2,0:0:0:0:
364,144,23728,1,0,0:0:0:0:
376,100,23851,1,2,0:0:0:0:
44,48,24343,6,0,L|60:92,1,45,2|0,0:0|0:0,0:0:0:0:
128,120,24589,2,0,L|112:164,1,45
80,228,24835,2,0,L|96:272,2,45
224,232,25327,1,0,0:0:0:0:
224,232,25573,2,0,L|272:248,1,45,0|2,0:0|0:0,0:0:0:0:
336,40,26310,6,0,P|356:92|392:120,1,90,2|0,0:0|0:0,0:0:0:0:
420,152,26679,2,0,L|408:244,1,90
400,296,27048,1,0,0:0:0:0:
400,296,27171,1,0,0:0:0:0:
348,280,27294,2,0,P|300:288|264:312,1,90,2|0,0:0|0:0,0:0:0:0:
212,316,27663,2,0,P|168:304|140:272,1,90,0|2,0:0|0:0,0:0:0:0:
256,84,28277,5,2,0:0:0:0:
152,188,28523,2,0,L|132:232,1,45
72,268,28769,2,0,L|52:312,2,45
256,220,29261,1,0,0:0:0:0:
256,220,29507,2,0,L|296:200,1,45,0|2,0:0|0:0,0:0:0:0:
412,248,30245,6,0,P|380:280|336:296,1,90,2|0,0:0|0:0,0:0:0:0:
288,276,30614,2,0,P|244:280|204:308,1,90
168,340,30982,1,0,0:0:0:0:
168,340,31105,1,0,0:0:0:0:
128,304,31228,2,0,L|88:268,1,45,2|0,0:0|0:0,0:0:0:0:
64,228,31474,1,0,0:0:0:0:
64,228,31597,2,0,P|108:208|132:172,1,90,0|2,0:0|0:0,0:0:0:0:
328,96,32212,5,2,0:0:0:0:
432,188,32458,2,0,L|416:232,1,45
364,280,32704,2,0,L|380:324,2,45
256,184,33196,1,0,0:0:0:0:
256,184,33441,2,0,L|212:196,1,45,0|2,0:0|0:0,0:0:0:0:
100,280,33933,5,0,0:0:0:0:
100,280,34056,1,0,0:0:0:0:
100,280,34179,2,0,P|148:272|180:244,1,90,2|0,0:0|0:0,0:0:0:0:
156,196,34548,2,0,P|192:172|240:168,1,90
280,200,34917,1,0,0:0:0:0:
280,200,35040,1,0,0:0:0:0:
328,220,35163,2,0,P|372:208|408:180,1,90,2|0,0:0|0:0,0:0:0:0:
452,152,35532,2,0,P|408:140|372:112,1,90,0|2,0:0|0:0,0:0:0:0:
184,56,36146,5,2,0:0:0:0:
240,200,36392,1,0,0:0:0:0:
240,200,36515,2,0,L|280:220,1,45
328,276,36761,2,0,L|368:296,2,45
368,216,37130,1,0,0:0:0:0:
368,216,37376,2,0,L|413:198,1,45,0|2,0:0|0:0,0:0:0:0:
256,60,37868,5,0,0:0:0:0:
256,60,37991,1,0,0:0:0:0:
256,60,38114,2,0,P|212:80|188:112,1,90,2|0,0:0|0:0,0:0:0:0:
212,160,38482,2,0,P|184:192|136:196,1,90
96,164,38851,1,0,0:0:0:0:
96,164,38974,1,0,0:0:0:0:
56,200,39097,2,0,L|24:168,2,45,2|0|0,0:0|0:0|0:0,0:0:0:0:
92,240,39466,2,0,L|158:303,1,90,0|2,0:0|0:0,0:0:0:0:
392,120,40081,5,4,0:0:0:0:
392,120,40327,1,0,0:0:0:0:
392,120,40573,2,0,L|408:208,1,90,2|0,0:0|0:0,0:0:0:0:
264,312,41064,2,0,L|248:224,1,90
228,112,41556,1,2,0:0:0:0:
112,264,41802,5,0,0:0:0:0:
112,264,42048,2,0,P|144:300|184:308,1,90
380,272,42540,1,2,0:0:0:0:
380,272,42786,2,0,B|352:236|352:236|332:196,1,90
384,100,43277,2,0,B|364:60|364:60|336:24,2,90,0|2|0,0:0|0:0|0:0,0:0:0:0:
236,92,44015,5,4,0:0:0:0:
236,92,44261,1,0,0:0:0:0:
236,92,44507,2,0,P|200:120|156:140,1,90,2|0,0:0|0:0,0:0:0:0:
280,172,44999,1,0,0:0:0:0:
280,172,45245,2,0,P|316:200|360:220,2,90,0|2|0,0:0|0:0|0:0,0:0:0:0:
196,244,45982,6,0,L|108:284,1,90
308,292,46474,2,0,L|396:252,1,90,2|0,0:0|0:0,0:0:0:0:
404,112,46966,1,0,0:0:0:0:
276,48,47212,1,0,0:0:0:0:
196,168,47458,1,2,0:0:0:0:
320,236,47704,1,0,0:0:0:0:
320,236,47950,6,0,P|348:272|392:292,1,90,4|0,0:0|0:0,0:0:0:0:
228,108,48441,2,0,P|200:72|156:52,1,90,2|0,0:0|0:0,0:0:0:0:
36,72,48933,1,0,0:0:0:0:
120,172,49179,1,0,0:0:0:0:
88,292,49425,1,2,0:0:0:0:
208,244,49671,6,0,P|264:172|348:176,1,180
304,260,50409,1,2,0:0:0:0:
304,260,50655,1,0,0:0:0:0:
304,260,50900,2,0,L|348:340,1,90
208,124,51392,2,0,L|164:44,1,90,2|0,0:0|0:0,0:0:0:0:
316,48,51884,5,4,0:0:0:0:
368,144,52130,2,0,P|392:184|428:208,1,90,0|2,0:0|0:0,0:0:0:0:
368,300,52622,1,0,0:0:0:0:
268,336,52868,2,0,P|224:320|188:292,1,90
80,260,53359,1,2,0:0:0:0:
144,164,53605,1,0,0:0:0:0:
208,68,53851,5,2,0:0:0:0:
80,60,54097,1,0,0:0:0:0:
304,132,54343,1,2,0:0:0:0:
432,120,54589,1,0,0:0:0:0:
472,256,54835,5,2,0:0:0:0:
436,244,54958,1,0,0:0:0:0:
400,244,55081,1,2,0:0:0:0:
364,256,55204,1,0,0:0:0:0:
328,268,55327,1,2,0:0:0:0:
292,280,55450,1,0,0:0:0:0:
256,288,55573,1,2,0:0:0:0:
220,284,55696,1,0,0:0:0:0:
188,272,55818,5,4,0:0:0:0:
92,320,56064,1,0,0:0:0:0:
256,220,56310,2,0,L|344:192,1,90,2|0,0:0|0:0,0:0:0:0:
440,152,56802,1,0,0:0:0:0:
396,40,57048,1,0,0:0:0:0:
276,44,57294,1,2,0:0:0:0:
224,160,57540,2,0,P|164:228|184:312,1,180
256,248,58277,5,2,0:0:0:0:
256,248,58523,2,0,L|344:268,1,90
224,160,59015,2,0,L|136:140,2,90,0|2|0,0:0|0:0|0:0,0:0:0:0:
360,56,59753,5,0,0:0:0:0:
360,56,59999,2,0,P|396:84|440:84,1,90,0|2,0:0|0:0,0:0:0:0:
396,200,60491,2,0,P|360:172|316:172,1,90
256,260,60982,1,0,0:0:0:0:
376,336,61228,1,2,0:0:0:0:
396,200,61474,6,0,L|372:112,1,90
208,56,61966,1,0,0:0:0:0:
208,56,62212,2,0,L|231:142,2,90,2|0|0,0:0|0:0|0:0,0:0:0:0:
104,188,62950,1,0,0:0:0:0:
260,212,63196,1,2,0:0:0:0:
328,72,63441,1,0,0:0:0:0:
328,72,63687,6,0,P|372:88|416:92,1,90,4|0,0:0|0:0,0:0:0:0:
192,168,64179,2,0,P|148:184|104:188,1,90,2|0,0:0|0:0,0:0:0:0:
68,288,64671,1,0,0:0:0:0:
216,332,64917,1,0,0:0:0:0:
344,248,65163,1,2,0:0:0:0:
302,178,65409,2,0,P|388:178|424:256,1,180
208,224,66146,5,2,0:0:0:0:
208,224,66392,2,0,L|136:152,1,90
144,40,66884,1,0,0:0:0:0:
144,40,67130,2,0,L|216:112,2,90,2|0|0,0:0|0:0|0:0,0:0:0:0:
332,64,67868,5,0,0:0:0:0:
404,192,68114,1,2,0:0:0:0:
332,320,68359,1,0,0:0:0:0:
224,224,68605,1,0,0:0:0:0:
252,84,68851,1,0,0:0:0:0:
396,68,69097,1,2,0:0:0:0:
472,192,69343,6,0,P|432:256|344:228,1,180,0|2,0:0|0:0,0:0:0:0:
40,192,70327,2,0,P|80:128|168:156,1,180,0|2,0:0|0:0,0:0:0:0:
256,216,71064,1,2,0:0:0:0:
256,216,71310,1,0,0:0:0:0:
256,216,71556,5,4,0:0:0:0:
356,28,72048,1,2,0:0:0:0:
164,124,72540,1,0,0:0:0:0:
164,124,72786,1,0,0:0:0:0:
164,124,73032,2,0,P|152:168|156:212,1,90,2|0,0:0|0:0,0:0:0:0:
256,256,73523,5,0,0:0:0:0:
360,132,73769,1,0,0:0:0:0:
376,244,74015,1,2,0:0:0:0:
240,144,74261,1,0,0:0:0:0:
332,52,74507,2,0,P|416:76|444:160,1,180,0|2,0:0|0:0,0:0:0:0:
96,296,75491,5,4,0:0:0:0:
256,148,75982,1,2,0:0:0:0:
68,36,76474,1,0,0:0:0:0:
68,36,76720,1,0,0:0:0:0:
68,36,76966,2,0,P|104:64|148:76,1,90,2|0,0:0|0:0,0:0:0:0:
336,40,77458,5,0,0:0:0:0:
200,136,77704,1,0,0:0:0:0:
356,188,77950,1,2,0:0:0:0:
336,40,78196,1,0,0:0:0:0:
132,104,78441,2,0,P|149:187|232:204,1,180,0|2,0:0|0:0,0:0:0:0:
256,320,79425,5,4,0:0:0:0:
368,136,79917,1,2,0:0:0:0:
92,256,80409,1,0,0:0:0:0:
92,256,80655,1,0,0:0:0:0:
92,256,80900,2,0,P|136:236|172:208,1,90,2|0,0:0|0:0,0:0:0:0:
140,80,81392,5,0,0:0:0:0:
284,56,81638,1,0,0:0:0:0:
416,120,81884,1,2,0:0:0:0:
456,260,82130,1,0,0:0:0:0:
256,132,82376,2,0,P|284:208|372:212,1,180,0|2,0:0|0:0,0:0:0:0:
368,88,83359,5,4,0:0:0:0:
128,276,83851,1,2,0:0:0:0:
256,180,84343,1,0,0:0:0:0:
256,180,84589,1,0,0:0:0:0:
256,180,84835,2,0,P|224:216|188:236,1,90,2|0,0:0|0:0,0:0:0:0:
48,168,85327,5,0,0:0:0:0:
188,56,85573,1,0,0:0:0:0:
364,88,85818,2,0,P|400:116|448:128,1,90,2|0,0:0|0:0,0:0:0:0:
328,280,86310,2,0,P|292:307|249:319,1,90
84,260,86802,1,2,0:0:0:0:
76,224,86925,1,0,0:0:0:0:
80,188,87048,1,0,0:0:0:0:
100,156,87171,1,0,0:0:0:0:
128,136,87294,5,4,0:0:0:0:
440,44,88032,1,2,0:0:0:0:
256,296,88769,1,4,0:0:0:0:
