osu file format v14

[General]
AudioFilename: OP.mp3
AudioLeadIn: 1000
PreviewTime: 55327
Countdown: 0
SampleSet: Soft
StackLeniency: 0.7
Mode: 0
LetterboxInBreaks: 0
WidescreenStoryboard: 0

[Editor]
DistanceSpacing: 1.2
BeatDivisor: 4
GridSize: 4
TimelineZoom: 1

[Metadata]
Title:Orange Mint
TitleUnicode:オレンジミント
Artist:Ononoki Yotsugi(Hayami Saori)
ArtistUnicode:斧乃木余接(早見沙織)
Creator:Ranger
Version:Hard
Source:憑物語
Tags:tsukimonogatari opening meg rock ミト mito
BeatmapID:600405
BeatmapSetID:263217

[Difficulty]
HPDrainRate:6
CircleSize:4
OverallDifficulty:6
ApproachRate:7
SliderMultiplier:1.6
SliderTickRate:1

[Events]
//Background and Video events
Video,0,"video.avi"
0,0,"Image.jpg",0,0
//Break Periods
//Storyboard Layer 0 (Background)
//Storyboard Layer 1 (Fail)
//Storyboard Layer 2 (Pass)
//Storyboard Layer 3 (Foreground)
//Storyboard Sound Samples

[TimingPoints]
737,491.803278688525,4,2,1,55,1,0
737,-133.333333333333,4,2,1,55,0,0
8605,-100,4,2,1,65,0,0
24343,-100,4,2,1,60,0,0
40081,-100,4,2,1,70,0,0
44015,-100,4,2,1,40,0,0
44138,-100,4,2,1,70,0,0
55818,-100,4,2,1,80,0,1
71556,-100,4,2,1,80,0,0

[Colours]
Combo1 : 255,192,0
Combo2 : 70,255,70
Combo3 : 128,255,255
Combo4 : 247,113,133

[HitObjects]
148,76,737,6,0,P|132:108|116:132,1,60.0000022888184,2|0,0:0|0:0,0:0:0:0:
52,156,1228,2,0,P|100:196|156:188,1,120.000004577637,0|2,0:0|0:0,0:0:0:0:
216,152,1966,2,0,P|240:176|256:200,2,60.0000022888184
276,108,2704,6,0,P|300:132|324:140,2,60.0000022888184,2|0|0,0:0|0:0|0:0,0:0:0:0:
292,36,3441,1,0,0:0:0:0:
292,36,3687,2,0,P|352:36|384:84,1,120.000004577637,2|0,0:0|0:0,0:0:0:0:
424,232,4671,6,0,P|400:256|376:272,1,60.0000022888184,2|0,0:0|0:0,0:0:0:0:
320,316,5163,2,0,P|280:268|280:212,1,120.000004577637,0|2,0:0|0:0,0:0:0:0:
244,152,5900,2,0,P|212:160|180:176,2,60.0000022888184
320,176,6638,5,2,0:0:0:0:
384,132,6884,1,0,0:0:0:0:
316,92,7130,2,0,L|252:76,1,60.0000022888184
188,56,7622,1,2,0:0:0:0:
116,36,7868,1,0,0:0:0:0:
56,72,8114,2,0,P|36:128|56:184,1,120.000004577637,2|4,0:0|0:0,0:0:0:0:
104,264,8851,5,0,0:0:0:0:
104,264,9097,2,0,P|112:304|144:336,1,80,2|0,0:0|0:0,0:0:0:0:
232,308,9589,1,0,0:0:0:0:
232,308,9835,2,0,P|304:268|312:196,1,160
256,120,10573,2,0,P|272:80|304:64,2,80,0|0|2,0:0|0:0|0:0,0:0:0:0:
192,192,11310,1,0,0:0:0:0:
272,244,11556,2,0,L|344:284,1,80
452,256,12048,2,0,L|382:217,1,80,2|0,0:0|0:0,0:0:0:0:
300,164,12540,5,4,0:0:0:0:
384,116,12786,1,0,0:0:0:0:
344,28,13032,2,0,P|308:12|268:8,1,80,2|0,0:0|0:0,0:0:0:0:
192,64,13523,1,0,0:0:0:0:
192,64,13769,2,0,P|152:128|72:136,1,160
24,220,14507,2,0,P|48:252|88:268,2,80,0|0|2,0:0|0:0|0:0,0:0:0:0:
72,136,15245,1,0,0:0:0:0:
152,88,15491,2,0,L|232:104,1,80
304,192,15982,2,0,L|224:176,1,80,2|0,0:0|0:0,0:0:0:0:
132,152,16474,5,4,0:0:0:0:
164,60,16720,1,0,0:0:0:0:
256,84,16966,2,0,P|296:76|336:84,1,80,2|0,0:0|0:0,0:0:0:0:
384,168,17458,1,0,0:0:0:0:
384,168,17704,2,0,P|368:232|284:260,1,160
192,232,18441,2,0,P|160:256|136:288,2,80,0|0|2,0:0|0:0|0:0,0:0:0:0:
280,192,19179,1,0,0:0:0:0:
352,132,19425,2,0,L|440:116,1,80
328,60,19917,2,0,L|240:44,1,80,2|0,0:0|0:0,0:0:0:0:
164,96,20409,5,4,0:0:0:0:
164,96,20655,1,0,0:0:0:0:
164,96,20900,2,0,P|132:120|108:152,1,80,2|0,0:0|0:0,0:0:0:0:
12,164,21392,1,0,0:0:0:0:
12,164,21638,2,0,P|60:228|140:228,1,160
224,268,22376,2,0,L|280:332,1,80,0|0,0:0|0:0,0:0:0:0:
280,220,22868,2,0,L|224:156,1,80,2|0,0:0|0:0,0:0:0:0:
236,64,23359,2,0,L|244:24,4,40,2|0|2|0|2,0:0|0:0|0:0|0:0|0:0,0:0:0:0:
416,128,24343,6,0,P|400:208|336:248,1,160,2|0,0:0|0:0,0:0:0:0:
244,220,25081,1,2,0:0:0:0:
164,276,25327,2,0,L|96:320,1,80
64,344,25696,1,2,0:0:0:0:
64,80,26310,5,2,0:0:0:0:
64,80,26556,2,0,P|112:104|224:72,1,160
296,132,27294,1,2,0:0:0:0:
296,132,27540,2,0,P|352:108|408:132,1,120,0|2,0:0|0:0,0:0:0:0:
384,272,28277,5,2,0:0:0:0:
384,272,28523,2,0,B|336:312|336:312|232:312,1,160
160,256,29261,2,0,L|104:200,1,80
76,168,29630,1,2,0:0:0:0:
304,192,30245,5,2,0:0:0:0:
304,192,30491,2,0,P|384:176|412:104,1,160
308,92,31228,2,0,L|336:124,2,40,2|0|0,0:0|0:0|0:0,0:0:0:0:
260,104,31597,2,0,P|220:102|184:84,1,80,0|2,0:0|0:0,0:0:0:0:
72,240,32212,6,0,P|64:312|136:320,1,160,2|0,0:0|0:0,0:0:0:0:
216,268,32950,1,0,0:0:0:0:
308,296,33196,2,0,L|380:332,1,80
424,352,33564,1,2,0:0:0:0:
416,208,33933,6,0,L|464:192,1,40
480,156,34179,2,0,P|440:140|408:116,1,80,2|0,0:0|0:0,0:0:0:0:
356,40,34671,1,0,0:0:0:0:
288,108,34917,2,0,L|248:128,1,40
212,152,35163,2,0,P|180:176|140:184,1,80,2|0,0:0|0:0,0:0:0:0:
108,152,35532,2,0,L|28:164,1,80,0|2,0:0|0:0,0:0:0:0:
176,252,36146,5,2,0:0:0:0:
176,252,36392,2,0,P|232:196|312:196,1,160,0|0,0:0|0:0,0:0:0:0:
380,260,37130,2,0,L|448:312,1,80
480,340,37499,1,2,0:0:0:0:
320,336,37868,6,0,L|288:304,1,40
256,276,38114,2,0,P|176:316|104:308,1,160,2|0,0:0|0:0,0:0:0:0:
40,244,38851,1,0,0:0:0:0:
64,152,39097,2,0,L|52:112,2,40,2|0|0,0:0|0:0|0:0,0:0:0:0:
108,168,39466,2,0,P|148:160|180:136,1,80,0|2,0:0|0:0,0:0:0:0:
292,48,40081,6,0,P|332:48|364:72,1,80,4|0,0:0|0:0,0:0:0:0:
404,156,40573,1,2,0:0:0:0:
440,244,40818,2,0,P|424:284|392:300,1,80
300,280,41310,1,0,0:0:0:0:
300,280,41556,2,0,L|220:304,1,80,2|0,0:0|0:0,0:0:0:0:
124,244,42048,6,0,L|204:220,1,80
292,196,42540,1,2,0:0:0:0:
364,132,42786,1,0,0:0:0:0:
332,44,43032,2,0,P|292:28|252:28,1,80
196,104,43523,2,0,P|156:102|119:87,1,80,2|0,0:0|0:0,0:0:0:0:
56,160,44015,6,0,L|40:240,1,80,4|0,0:0|0:0,0:0:0:0:
120,288,44507,1,2,0:0:0:0:
120,288,44753,2,0,P|144:320|184:328,1,80
260,272,45245,2,0,P|236:240|196:232,2,80,0|2|0,0:0|0:0|0:0,0:0:0:0:
340,328,45982,6,0,L|420:304,1,80
448,216,46474,1,2,0:0:0:0:
448,216,46720,2,0,P|424:184|384:160,1,80
296,184,47212,2,0,P|262:162|238:130,1,80,0|2,0:0|0:0,0:0:0:0:
284,48,47704,5,0,0:0:0:0:
284,48,47950,2,0,L|356:88,1,80,4|0,0:0|0:0,0:0:0:0:
432,144,48441,1,2,0:0:0:0:
432,144,48687,1,0,0:0:0:0:
432,144,48933,2,0,P|464:112|496:88,2,80,0|0|2,0:0|0:0|0:0,0:0:0:0:
420,240,49671,6,0,P|380:296|292:304,1,160
220,244,50409,2,0,P|180:252|140:284,2,80,2|0|0,0:0|0:0|0:0,0:0:0:0:
292,180,51146,1,0,0:0:0:0:
224,112,51392,1,2,0:0:0:0:
156,44,51638,1,0,0:0:0:0:
84,108,51884,6,0,P|108:140|144:160,1,80,4|0,0:0|0:0,0:0:0:0:
224,112,52376,1,2,0:0:0:0:
292,44,52622,2,0,P|324:68|352:96,1,80
420,168,53114,1,0,0:0:0:0:
384,256,53359,2,0,P|360:288|312:304,1,80,2|0,0:0|0:0,0:0:0:0:
256,236,53851,5,2,0:0:0:0:
256,236,54097,1,0,0:0:0:0:
188,308,54343,1,2,0:0:0:0:
188,308,54589,1,0,0:0:0:0:
96,288,54835,2,0,L|80:248,3,40,2|0|2|0,0:0|0:0|0:0|0:0,0:0:0:0:
80,204,55327,2,0,L|88:164,3,40,2|0|2|0,0:0|0:0|0:0|0:0,0:0:0:0:
104,120,55818,5,6,0:0:0:0:
40,48,56064,1,0,0:0:0:0:
136,28,56310,2,0,P|176:40|212:60,1,80,2|0,0:0|0:0,0:0:0:0:
268,136,56802,1,0,0:0:0:0:
268,136,57048,2,0,P|307:134|344:119,1,80,0|2,0:0|0:0,0:0:0:0:
372,28,57540,2,0,P|428:76|432:160,1,160
472,236,58277,5,2,0:0:0:0:
404,296,58523,1,0,0:0:0:0:
344,232,58769,2,0,P|304:248|272:276,1,80
216,336,59261,1,2,0:0:0:0:
152,264,59507,1,0,0:0:0:0:
88,192,59753,6,0,L|32:128,1,80
68,32,60245,2,0,L|124:96,1,80,2|0,0:0|0:0,0:0:0:0:
208,136,60737,1,0,0:0:0:0:
268,60,60982,1,0,0:0:0:0:
356,96,61228,1,2,0:0:0:0:
432,152,61474,6,0,P|456:184|456:228,1,80
404,292,61966,1,0,0:0:0:0:
404,292,62212,2,0,P|372:316|332:332,1,80,2|0,0:0|0:0,0:0:0:0:
296,252,62704,2,0,P|259:267|227:291,1,80
160,232,63196,1,2,0:0:0:0:
96,176,63441,1,0,0:0:0:0:
40,244,63687,6,0,P|64:324|136:348,1,160,4|2,0:0|0:0,0:0:0:0:
208,292,64425,1,0,0:0:0:0:
208,292,64671,2,0,P|248:280|288:252,1,80
368,272,65163,1,2,0:0:0:0:
368,272,65409,2,0,P|332:192|268:172,1,160
296,92,66146,5,2,0:0:0:0:
328,8,66392,1,0,0:0:0:0:
240,24,66638,2,0,L|160:64,1,80
80,112,67130,2,0,L|160:152,2,80,2|0|0,0:0|0:0|0:0,0:0:0:0:
72,208,67868,5,0,0:0:0:0:
136,280,68114,1,2,0:0:0:0:
224,248,68359,2,0,P|264:264|304:264,2,80,0|0|0,0:0|0:0|0:0,0:0:0:0:
156,180,69097,1,2,0:0:0:0:
212,100,69343,6,0,P|284:60|364:60,1,160,0|2,0:0|0:0,0:0:0:0:
464,224,70327,2,0,P|392:264|312:264,1,160,0|2,0:0|0:0,0:0:0:0:
256,340,71064,1,2,0:0:0:0:
196,264,71310,1,0,0:0:0:0:
256,188,71556,5,4,0:0:0:0:
92,316,72048,1,2,0:0:0:0:
104,112,72540,1,0,0:0:0:0:
104,112,73032,2,0,P|144:96|184:88,1,80,2|0,0:0|0:0,0:0:0:0:
268,124,73523,5,0,0:0:0:0:
268,124,73769,2,0,P|308:140|348:148,1,80,0|2,0:0|0:0,0:0:0:0:
424,96,74261,1,0,0:0:0:0:
424,96,74507,2,0,B|464:152|416:216|416:216|440:240,1,160,0|2,0:0|0:0,0:0:0:0:
256,304,75491,5,4,0:0:0:0:
64,224,75982,1,2,0:0:0:0:
256,144,76474,1,0,0:0:0:0:
256,144,76966,2,0,P|288:168|328:176,1,80,2|0,0:0|0:0,0:0:0:0:
408,120,77458,6,0,P|448:136|480:160,2,80,0|0|2,0:0|0:0|0:0,0:0:0:0:
328,68,78196,1,0,0:0:0:0:
328,68,78441,2,0,B|284:76|256:100|256:100|228:76|184:68,1,160,0|2,0:0|0:0,0:0:0:0:
80,212,79425,5,4,0:0:0:0:
252,328,79917,1,2,0:0:0:0:
336,136,80409,1,0,0:0:0:0:
336,136,80900,2,0,P|376:144|408:168,1,80,2|0,0:0|0:0,0:0:0:0:
404,264,81392,6,0,P|364:256|332:228,2,80,0|0|2,0:0|0:0|0:0,0:0:0:0:
376,172,82130,1,0,0:0:0:0:
376,172,82376,2,0,P|296:172|260:236,1,160,0|2,0:0|0:0,0:0:0:0:
104,192,83359,5,4,0:0:0:0:
256,336,83851,1,2,0:0:0:0:
408,192,84343,1,0,0:0:0:0:
408,192,84835,2,0,P|384:160|352:128,1,80,2|0,0:0|0:0,0:0:0:0:
260,116,85327,6,0,P|228:84|212:52,2,80,0|0|2,0:0|0:0|0:0,0:0:0:0:
304,200,86064,1,0,0:0:0:0:
348,284,86310,1,0,0:0:0:0:
168,344,86802,1,2,0:0:0:0:
48,192,87294,5,6,0:0:0:0:
324,56,88032,1,2,0:0:0:0:
480,316,88769,1,4,0:0:0:0:
