osu file format v5

[General]
AudioFilename: Ever17 Strangeness.mp3
AudioLeadIn: 1000
PreviewTime: -1
Countdown: 1
SampleSet: Normal
StackLeniency: 0.2
Mode: 0
LetterboxInBreaks: 1

[Metadata]
Title:Quinine
Artist:Onoken
Creator:Ruduen
Version:Normal
Source:-A2D Side-
Tags:

[Difficulty]
HPDrainRate:4
CircleSize:4
OverallDifficulty:4
SliderMultiplier:1
SliderTickRate:1

[Events]
//Background and Video events
0,0,"quinine-bg.png"
//Break Periods
2,53459,62257
//Storyboard Layer 0 (Background)
//Storyboard Layer 1 (Failing)
//Storyboard Layer 2 (Passing)
//Storyboard Layer 3 (Foreground)
//Storyboard Sound Samples
//Background Colour Transformations
3,100,163,162,255

[TimingPoints]
2544,333.333333333333,4,2,0,100,1
18543,333.333333333333,4,1,0,100,1
50543,333.333333333333,4,2,0,100,1
53209,333.333333333333,4,1,0,100,1
106541,333.333333333333,4,2,0,100,1

[Colours]
Combo1 : 0,128,128
Combo2 : 0,255,255
Combo3 : 0,0,255

[HitObjects]
256,192,2544,1,0
256,64,3877,1,0
256,192,5210,1,0
256,304,6544,1,0
208,192,7877,5,0
160,144,8544,1,0
112,192,9210,1,0
64,240,9877,1,0
112,288,10544,1,0
160,336,11210,1,2
208,288,11877,1,2
256,240,12544,1,2
304,288,13210,5,0
352,336,13877,1,0
400,288,14544,1,0
448,240,15210,1,0
400,192,15877,1,0
352,144,16543,1,2
304,96,17210,1,2
256,144,17877,1,2
256,208,18543,5,6
256,320,19710,1,6
256,320,19877,1,6
192,224,21210,1,4
320,224,22543,1,4
256,128,23876,5,6
256,16,25043,1,6
256,16,25210,1,6
192,112,26543,1,4
320,112,27877,1,4
256,144,29210,6,0,B|256:32,6,100
256,192,31542,1,2
304,192,31877,2,0,B|416:192,6,100,0|0|0|0|0|0|2
256,192,34209,1,8
256,240,34542,6,0,B|256:352,6,100
256,192,36876,1,2
208,192,37210,2,0,B|96:192,6,100,0|0|0|0|0|0|2
256,192,39542,1,8
256,128,39877,5,4
256,128,40210,1,4
208,80,40544,1,6
208,80,40877,1,6
160,128,41210,1,4
160,128,41544,1,4
160,128,41877,1,6
160,240,42544,5,4
160,240,42877,1,4
208,288,43210,1,6
208,288,43544,1,6
256,240,43877,1,4
256,240,44210,1,4
256,240,44544,1,6
368,144,45210,5,4
368,144,45544,1,4
368,208,45877,1,6
368,208,46210,1,6
368,272,46544,1,4
368,272,46877,1,4
368,272,47210,1,6
256,272,47877,5,4
256,272,48210,1,4
208,224,48544,1,6
208,224,48877,1,6
160,176,49210,1,4
160,176,49544,1,4
160,176,49877,1,6
256,112,50542,6,4,B|33:192|480:191|256:272,2,300,6|6|4
256,112,52876,1,6
256,32,53209,1,4
256,192,63877,5,6
256,192,65210,2,4,C|231:152|241:116|277:110|316:139|336:193|316:247|266:271|208:256,2,400
144,192,68542,1,4
256,192,69210,5,6
256,192,70543,2,4,C|281:152|271:116|235:110|196:139|176:193|196:247|246:271|304:256,2,400
320,192,73543,1,4
256,192,73876,5,0
256,192,74042,1,0
256,192,74210,1,0
256,192,74377,1,0
256,192,74543,5,4
208,192,74877,1,4
160,192,75210,1,6
256,128,75877,1,4
208,128,76210,1,4
160,128,76543,1,6
320,80,77210,5,4
272,80,77543,1,4
224,80,77877,1,6
320,144,78543,1,4
272,144,78877,1,4
224,144,79210,1,6
256,224,79877,5,4
256,224,80210,1,4
256,224,80543,1,6
256,320,81210,1,4
256,320,81543,1,4
256,320,81877,1,6
192,256,82542,5,4
192,256,82877,1,4
192,256,83210,1,6
256,192,83877,1,4
256,192,84210,1,4
256,192,84543,1,2
256,288,85210,6,4,L|84:185|256:80,3,400
256,176,89877,1,2
256,80,90543,2,4,L|428:183|256:288,3,400
256,192,95210,1,2
256,96,95877,1,4
256,192,97210,12,4,98543
256,192,101210,5,4
256,192,102543,12,4,103876
256,192,106541,5,2
