osu file format v5

[General]
AudioFilename: Ever17 Strangeness.mp3
AudioLeadIn: 1000
PreviewTime: -1
Countdown: 1
SampleSet: Soft
StackLeniency: 0
Mode: 0
LetterboxInBreaks: 1
EditorBookmarks: 90377

[Metadata]
Title:Quinine
Artist:Onoken
Creator:Ruduen
Version:Insane
Source:-A2D Side-
Tags:

[Difficulty]
HPDrainRate:6
CircleSize:6
OverallDifficulty:6
SliderMultiplier:1.4
SliderTickRate:2

[Events]
//Background and Video events
0,0,"quinine-bg.png"
//Break Periods
2,53409,62827
//Storyboard Layer 0 (Background)
//Storyboard Layer 1 (Failing)
//Storyboard Layer 2 (Passing)
//Storyboard Layer 3 (Foreground)
//Storyboard Sound Samples
//Background Colour Transformations
3,100,163,162,255

[TimingPoints]
2544,333.333333333333,4,2,0,100,1
18543,333.333333333333,4,1,0,100,1
50543,333.333333333333,4,2,0,100,1
53208,333.333333333333,4,1,0,100,1
106543,333.333333333333,4,2,0,100,1

[Colours]
Combo1 : 0,128,128
Combo2 : 0,255,255
Combo3 : 0,0,255

[HitObjects]
256,208,2543,1,0
256,240,2710,1,0
256,272,2877,1,0
256,304,3043,1,2
304,288,3877,1,0
304,256,4043,1,0
304,224,4210,1,0
272,192,4377,1,0
240,192,4543,1,0
208,224,4710,1,2
208,256,4877,1,2
208,288,5043,1,2
256,304,5210,5,0
256,272,5377,1,0
256,240,5543,1,0
256,208,5710,1,2
288,176,6543,1,0
288,208,6710,1,0
288,240,6877,1,0
272,272,7043,1,0
240,272,7210,1,0
224,240,7377,1,2
224,208,7543,1,2
224,176,7710,1,2
231,148,7877,6,0,B|70:160|-47:255|54:323|215:292,1,420
224,240,9210,2,0,C|320:128,1,140
336,80,9877,2,0,B|485:-5|405:197|593:347|210:346|201:287|146:400|91:193|122:117|176:128,1,700
176,80,11877,2,0,B|94:55|2:188|104:348|288:208,1,420
288,160,13209,6,0,B|383:57|474:192|525:271|498:318|424:439|52:495|-127:292|42:78|96:48,1,980,0|0
128,32,15877,2,0,B|480:-18|494:59|495:98|335:144|348:106|186:14|150:100|101:155|21:344|190:344|358:368|414:237|256:192,1,980
256,192,18543,5,6
256,256,19709,1,4
256,256,19876,2,0,C|256:336,7,70,0|0|0|0|0|0|0|8
256,326,21209,1,0
256,240,22543,1,0
272,224,22709,1,0
288,208,22876,1,0
304,192,23043,1,0
288,176,23209,1,0
272,160,23376,1,0
256,144,23543,1,0
240,160,23709,1,0
224,176,23876,5,6
224,128,25043,1,4
224,128,25209,2,0,C|224:48,7,70,0|0|0|0|0|0|0|8
224,58,26543,1,8
192,192,27876,5,0
176,208,28043,1,0
160,224,28210,1,0
176,240,28377,1,0
192,256,28543,1,4
208,240,28710,1,6
224,224,28877,1,6
240,208,29043,1,6
256,192,29210,6,0,B|256:48,1,140,0|0
304,48,29876,2,0,B|464:48,1,140,0|0
448,96,30543,2,0,B|448:256,1,140
400,240,31210,2,0,B|240:240,1,140
192,240,31876,6,0,B|127:240|127:240|80:206|80:206|80:176,7,140,0|0|0|0|0|0|0|2
80,160,34543,6,0,B|80:16,1,140
128,16,35210,2,0,B|272:16,1,140
272,64,35877,2,0,B|272:208,1,140
224,208,36543,2,0,B|224:352,1,140
256,352,37210,6,0,B|287:352|287:352|287:272|287:272|336:272,7,140,0|0|0|0|0|0|0|2
320,224,39877,5,4
320,224,40210,1,4
320,176,40543,1,2
320,176,40877,1,2
320,128,41210,1,4
320,128,41377,1,4
320,128,41543,1,4
320,80,41877,1,6
272,80,42543,5,4
272,80,42877,1,4
224,80,43210,1,2
224,80,43543,1,2
224,128,43877,1,4
240,128,44043,1,4
256,128,44210,1,4
304,128,44543,1,6
304,192,45210,5,4
304,192,45543,1,4
256,192,45877,1,2
256,192,46210,1,2
208,192,46543,1,4
192,192,46710,1,4
176,192,46877,1,4
128,192,47210,1,6
128,144,47877,5,4
160,144,48210,1,4
192,144,48543,1,2
224,144,48877,1,2
256,144,49210,1,4
272,144,49377,1,4
288,144,49543,1,4
320,144,49877,1,6
256,192,50543,6,0,L|192:144|144:272|96:160|192:32|320:112|368:240|293:278|222:227|212:313|112:336,1,1120,2|6
256,240,63877,6,4,C|256:295|256:295|192:336,2,140
256,192,65043,1,2
256,192,65210,2,2,C|209:176|201:132|229:104|278:106|314:133|331:192|290:260|209:280|152:256|121:217|110:141|132:74|217:33|318:50|381:98|407:158|390:246|322:327,1,1260
288,336,68543,1,0
272,336,68710,1,6
256,336,68877,1,0
224,320,69210,6,4,C|160:320|160:320|112:272,2,140
172,285,70377,1,2
172,284,70543,2,2,C|131:215|121:144|150:81|226:35|330:41|390:94|409:171|378:239|319:267|255:260|205:219|194:167|225:121|277:115|319:142|322:174|299:197|262:189|252:156,1,1190
256,176,73543,1,2
256,208,73877,1,4
256,208,74043,1,4
256,208,74210,1,4
256,208,74377,1,4
256,208,74543,5,4
256,256,74877,1,4
256,304,75210,1,2
288,336,75543,1,6
320,304,75877,1,4
320,288,76043,1,4
320,272,76210,1,4
320,224,76543,1,6
304,80,77210,5,4
256,80,77543,1,4
208,80,77877,1,2
176,112,78210,1,2
208,144,78543,1,4
224,144,78710,1,4
240,144,78877,1,4
288,144,79210,1,6
256,224,79877,5,4
256,208,80043,1,4
256,192,80210,1,4
256,176,80377,1,4
256,160,80543,1,2
256,144,80710,1,2
256,128,80876,1,2
256,80,81210,1,4
256,80,81376,1,4
256,80,81543,1,4
256,32,81876,1,6
208,80,82543,5,4
224,96,82710,1,4
208,112,82876,1,4
224,128,83043,1,4
208,144,83210,1,2
224,160,83376,1,2
208,176,83543,1,2
208,224,83876,1,4
224,240,84043,1,4
208,256,84210,1,4
208,304,84543,1,6
256,368,85210,6,4,L|16:224|272:64,3,560
224,128,89543,1,6
224,160,89710,1,6
256,160,89876,1,6
288,160,90043,1,6
288,128,90210,1,6
256,80,90543,6,4,L|496:224|240:368,3,560
256,304,94876,5,4
256,288,95043,1,4
256,272,95210,1,4
256,256,95376,1,4
256,240,95543,1,4
256,192,95876,1,6
256,192,97210,12,4,98543
256,192,99876,6,4,B|192:256|192:256|192:143|192:143|319:143|319:143|319:256|319:256|176:256,1,560
256,192,102543,12,4,103876
256,128,105710,5,4
224,160,105876,1,4
256,192,106043,1,4
288,160,106210,1,4
256,128,106376,1,4
256,160,106543,1,2
