osu file format v5

[General]
AudioFilename: Ever17 Strangeness.mp3
AudioLeadIn: 1000
PreviewTime: -1
Countdown: 1
SampleSet: Soft
StackLeniency: 0.2
Mode: 0
LetterboxInBreaks: 1
EditorBookmarks: 90377

[Metadata]
Title:Quinine
Artist:Onoken
Creator:Ruduen
Version:Hard
Source:-A2D Side-
Tags:

[Difficulty]
HPDrainRate:5
CircleSize:5
OverallDifficulty:5
SliderMultiplier:1.2
SliderTickRate:1

[Events]
//Background and Video events
0,0,"quinine-bg.png"
//Break Periods
2,53409,62677
//Storyboard Layer 0 (Background)
//Storyboard Layer 1 (Failing)
//Storyboard Layer 2 (Passing)
//Storyboard Layer 3 (Foreground)
//Storyboard Sound Samples
//Background Colour Transformations
3,100,163,162,255

[TimingPoints]
2544,333.333333333333,4,2,0,100,1
18543,333.333333333333,4,1,0,100,1
50543,333.333333333333,4,2,0,100,1
53209,333.333333333333,4,1,0,100,1
106542,333.333333333333,4,2,0,100,1

[Colours]
Combo1 : 0,128,128
Combo2 : 0,255,255
Combo3 : 0,0,255

[HitObjects]
256,192,2544,1,0
256,112,3210,1,0
256,32,3877,1,0
336,32,4544,1,2
336,112,5210,1,0
336,192,5877,1,0
336,272,6544,1,0
256,272,7210,1,2
256,192,7877,5,0
224,160,8210,1,0
192,128,8544,1,0
160,96,8877,1,0
192,64,9210,1,0
224,96,9544,1,0
256,128,9877,1,0
288,160,10210,1,2
256,192,10544,5,0
224,224,10877,1,0
192,256,11210,1,0
160,288,11544,1,0
192,320,11877,1,0
224,288,12210,1,0
256,256,12544,1,0
288,224,12877,1,2
256,192,13210,5,0
288,160,13544,1,0
320,128,13877,1,0
352,96,14210,1,0
320,64,14544,1,0
288,96,14877,1,0
256,128,15210,1,0
224,160,15544,1,2
256,192,15877,5,0
288,224,16210,1,0
320,256,16543,1,0
352,288,16877,1,0
320,320,17210,1,0
288,288,17543,1,2
256,256,17877,1,2
224,224,18210,1,2
256,192,18543,5,4
256,32,19710,1,6
256,32,19877,1,6
256,112,20543,1,6
256,192,21210,1,4
256,352,22543,1,4
256,192,23877,5,4
256,352,25043,1,6
256,352,25210,1,6
256,272,25877,1,6
256,192,26543,1,4
256,192,27877,1,4
256,192,29210,6,0,B|256:64,1,120
304,64,29877,2,0,B|448:64,1,120
432,112,30543,2,0,B|432:256,1,120
384,240,31210,2,0,B|240:240,1,120
208,240,31877,6,0,B|64:240,7,120,0|0|0|0|0|0|0|2
80,192,34544,6,0,B|80:64,1,120
128,64,35210,2,0,B|256:64,1,120
256,112,35877,2,0,B|256:240,1,120
208,240,36544,2,0,B|64:240,1,120
64,192,37210,6,0,B|64:48,7,120,0|0|0|0|0|0|0|2
128,64,39877,5,4
176,112,40210,1,4
224,160,40544,1,6
272,208,40877,1,6
224,256,41210,1,4
224,256,41544,1,4
224,256,41877,1,6
128,160,42544,5,4
80,112,42877,1,4
32,160,43210,1,2
80,208,43544,1,2
128,256,43877,1,4
128,256,44210,1,4
128,256,44544,1,2
208,176,45209,5,4
256,224,45544,1,4
304,272,45876,1,6
352,320,46209,1,6
400,272,46544,1,4
400,272,46877,1,4
400,272,47209,1,6
320,192,47877,5,4
368,144,48210,1,4
320,96,48544,1,6
272,48,48877,1,6
224,96,49210,1,4
224,96,49544,1,4
224,96,49877,1,6
224,208,50543,6,0,L|160:160|112:288|64:176|160:48|288:128|336:256|261:294|183:240,1,960,2|4
256,192,63875,5,2
256,192,65210,2,4,B|184:152|231:109|305:66|365:127|353:193|444:274|304:416|131:384|-20:237|-134:-28|249:-118|544:-72|479:298|336:320,1,1080
288,336,68542,1,2
224,336,68877,1,2
160,336,69210,5,0
96,320,69543,1,0
48,272,69877,1,0
32,208,70210,1,0
32,144,70543,1,2
64,96,70877,1,2
96,64,71210,2,0,B|226:-10|288:-6|334:31|451:147|434:246|401:314|194:446|49:333|72:121|126:67|256:88|239:121|240:144,1,840
240,192,73877,1,0
240,192,74043,1,0
240,192,74209,1,2
240,192,74376,1,2
240,192,74542,5,4
240,256,74877,1,4
240,320,75210,1,6
288,368,75543,1,6
336,320,75877,1,4
336,256,76210,1,4
336,192,76543,1,6
320,80,77210,5,4
256,80,77543,1,4
192,80,77877,1,6
144,128,78210,1,6
192,176,78543,1,4
256,176,78877,1,4
320,176,79210,1,6
320,288,79877,5,4
320,288,80043,1,4
320,288,80210,1,4
320,288,80377,1,4
320,288,80543,1,4
320,288,80710,1,4
320,288,80877,1,6
256,288,81210,1,4
256,288,81543,1,4
256,288,81877,1,6
96,288,82543,5,4
96,288,82710,1,4
96,288,82877,1,4
96,288,83043,1,4
96,288,83210,1,4
96,288,83377,1,4
96,288,83543,1,6
160,288,83877,1,4
160,288,84210,1,4
160,288,84543,1,6
256,288,85210,6,4,L|43:176|256:64,3,480
224,128,89543,1,6
256,160,89877,1,6
288,128,90210,1,6
256,64,90543,6,4,L|469:176|256:288,3,480
256,240,94877,1,6
256,192,95210,1,6
256,144,95543,1,6
256,96,95877,1,6
256,192,97210,12,4,98543
256,192,100377,5,4
256,192,100543,1,4
256,192,100710,1,4
256,192,100877,1,4
256,192,101043,1,4
256,192,101210,1,6
256,192,102543,12,4,103877
256,128,105710,5,4
224,160,105877,1,4
256,192,106043,1,4
288,160,106210,1,4
256,128,106377,1,4
256,160,106543,1,2
