osu file format v5

[General]
AudioFilename: Ever17 Strangeness.mp3
AudioLeadIn: 1000
PreviewTime: -1
Countdown: 1
SampleSet: Soft
StackLeniency: 0.7
Mode: 0
LetterboxInBreaks: 1

[Metadata]
Title:Quinine
Artist:Onoken
Creator:Ruduen
Version:Easy
Source:-A2D Side-
Tags:

[Difficulty]
HPDrainRate:2
CircleSize:2
OverallDifficulty:2
SliderMultiplier:1
SliderTickRate:1

[Events]
//Background and Video events
0,0,"quinine-bg.png"
//Break Periods
2,53459,62257
//Storyboard Layer 0 (Background)
//Storyboard Layer 1 (Failing)
//Storyboard Layer 2 (Passing)
//Storyboard Layer 3 (Foreground)
//Storyboard Sound Samples
//Background Colour Transformations
3,100,163,162,255

[TimingPoints]
2544,333.333333333333,4,2,0,100,1
18543,333.333333333333,4,1,0,100,1
50542,333.333333333333,4,2,0,100,1
53208,333.333333333333,4,1,0,100,1
104876,333.333333333333,4,2,0,100,1

[Colours]
Combo1 : 0,128,128
Combo2 : 0,255,255
Combo3 : 0,0,255

[HitObjects]
256,192,2543,1,0
256,48,3877,1,0
256,192,5210,1,0
256,336,6543,1,0
96,336,7877,5,0
96,192,9210,1,0
96,64,10543,1,0
256,64,11877,1,0
416,64,13210,1,0
416,192,14543,1,0
416,320,15877,1,0
256,320,17210,1,0
256,192,18543,5,4
256,192,21210,1,2
256,192,23877,1,4
256,192,26543,1,2
256,48,29210,6,4,B|256:256,7,200,4|4|4|4|4|4|6|2
336,320,34543,6,4,B|336:112,7,200,4|4|4|4|4|4|6|2
256,48,39877,5,4
192,112,40543,1,6
128,192,41210,1,4
96,224,41543,1,4
128,256,41877,1,6
192,320,42543,5,4
256,256,43210,1,6
320,192,43877,1,4
352,160,44210,1,4
320,128,44543,1,2
256,64,45210,5,4
256,160,45877,1,6
256,256,46543,1,4
304,256,46877,1,4
352,256,47210,1,6
352,160,47877,5,4
256,160,48543,1,6
160,160,49210,1,4
160,112,49543,1,4
160,64,49877,1,6
256,48,50543,6,0,B|-32:189|256:335|256:335,2,400,2|2|4
256,192,63877,5,4
176,80,65210,1,2
336,80,66543,1,4
336,240,67877,1,2
176,240,69210,5,4
256,96,70543,1,2
112,96,71877,1,4
112,224,73210,1,2
256,224,74543,5,6
256,224,77210,5,6
256,96,79877,5,4
256,256,81210,1,2
176,128,82543,1,4
336,128,83877,1,2
256,240,85210,6,4,B|256:32,7,200,4|4|4|4|4|4|6|2
352,48,90543,6,4,B|112:48,8,200,4|4|4|4|4|4|6|2|4
256,192,98543,5,2
256,192,101210,5,2
256,192,103877,5,4
256,192,104877,12,2,106543
