osu file format v13

[General]
AudioFilename: Yowamushi Pedal -pesnya Love Hime (www.imp3.cc).mp3
AudioLeadIn: 0
PreviewTime: -1
Countdown: 1
SampleSet: None
StackLeniency: 0.7
Mode: 0
LetterboxInBreaks: 1
WidescreenStoryboard: 0

[Editor]
DistanceSpacing: 1.6
BeatDivisor: 4
GridSize: 4
TimelineZoom: 1

[Metadata]
Title:Koi no Hime Hime Pettanko (Yowamushi Pedal)
TitleUnicode:Koi no Hime Hime Pettanko (Yowamushi Pedal)
Artist:Onoda Sakamichi
ArtistUnicode:Onoda Sakamichi
Creator:Grexi
Version:Hard
Source:
Tags:Yowamushi Pedal
BeatmapID:595039
BeatmapSetID:260445

[Difficulty]
HPDrainRate:5
CircleSize:3
OverallDifficulty:5
ApproachRate:5
SliderMultiplier:1
SliderTickRate:1

[Events]
//Background and Video events
0,0,"Onoda.jpg",0,0
//Break Periods
//Storyboard Layer 0 (Background)
//Storyboard Layer 1 (Fail)
//Storyboard Layer 2 (Pass)
//Storyboard Layer 3 (Foreground)
//Storyboard Sound Samples

[TimingPoints]
340.769225798339,337.078651685393,4,2,0,100,1,0
53573,-100,4,2,0,100,0,1

[Colours]
Combo1 : 40,79,79
Combo2 : 192,192,192
Combo3 : 64,128,128
Combo4 : 128,128,128

[HitObjects]
184,84,677,6,2,L|80:108,2,100,0|2|0,0:0|0:0|0:0,0:0:0:0:
256,192,1689,1,2,0:0:0:0:
396,192,2026,2,0,P|388:260|280:348,1,200,0|2,0:0|0:0,0:0:0:0:
294,344,3374,6,0,L|406:320,2,100,0|2|0,0:0|0:0|0:0,0:0:0:0:
256,192,4385,1,2,0:0:0:0:
116,188,4722,2,0,P|152:88|256:56,1,200,0|2,0:0|0:0,0:0:0:0:
233,54,6071,6,0,P|285:74|285:122,1,100,0|10,0:0|0:0,0:0:0:0:
200,184,6745,2,0,P|212:228|260:228,1,100,0|10,0:0|0:0,0:0:0:0:
372,248,7419,2,0,L|372:148,2,100,0|10|0,0:0|0:0|0:0,0:0:0:0:
488,248,8430,1,10,0:0:0:0:
480,128,8767,6,0,P|448:52|416:48,1,100,0|10,0:0|0:0,0:0:0:0:
328,108,9441,2,0,L|244:168,1,100,0|10,0:0|0:0,0:0:0:0:
124,112,10116,2,0,L|124:232,2,100,0|0|0,0:0|0:0|0:0,0:0:0:0:
244,160,11127,1,10,0:0:0:0:
304,64,11464,6,0,P|352:112|352:144,1,100,0|10,0:0|0:0,0:0:0:0:
452,152,12138,2,0,P|464:212|444:248,1,100,0|10,0:0|0:0,0:0:0:0:
344,244,12812,2,0,P|304:296|268:308,1,100,0|10,0:0|0:0,0:0:0:0:
196,276,13318,2,0,P|144:204|148:124,1,150,0|10,0:0|0:0,0:0:0:0:
180,40,14160,5,0,0:0:0:0:
300,56,14498,1,10,0:0:0:0:
244,148,14835,2,0,P|228:196|252:236,1,100,0|10,0:0|0:0,0:0:0:0:
352,192,15509,2,0,P|404:236|396:272,1,100,0|10,0:0|0:0,0:0:0:0:
352,332,16014,2,0,P|264:348|188:332,1,150,0|10,0:0|0:0,0:0:0:0:
124,268,16857,5,0,0:0:0:0:
148,168,17194,2,0,P|140:140|168:112,1,50,10|0,0:0|0:0,0:0:0:0:
200,56,17531,2,0,P|272:84|300:112,1,100,0|10,0:0|0:0,0:0:0:0:
340,192,18205,1,0,0:0:0:0:
228,236,18543,2,0,L|228:260|228:288,1,50,10|0,0:0|0:0,0:0:0:0:
416,344,19048,1,10,0:0:0:0:
408,232,19385,6,0,L|304:232,1,100,0|10,0:0|0:0,0:0:0:0:
304,148,19891,2,8,L|236:148,1,50,0|10,0:0|0:0,0:0:0:0:
172,144,20228,1,0,0:0:0:0:
140,288,20734,2,0,L|260:288,1,100,0|10,0:0|0:0,0:0:0:0:
240,204,21239,2,0,L|304:204,1,50,0|10,0:0|0:0,0:0:0:0:
376,204,21576,1,0,0:0:0:0:
132,44,22250,6,0,P|104:104|112:148,2,100,0|10|0,0:0|0:0|0:0,0:0:0:0:
216,136,23262,1,10,0:0:0:0:
316,180,23599,2,8,P|356:208|360:264,1,100,0|10,0:0|0:0,0:0:0:0:
300,312,24104,2,0,P|264:324|144:320,1,150,0|10,0:0|0:0,0:0:0:0:
80,224,24947,6,0,B|52:164|48:132|52:124,2,100,0|10|0,0:0|0:0|0:0,0:0:0:0:
196,188,25958,1,10,0:0:0:0:
240,72,26295,2,0,P|292:96|336:144,1,100,0|10,0:0|0:0,0:0:0:0:
376,192,26801,2,0,P|412:272|376:312,1,150,0|10,0:0|0:0,0:0:0:0:
256,312,27644,5,0,0:0:0:0:
256,188,27981,1,10,0:0:0:0:
256,64,28318,1,0,0:0:0:0:
136,88,28655,2,0,P|88:132|88:168,1,100,10|0,0:0|0:0,0:0:0:0:
48,272,29329,2,0,P|140:344|236:348,1,200,10|10,0:0|0:0,0:0:0:0:
268,240,30340,5,0,0:0:0:0:
332,132,30677,1,10,0:0:0:0:
420,204,31014,2,0,L|444:256,1,50,0|10,0:0|0:0,0:0:0:0:
388,316,31352,1,0,0:0:0:0:
308,336,31520,2,0,P|240:340|160:300,1,150,0|0,0:0|0:0,0:0:0:0:
96,208,32363,5,0,0:0:0:0:
124,84,32700,1,4,0:0:0:0:
472,68,33374,2,0,L|412:152,1,100,0|2,0:0|0:0,0:0:0:0:
352,68,34048,2,0,L|284:164,1,100,0|2,0:0|0:0,0:0:0:0:
232,68,34722,6,0,B|168:160|172:156,1,100,0|2,0:0|0:0,0:0:0:0:
112,68,35396,2,0,L|44:164,1,100,0|2,0:0|0:0,0:0:0:0:
128,192,35902,1,0,0:0:0:0:
52,236,36071,2,0,L|120:312,1,100,2|0,0:0|0:0,0:0:0:0:
184,236,36745,6,0,L|256:316,1,100,2|2,0:0|0:0,0:0:0:0:
312,236,37419,2,0,L|388:320,1,100,2|2,0:0|0:0,0:0:0:0:
440,232,38093,2,0,L|520:320,2,100,2|0|2,0:0|0:0|0:0,0:0:0:0:
368,144,39104,1,0,0:0:0:0:
260,92,39441,2,0,L|240:192,1,100,2|0,0:0|0:0,0:0:0:0:
136,168,40116,2,0,L|116:276,1,100,2|0,0:0|0:0,0:0:0:0:
256,268,40790,5,2,0:0:0:0:
364,200,41127,2,0,P|316:168|296:36,1,200,0|2,0:0|0:0,0:0:0:0:
376,64,41969,1,2,0:0:0:0:
456,148,42307,2,0,P|468:232|432:296,1,150,0|2,0:0|0:0,0:0:0:0:
312,312,43149,1,0,0:0:0:0:
352,192,43486,6,0,P|344:124|320:96,1,100,0|2,0:0|0:0,0:0:0:0:
204,40,44160,2,0,P|233:97|225:141,1,100,0|2,0:0|0:0,0:0:0:0:
136,200,44835,2,0,P|131:139|104:108,1,100,0|2,0:0|0:0,0:0:0:0:
36,156,45340,1,0,0:0:0:0:
40,240,45509,2,0,P|56:272|88:284,1,50,0|2,0:0|0:0,0:0:0:0:
312,72,46183,6,0,L|340:124|340:124,1,50,0|2,0:0|0:0,0:0:0:0:
372,196,46520,2,0,B|392:244|392:260|384:292,2,100,0|2|0,0:0|0:0|0:0,0:0:0:0:
288,196,47363,1,2,0:0:0:0:
204,196,47531,2,0,L|100:196,1,100,0|2,0:0|0:0,0:0:0:0:
104,280,48037,1,0,0:0:0:0:
188,284,48205,2,0,L|260:284,1,50,2|0,0:0|0:0,0:0:0:0:
392,276,48711,5,2,0:0:0:0:
392,276,48880,1,0,0:0:0:0:
392,276,49048,2,0,P|416:136|240:44,1,350,2|0,0:0|0:0,0:0:0:0:
144,124,50734,1,2,0:0:0:0:
144,124,50902,1,0,0:0:0:0:
144,124,51071,5,2,0:0:0:0:
88,192,51239,2,0,P|96:240|152:264,1,100,0|2,0:0|0:0,0:0:0:0:
216,240,51745,1,0,0:0:0:0:
256,72,53936,2,0,P|320:144|328:160,1,100,0|0,0:0|0:0,0:0:0:0:
352,224,54441,5,0,0:0:0:0:
308,296,54610,1,10,0:0:0:0:
224,296,54778,2,0,L|192:232,1,50,0|10,0:0|0:0,0:0:0:0:
176,168,55116,1,0,0:0:0:0:
248,112,55284,5,10,0:0:0:0:
340,136,55453,2,0,L|364:184,1,50,0|10,0:0|0:0,0:0:0:0:
348,264,55790,1,0,0:0:0:0:
280,312,55958,2,0,P|216:328|168:320,1,100,10|0,0:0|0:0,0:0:0:0:
96,256,56632,2,0,P|80:200|88:156,1,100,10|0,0:0|0:0,0:0:0:0:
144,104,57138,5,0,0:0:0:0:
232,108,57307,1,10,0:0:0:0:
144,104,57475,2,0,L|144:160,1,50,0|10,0:0|0:0,0:0:0:0:
212,224,57812,1,0,0:0:0:0:
300,228,57981,1,10,0:0:0:0:
212,224,58149,2,0,L|212:276,1,50,0|10,0:0|0:0,0:0:0:0:
360,332,58655,6,0,P|448:316|460:300,2,100,0|10|0,0:0|0:0|0:0,0:0:0:0:
228,324,59666,1,10,0:0:0:0:
228,212,60003,2,0,L|228:92,1,100,0|10,0:0|0:0,0:0:0:0:
124,72,60677,1,0,0:0:0:0:
60,168,61014,2,0,L|60:284,1,100,10|0,0:0|0:0,0:0:0:0:
164,324,61689,5,10,0:0:0:0:
256,260,62026,2,0,L|368:260,1,100,0|10,0:0|0:0,0:0:0:0:
428,168,62700,1,0,0:0:0:0:
344,88,63037,2,0,L|232:88,1,100,10|0,0:0|0:0,0:0:0:0:
160,88,63543,1,10,0:0:0:0:
156,172,63711,2,0,L|156:332,1,150,0|10,0:0|0:0,0:0:0:0:
352,76,64722,6,0,P|392:132|408:160,1,100,0|0,0:0|0:0,0:0:0:0:
424,240,65228,1,0,0:0:0:0:
368,304,65396,1,10,0:0:0:0:
284,304,65565,2,0,L|232:304,1,50,0|10,0:0|0:0,0:0:0:0:
152,300,65902,5,0,0:0:0:0:
104,228,66071,1,10,0:0:0:0:
132,148,66239,2,0,L|172:108|172:108,1,50,0|10,0:0|0:0,0:0:0:0:
256,108,66576,1,0,0:0:0:0:
344,104,66745,6,0,L|344:-8,1,100,0|10,0:0|0:0,0:0:0:0:
212,0,67419,2,0,L|104:0,1,100,0|10,0:0|0:0,0:0:0:0:
108,84,67925,1,0,0:0:0:0:
24,80,68093,1,10,0:0:0:0:
108,84,68262,2,0,L|108:152,1,50,0|10,0:0|0:0,0:0:0:0:
240,200,68599,5,0,0:0:0:0:
156,200,68767,1,10,0:0:0:0:
240,200,68936,2,0,L|240:272,1,50,0|10,0:0|0:0,0:0:0:0:
324,256,69273,1,0,0:0:0:0:
408,260,69441,2,0,P|444:176|408:76,1,200,10|0,0:0|0:0,0:0:0:0:
288,72,70453,5,10,0:0:0:0:
176,72,70790,2,0,L|76:72|72:72,1,100,0|10,0:0|0:0,0:0:0:0:
72,180,71464,1,0,0:0:0:0:
192,184,71801,2,0,L|312:184,1,100,10|0,0:0|0:0,0:0:0:0:
384,116,72475,1,10,0:0:0:0:
384,248,72812,1,0,0:0:0:0:
96,64,73486,6,0,L|96:136,1,50,0|10,0:0|0:0,0:0:0:0:
180,116,73823,1,0,0:0:0:0:
268,208,74160,2,0,L|268:264,1,50,0|10,0:0|0:0,0:0:0:0:
352,208,74498,1,0,0:0:0:0:
436,212,74666,1,10,0:0:0:0:
376,56,75172,6,0,P|308:48|280:64,2,100,0|10|0,0:0|0:0|0:0,0:0:0:0:
424,128,76014,1,10,0:0:0:0:
296,192,76352,2,0,L|232:192,1,50,0|10,0:0|0:0,0:0:0:0:
164,192,76689,1,0,0:0:0:0:
80,192,76857,1,10,0:0:0:0:
80,276,77026,6,0,L|152:276,1,50,0|10,0:0|0:0,0:0:0:0:
208,280,77363,2,0,L|324:280,1,100,0|10,0:0|0:0,0:0:0:0:
396,280,77868,1,0,0:0:0:0:
396,196,78037,1,10,0:0:0:0:
256,192,78374,5,10,0:0:0:0:
256,192,78543,1,10,0:0:0:0:
