osu file format v14

[General]
AudioFilename: issen.mp3
AudioLeadIn: 0
PreviewTime: 39854
Countdown: 0
SampleSet: Normal
StackLeniency: 0.2
Mode: 1
LetterboxInBreaks: 0
WidescreenStoryboard: 0

[Editor]
Bookmarks: 23159,81593,114985,203419
DistanceSpacing: 1.1
BeatDivisor: 4
GridSize: 32
TimelineZoom: 1

[Metadata]
Title:Suigetsu Kyouka Koubou Issen
TitleUnicode:水月鏡花光芒一閃
Artist:Onocchi, Xenon
ArtistUnicode:おのっち, キセノン
Creator:lolcubes
Version:Oni
Source:東方Project
Tags:Eastern Mystical Dream ~ Ancient Temple Immaterial and Missing Power Konpaku Youmu touhou xenoglossy lazy sound life
BeatmapID:672474
BeatmapSetID:294471

[Difficulty]
HPDrainRate:5
CircleSize:5
OverallDifficulty:6.4
ApproachRate:5
SliderMultiplier:1.4
SliderTickRate:1

[Events]
//Background and Video events
0,0,"konpakubg.jpg",0,112
//Break Periods
//Storyboard Layer 0 (Background)
//Storyboard Layer 1 (Fail)
//Storyboard Layer 2 (Pass)
//Storyboard Layer 3 (Foreground)
//Storyboard Sound Samples

[TimingPoints]
2412,600,4,1,0,86,1,0
16850,631.578947368421,4,1,0,86,1,0
17481,666.666666666667,4,1,0,86,1,0
18145,750,4,1,0,86,1,0
18895,800,4,1,0,86,1,0
19695,869.565217391304,4,3,0,5,1,0
23159,260.869565217391,4,1,0,86,1,0
148376,-100,4,1,0,86,0,1
181767,-100,4,1,0,86,0,0
182289,-133.333333333333,4,1,0,86,0,0
189332,-100,4,1,0,86,0,0
281941,-100,4,1,0,86,0,1
297593,-100,4,1,0,86,0,0
321658,-100,4,3,0,5,0,0

[HitObjects]
256,192,20564,12,0,22738,0:0:0:0:
256,192,23159,5,4,0:0:0:0:
256,192,25115,1,8,0:0:0:0:
256,192,25180,1,8,0:0:0:0:
256,192,25245,1,8,0:0:0:0:
256,192,27332,1,4,0:0:0:0:
256,192,28115,1,0,0:0:0:0:
256,192,28245,1,0,0:0:0:0:
256,192,28376,1,8,0:0:0:0:
256,192,29158,1,0,0:0:0:0:
256,192,29419,1,0,0:0:0:0:
256,192,29485,1,0,0:0:0:0:
256,192,29550,1,8,0:0:0:0:
256,192,29680,1,8,0:0:0:0:
256,192,29811,1,8,0:0:0:0:
256,192,29941,1,0,0:0:0:0:
256,192,30006,1,0,0:0:0:0:
256,192,30072,1,8,0:0:0:0:
256,192,30202,1,8,0:0:0:0:
256,192,30332,1,8,0:0:0:0:
256,192,30463,1,0,0:0:0:0:
256,192,30528,1,0,0:0:0:0:
256,192,30593,1,8,0:0:0:0:
256,192,30724,1,0,0:0:0:0:
256,192,30854,1,0,0:0:0:0:
256,192,30985,1,8,0:0:0:0:
256,192,31050,1,8,0:0:0:0:
256,192,31115,1,0,0:0:0:0:
256,192,31245,1,8,0:0:0:0:
256,192,31376,1,8,0:0:0:0:
256,192,31506,1,4,0:0:0:0:
256,192,31767,1,8,0:0:0:0:
256,192,31898,1,0,0:0:0:0:
256,192,32028,1,8,0:0:0:0:
256,192,32158,1,8,0:0:0:0:
256,192,32289,1,0,0:0:0:0:
256,192,32419,1,0,0:0:0:0:
256,192,32550,1,12,0:0:0:0:
256,192,32811,1,0,0:0:0:0:
256,192,32941,1,8,0:0:0:0:
256,192,33202,1,0,0:0:0:0:
256,192,33332,1,8,0:0:0:0:
256,192,33593,1,4,0:0:0:0:
256,192,33854,1,8,0:0:0:0:
256,192,33985,1,0,0:0:0:0:
256,192,34115,1,8,0:0:0:0:
256,192,34245,1,0,0:0:0:0:
256,192,34376,1,0,0:0:0:0:
256,192,34506,1,0,0:0:0:0:
256,192,34637,1,12,0:0:0:0:
256,192,34898,1,0,0:0:0:0:
256,192,35028,1,0,0:0:0:0:
256,192,35158,1,8,0:0:0:0:
256,192,35289,1,0,0:0:0:0:
256,192,35419,1,8,0:0:0:0:
256,192,35680,1,4,0:0:0:0:
256,192,35941,1,8,0:0:0:0:
256,192,36072,1,0,0:0:0:0:
256,192,36202,1,8,0:0:0:0:
256,192,36463,1,0,0:0:0:0:
256,192,36593,1,0,0:0:0:0:
256,192,36724,1,12,0:0:0:0:
256,192,36985,1,0,0:0:0:0:
256,192,37115,1,8,0:0:0:0:
256,192,37376,1,0,0:0:0:0:
256,192,37506,1,8,0:0:0:0:
256,192,37637,1,0,0:0:0:0:
256,192,37767,1,4,0:0:0:0:
256,192,38028,1,8,0:0:0:0:
256,192,38115,1,8,0:0:0:0:
256,192,38202,1,0,0:0:0:0:
256,192,38289,1,8,0:0:0:0:
256,192,38376,1,0,0:0:0:0:
256,192,38463,1,0,0:0:0:0:
256,192,38550,1,8,0:0:0:0:
256,192,38637,1,0,0:0:0:0:
256,192,38724,1,0,0:0:0:0:
256,192,38811,1,8,0:0:0:0:
256,192,38898,1,8,0:0:0:0:
256,192,38985,1,0,0:0:0:0:
256,192,39072,1,8,0:0:0:0:
256,192,39158,1,0,0:0:0:0:
256,192,39245,1,0,0:0:0:0:
256,192,39332,1,8,0:0:0:0:
256,192,39419,1,0,0:0:0:0:
256,192,39506,1,0,0:0:0:0:
256,192,39593,1,8,0:0:0:0:
256,192,39680,1,8,0:0:0:0:
256,192,39767,1,8,0:0:0:0:
256,192,39854,1,4,0:0:0:0:
256,192,39985,1,0,0:0:0:0:
256,192,40115,1,8,0:0:0:0:
256,192,40245,1,0,0:0:0:0:
256,192,40376,1,0,0:0:0:0:
256,192,40506,1,0,0:0:0:0:
256,192,40637,1,8,0:0:0:0:
256,192,40767,1,0,0:0:0:0:
256,192,40898,1,8,0:0:0:0:
256,192,40963,1,0,0:0:0:0:
256,192,41028,1,0,0:0:0:0:
256,192,41158,1,0,0:0:0:0:
256,192,41289,1,8,0:0:0:0:
256,192,41354,1,0,0:0:0:0:
256,192,41419,1,0,0:0:0:0:
256,192,41550,1,0,0:0:0:0:
256,192,41680,1,8,0:0:0:0:
256,192,41811,1,8,0:0:0:0:
256,192,41941,1,0,0:0:0:0:
256,192,42072,1,0,0:0:0:0:
256,192,42202,1,8,0:0:0:0:
256,192,42332,1,0,0:0:0:0:
256,192,42463,1,0,0:0:0:0:
256,192,42593,1,0,0:0:0:0:
256,192,42724,1,8,0:0:0:0:
256,192,42854,1,0,0:0:0:0:
256,192,42985,1,8,0:0:0:0:
256,192,43050,1,8,0:0:0:0:
256,192,43115,1,0,0:0:0:0:
256,192,43245,1,0,0:0:0:0:
256,192,43376,1,8,0:0:0:0:
256,192,43441,1,8,0:0:0:0:
256,192,43506,1,0,0:0:0:0:
256,192,43637,1,0,0:0:0:0:
256,192,43767,1,8,0:0:0:0:
256,192,43832,1,8,0:0:0:0:
256,192,43898,1,8,0:0:0:0:
256,192,43963,1,8,0:0:0:0:
256,192,44028,1,0,0:0:0:0:
256,192,44158,1,0,0:0:0:0:
256,192,44288,1,8,0:0:0:0:
256,192,44418,1,0,0:0:0:0:
256,192,44549,1,0,0:0:0:0:
256,192,44679,1,0,0:0:0:0:
256,192,44810,1,8,0:0:0:0:
256,192,44940,1,0,0:0:0:0:
256,192,45071,1,8,0:0:0:0:
256,192,45136,1,8,0:0:0:0:
256,192,45201,1,8,0:0:0:0:
256,192,45331,1,0,0:0:0:0:
256,192,45462,1,8,0:0:0:0:
256,192,45527,1,8,0:0:0:0:
256,192,45592,1,0,0:0:0:0:
256,192,45723,1,0,0:0:0:0:
256,192,45853,1,8,0:0:0:0:
256,192,45984,1,0,0:0:0:0:
256,192,46114,1,0,0:0:0:0:
256,192,46180,1,0,0:0:0:0:
256,192,46245,1,0,0:0:0:0:
256,192,46376,1,8,0:0:0:0:
256,192,46506,1,0,0:0:0:0:
256,192,46637,1,0,0:0:0:0:
256,192,46702,1,0,0:0:0:0:
256,192,46767,1,0,0:0:0:0:
256,192,46898,1,8,0:0:0:0:
256,192,46963,1,8,0:0:0:0:
256,192,47028,1,0,0:0:0:0:
256,192,47158,1,8,0:0:0:0:
256,192,47289,1,0,0:0:0:0:
256,192,47419,1,8,0:0:0:0:
256,192,47550,1,8,0:0:0:0:
256,192,47680,1,0,0:0:0:0:
256,192,47811,1,0,0:0:0:0:
256,192,47941,1,8,0:0:0:0:
256,192,48006,1,8,0:0:0:0:
256,192,48072,1,8,0:0:0:0:
256,192,48137,1,8,0:0:0:0:
256,192,48202,1,0,0:0:0:0:
256,192,48332,1,0,0:0:0:0:
256,192,48462,1,8,0:0:0:0:
256,192,48592,1,0,0:0:0:0:
256,192,48723,1,0,0:0:0:0:
256,192,48853,1,0,0:0:0:0:
256,192,48984,1,8,0:0:0:0:
256,192,49114,1,0,0:0:0:0:
256,192,49245,1,8,0:0:0:0:
256,192,49310,1,0,0:0:0:0:
256,192,49375,1,0,0:0:0:0:
256,192,49505,1,0,0:0:0:0:
256,192,49636,1,8,0:0:0:0:
256,192,49701,1,0,0:0:0:0:
256,192,49766,1,0,0:0:0:0:
256,192,49897,1,0,0:0:0:0:
256,192,50027,1,8,0:0:0:0:
256,192,50158,1,8,0:0:0:0:
256,192,50288,1,0,0:0:0:0:
256,192,50419,1,0,0:0:0:0:
256,192,50549,1,8,0:0:0:0:
256,192,50679,1,0,0:0:0:0:
256,192,50810,1,0,0:0:0:0:
256,192,50940,1,0,0:0:0:0:
256,192,51071,1,8,0:0:0:0:
256,192,51201,1,0,0:0:0:0:
256,192,51332,1,8,0:0:0:0:
256,192,51397,1,8,0:0:0:0:
256,192,51462,1,0,0:0:0:0:
256,192,51592,1,0,0:0:0:0:
256,192,51723,1,8,0:0:0:0:
256,192,51788,1,8,0:0:0:0:
256,192,51853,1,0,0:0:0:0:
256,192,51984,1,0,0:0:0:0:
256,192,52114,1,8,0:0:0:0:
256,192,52179,1,8,0:0:0:0:
256,192,52245,1,8,0:0:0:0:
256,192,52310,1,8,0:0:0:0:
256,192,52376,1,0,0:0:0:0:
256,192,52506,1,0,0:0:0:0:
256,192,52636,1,8,0:0:0:0:
256,192,52766,1,0,0:0:0:0:
256,192,52897,1,0,0:0:0:0:
256,192,53027,1,0,0:0:0:0:
256,192,53158,1,8,0:0:0:0:
256,192,53288,1,0,0:0:0:0:
256,192,53419,1,8,0:0:0:0:
256,192,53484,1,8,0:0:0:0:
256,192,53549,1,8,0:0:0:0:
256,192,53679,1,0,0:0:0:0:
256,192,53810,1,8,0:0:0:0:
256,192,53875,1,8,0:0:0:0:
256,192,53940,1,0,0:0:0:0:
256,192,54071,1,0,0:0:0:0:
256,192,54201,1,8,0:0:0:0:
256,192,54332,1,0,0:0:0:0:
256,192,54462,1,8,0:0:0:0:
256,192,54528,1,8,0:0:0:0:
256,192,54593,1,8,0:0:0:0:
256,192,54659,1,8,0:0:0:0:
256,192,54724,1,8,0:0:0:0:
256,192,54854,1,8,0:0:0:0:
256,192,54984,1,0,0:0:0:0:
256,192,55049,1,0,0:0:0:0:
256,192,55114,1,8,0:0:0:0:
256,192,55180,1,8,0:0:0:0:
256,192,55245,1,0,0:0:0:0:
256,192,55311,1,0,0:0:0:0:
256,192,55376,1,8,0:0:0:0:
256,192,55441,1,0,0:0:0:0:
256,192,55505,1,8,0:0:0:0:
256,192,56550,1,0,0:0:0:0:
256,192,56615,1,0,0:0:0:0:
256,192,56680,1,0,0:0:0:0:
256,192,56745,1,0,0:0:0:0:
256,192,56811,1,0,0:0:0:0:
256,192,57332,1,0,0:0:0:0:
256,192,57398,1,0,0:0:0:0:
256,192,57463,1,0,0:0:0:0:
256,192,57528,1,0,0:0:0:0:
256,192,57593,1,8,0:0:0:0:
256,192,57854,1,0,0:0:0:0:
256,192,58115,1,0,0:0:0:0:
256,192,58180,1,0,0:0:0:0:
256,192,58245,1,0,0:0:0:0:
256,192,58311,1,0,0:0:0:0:
256,192,58376,1,0,0:0:0:0:
256,192,58637,1,0,0:0:0:0:
256,192,58702,1,0,0:0:0:0:
256,192,58767,1,0,0:0:0:0:
256,192,58832,1,0,0:0:0:0:
256,192,58898,1,0,0:0:0:0:
256,192,59419,1,0,0:0:0:0:
256,192,59485,1,0,0:0:0:0:
256,192,59550,1,0,0:0:0:0:
256,192,59615,1,0,0:0:0:0:
256,192,59680,1,8,0:0:0:0:
256,192,59941,1,0,0:0:0:0:
256,192,60115,1,0,0:0:0:0:
256,192,60202,1,8,0:0:0:0:
256,192,60289,1,8,0:0:0:0:
256,192,60376,1,0,0:0:0:0:
256,192,60463,1,8,0:0:0:0:
256,192,60550,1,0,0:0:0:0:
256,192,60637,1,8,0:0:0:0:
256,192,60724,1,0,0:0:0:0:
256,192,60789,1,0,0:0:0:0:
256,192,60854,1,0,0:0:0:0:
256,192,60919,1,0,0:0:0:0:
256,192,60985,1,0,0:0:0:0:
256,192,61506,1,0,0:0:0:0:
256,192,61572,1,0,0:0:0:0:
256,192,61637,1,0,0:0:0:0:
256,192,61702,1,0,0:0:0:0:
256,192,61767,1,8,0:0:0:0:
256,192,62028,1,0,0:0:0:0:
256,192,62289,1,0,0:0:0:0:
256,192,62354,1,0,0:0:0:0:
256,192,62419,1,0,0:0:0:0:
256,192,62485,1,0,0:0:0:0:
256,192,62550,1,0,0:0:0:0:
256,192,62811,1,0,0:0:0:0:
256,192,62876,1,0,0:0:0:0:
256,192,62941,1,0,0:0:0:0:
256,192,63006,1,0,0:0:0:0:
256,192,63072,1,0,0:0:0:0:
256,192,63332,1,0,0:0:0:0:
256,192,63593,1,0,0:0:0:0:
256,192,63854,1,8,0:0:0:0:
256,192,63941,1,8,0:0:0:0:
256,192,64028,1,0,0:0:0:0:
256,192,64115,1,8,0:0:0:0:
256,192,64202,1,0,0:0:0:0:
256,192,64289,1,8,0:0:0:0:
256,192,64376,1,8,0:0:0:0:
256,192,64463,1,8,0:0:0:0:
256,192,64550,1,0,0:0:0:0:
256,192,64637,1,8,0:0:0:0:
256,192,64724,1,8,0:0:0:0:
256,192,64811,1,8,0:0:0:0:
256,192,64898,1,0,0:0:0:0:
256,192,64963,1,0,0:0:0:0:
256,192,65028,1,0,0:0:0:0:
256,192,65093,1,0,0:0:0:0:
256,192,65158,1,0,0:0:0:0:
256,192,65680,1,0,0:0:0:0:
256,192,65745,1,0,0:0:0:0:
256,192,65811,1,0,0:0:0:0:
256,192,65876,1,0,0:0:0:0:
256,192,65941,1,8,0:0:0:0:
256,192,66202,1,0,0:0:0:0:
256,192,66463,1,0,0:0:0:0:
256,192,66528,1,0,0:0:0:0:
256,192,66593,1,0,0:0:0:0:
256,192,66658,1,0,0:0:0:0:
256,192,66724,1,0,0:0:0:0:
256,192,66985,1,0,0:0:0:0:
256,192,67050,1,0,0:0:0:0:
256,192,67115,1,0,0:0:0:0:
256,192,67180,1,0,0:0:0:0:
256,192,67245,1,0,0:0:0:0:
256,192,67767,1,0,0:0:0:0:
256,192,67832,1,0,0:0:0:0:
256,192,67898,1,0,0:0:0:0:
256,192,67963,1,0,0:0:0:0:
256,192,68028,1,8,0:0:0:0:
256,192,68289,1,0,0:0:0:0:
256,192,68463,1,0,0:0:0:0:
256,192,68550,1,8,0:0:0:0:
256,192,68637,1,8,0:0:0:0:
256,192,68724,1,0,0:0:0:0:
256,192,68811,1,8,0:0:0:0:
256,192,68898,1,0,0:0:0:0:
256,192,68985,1,8,0:0:0:0:
256,192,69072,1,0,0:0:0:0:
256,192,69137,1,0,0:0:0:0:
256,192,69202,1,0,0:0:0:0:
256,192,69267,1,0,0:0:0:0:
256,192,69332,1,0,0:0:0:0:
256,192,69854,1,0,0:0:0:0:
256,192,69919,1,0,0:0:0:0:
256,192,69985,1,0,0:0:0:0:
256,192,70050,1,0,0:0:0:0:
256,192,70115,1,8,0:0:0:0:
256,192,70376,1,0,0:0:0:0:
256,192,70637,1,0,0:0:0:0:
256,192,70702,1,0,0:0:0:0:
256,192,70767,1,0,0:0:0:0:
256,192,70832,1,0,0:0:0:0:
256,192,70898,1,0,0:0:0:0:
256,192,71158,1,0,0:0:0:0:
256,192,71224,1,0,0:0:0:0:
256,192,71289,1,0,0:0:0:0:
256,192,71354,1,0,0:0:0:0:
256,192,71419,1,0,0:0:0:0:
256,192,71680,1,0,0:0:0:0:
256,192,71941,1,0,0:0:0:0:
256,192,72202,1,8,0:0:0:0:
256,192,72289,1,0,0:0:0:0:
256,192,72376,1,0,0:0:0:0:
256,192,72463,1,8,0:0:0:0:
256,192,72550,1,0,0:0:0:0:
256,192,72637,1,8,0:0:0:0:
256,192,72724,1,8,0:0:0:0:
256,192,72811,1,0,0:0:0:0:
256,192,72898,1,0,0:0:0:0:
256,192,72985,1,8,0:0:0:0:
256,192,73072,1,8,0:0:0:0:
256,192,73158,1,8,0:0:0:0:
256,192,73245,1,4,0:0:0:0:
256,192,74028,1,0,0:0:0:0:
256,192,74289,1,8,0:0:0:0:
256,192,75072,1,0,0:0:0:0:
256,192,75202,1,0,0:0:0:0:
256,192,75332,1,12,0:0:0:0:
256,192,76376,1,8,0:0:0:0:
256,192,76637,1,0,0:0:0:0:
256,192,76767,1,0,0:0:0:0:
256,192,76898,1,8,0:0:0:0:
256,192,77028,1,0,0:0:0:0:
256,192,77419,1,12,0:0:0:0:
256,192,78202,1,0,0:0:0:0:
256,192,78267,1,0,0:0:0:0:
256,192,78332,1,0,0:0:0:0:
256,192,78398,1,0,0:0:0:0:
256,192,78463,1,8,0:0:0:0:
256,192,78985,1,0,0:0:0:0:
256,192,79245,1,0,0:0:0:0:
256,192,79311,1,0,0:0:0:0:
256,192,79376,1,0,0:0:0:0:
256,192,79441,1,0,0:0:0:0:
256,192,79506,1,8,0:0:0:0:
256,192,79767,1,0,0:0:0:0:
256,192,79898,1,0,0:0:0:0:
256,192,80028,1,0,0:0:0:0:
256,192,80158,1,8,0:0:0:0:
256,192,80289,1,0,0:0:0:0:
256,192,80354,1,0,0:0:0:0:
256,192,80419,1,0,0:0:0:0:
256,192,80485,1,0,0:0:0:0:
256,192,80550,1,8,0:0:0:0:
256,192,80811,1,8,0:0:0:0:
256,192,80941,1,0,0:0:0:0:
256,192,81202,1,0,0:0:0:0:
256,192,81332,1,8,0:0:0:0:
256,192,81593,1,0,0:0:0:0:
256,192,81854,1,8,0:0:0:0:
256,192,82115,1,0,0:0:0:0:
256,192,82245,1,0,0:0:0:0:
256,192,82376,1,8,0:0:0:0:
256,192,82637,1,0,0:0:0:0:
256,192,82898,1,8,0:0:0:0:
256,192,83028,1,0,0:0:0:0:
256,192,83289,1,0,0:0:0:0:
256,192,83419,1,8,0:0:0:0:
256,192,83680,1,0,0:0:0:0:
256,192,83941,1,8,0:0:0:0:
256,192,84202,1,0,0:0:0:0:
256,192,84332,1,0,0:0:0:0:
256,192,84463,1,8,0:0:0:0:
256,192,84724,1,0,0:0:0:0:
256,192,84985,1,8,0:0:0:0:
256,192,85115,1,0,0:0:0:0:
256,192,85376,1,0,0:0:0:0:
256,192,85506,1,8,0:0:0:0:
256,192,85637,1,8,0:0:0:0:
256,192,85767,1,0,0:0:0:0:
256,192,86028,1,8,0:0:0:0:
256,192,86289,1,0,0:0:0:0:
256,192,86419,1,0,0:0:0:0:
256,192,86550,1,8,0:0:0:0:
256,192,86811,1,0,0:0:0:0:
256,192,87072,1,8,0:0:0:0:
256,192,87202,1,0,0:0:0:0:
256,192,87332,1,0,0:0:0:0:
256,192,87463,1,0,0:0:0:0:
256,192,87593,1,8,0:0:0:0:
256,192,87854,1,0,0:0:0:0:
256,192,88115,1,8,0:0:0:0:
256,192,88245,1,8,0:0:0:0:
256,192,88376,1,0,0:0:0:0:
256,192,88506,1,0,0:0:0:0:
256,192,88637,1,8,0:0:0:0:
256,192,88898,1,8,0:0:0:0:
256,192,89158,1,0,0:0:0:0:
256,192,89289,1,8,0:0:0:0:
256,192,89419,1,8,0:0:0:0:
256,192,89550,1,0,0:0:0:0:
256,192,89680,1,8,0:0:0:0:
256,192,89941,1,0,0:0:0:0:
256,192,90202,1,8,0:0:0:0:
256,192,90463,1,0,0:0:0:0:
256,192,90593,1,0,0:0:0:0:
256,192,90724,1,8,0:0:0:0:
256,192,90985,1,0,0:0:0:0:
256,192,91246,1,8,0:0:0:0:
256,192,91376,1,0,0:0:0:0:
256,192,91637,1,0,0:0:0:0:
256,192,91767,1,8,0:0:0:0:
256,192,92028,1,0,0:0:0:0:
256,192,92289,1,8,0:0:0:0:
256,192,92550,1,0,0:0:0:0:
256,192,92680,1,0,0:0:0:0:
256,192,92811,1,8,0:0:0:0:
256,192,93072,1,0,0:0:0:0:
256,192,93333,1,8,0:0:0:0:
256,192,93463,1,0,0:0:0:0:
256,192,93724,1,0,0:0:0:0:
256,192,93854,1,8,0:0:0:0:
256,192,93985,1,8,0:0:0:0:
256,192,94115,1,0,0:0:0:0:
256,192,94376,1,8,0:0:0:0:
256,192,94637,1,0,0:0:0:0:
256,192,94767,1,0,0:0:0:0:
256,192,94898,1,8,0:0:0:0:
256,192,95159,1,0,0:0:0:0:
256,192,95420,1,8,0:0:0:0:
256,192,95550,1,0,0:0:0:0:
256,192,95680,1,0,0:0:0:0:
256,192,95811,1,0,0:0:0:0:
256,192,95941,1,8,0:0:0:0:
256,192,96202,1,4,0:0:0:0:
256,192,96463,1,8,0:0:0:0:
256,192,96724,1,0,0:0:0:0:
256,192,96854,1,0,0:0:0:0:
256,192,96985,1,8,0:0:0:0:
256,192,97115,1,0,0:0:0:0:
256,192,97246,1,8,0:0:0:0:
256,192,97332,1,8,0:0:0:0:
256,192,97419,1,8,0:0:0:0:
256,192,97506,1,0,0:0:0:0:
256,192,97593,1,0,0:0:0:0:
256,192,97680,1,0,0:0:0:0:
256,192,97767,1,8,0:0:0:0:
256,192,97854,1,0,0:0:0:0:
256,192,97941,1,0,0:0:0:0:
256,192,98028,1,8,0:0:0:0:
256,192,98115,1,8,0:0:0:0:
256,192,98202,1,8,0:0:0:0:
256,192,98289,1,4,0:0:0:0:
256,192,98419,1,0,0:0:0:0:
256,192,98550,1,8,0:0:0:0:
256,192,98680,1,0,0:0:0:0:
256,192,98811,1,0,0:0:0:0:
256,192,98941,1,0,0:0:0:0:
256,192,99072,1,8,0:0:0:0:
256,192,99202,1,0,0:0:0:0:
256,192,99267,1,0,0:0:0:0:
256,192,99333,1,0,0:0:0:0:
256,192,99463,1,0,0:0:0:0:
256,192,99594,1,8,0:0:0:0:
256,192,99724,1,0,0:0:0:0:
256,192,99854,1,0,0:0:0:0:
256,192,99985,1,0,0:0:0:0:
256,192,100115,1,8,0:0:0:0:
256,192,100245,1,8,0:0:0:0:
256,192,100376,1,0,0:0:0:0:
256,192,100506,1,0,0:0:0:0:
256,192,100637,1,8,0:0:0:0:
256,192,100767,1,0,0:0:0:0:
256,192,100898,1,0,0:0:0:0:
256,192,101028,1,0,0:0:0:0:
256,192,101159,1,8,0:0:0:0:
256,192,101289,1,0,0:0:0:0:
256,192,101354,1,0,0:0:0:0:
256,192,101420,1,0,0:0:0:0:
256,192,101550,1,0,0:0:0:0:
256,192,101681,1,8,0:0:0:0:
256,192,101811,1,0,0:0:0:0:
256,192,101941,1,0,0:0:0:0:
256,192,102072,1,0,0:0:0:0:
256,192,102202,1,8,0:0:0:0:
256,192,102333,1,8,0:0:0:0:
256,192,102463,1,0,0:0:0:0:
256,192,102593,1,0,0:0:0:0:
256,192,102724,1,8,0:0:0:0:
256,192,102854,1,0,0:0:0:0:
256,192,102985,1,0,0:0:0:0:
256,192,103115,1,0,0:0:0:0:
256,192,103246,1,8,0:0:0:0:
256,192,103376,1,0,0:0:0:0:
256,192,103441,1,0,0:0:0:0:
256,192,103507,1,0,0:0:0:0:
256,192,103637,1,0,0:0:0:0:
256,192,103768,1,8,0:0:0:0:
256,192,103898,1,0,0:0:0:0:
256,192,104028,1,0,0:0:0:0:
256,192,104159,1,0,0:0:0:0:
256,192,104289,1,8,0:0:0:0:
256,192,104419,1,8,0:0:0:0:
256,192,104485,1,8,0:0:0:0:
256,192,104550,1,0,0:0:0:0:
256,192,104680,1,0,0:0:0:0:
256,192,104811,1,8,0:0:0:0:
256,192,104941,1,0,0:0:0:0:
256,192,105072,1,0,0:0:0:0:
256,192,105202,1,0,0:0:0:0:
256,192,105333,1,8,0:0:0:0:
256,192,105463,1,0,0:0:0:0:
256,192,105528,1,0,0:0:0:0:
256,192,105594,1,8,0:0:0:0:
256,192,105724,1,0,0:0:0:0:
256,192,105854,1,0,0:0:0:0:
256,192,105985,1,8,0:0:0:0:
256,192,106115,1,0,0:0:0:0:
256,192,106246,1,0,0:0:0:0:
256,192,106376,1,8,0:0:0:0:
256,192,106441,1,0,0:0:0:0:
256,192,106507,1,8,0:0:0:0:
256,192,106572,1,8,0:0:0:0:
256,192,106637,1,0,0:0:0:0:
256,192,106767,1,0,0:0:0:0:
256,192,106898,1,8,0:0:0:0:
256,192,107028,1,0,0:0:0:0:
256,192,107159,1,0,0:0:0:0:
256,192,107289,1,0,0:0:0:0:
256,192,107420,1,8,0:0:0:0:
256,192,107550,1,0,0:0:0:0:
256,192,107615,1,0,0:0:0:0:
256,192,107681,1,0,0:0:0:0:
256,192,107811,1,0,0:0:0:0:
256,192,107942,1,8,0:0:0:0:
256,192,108072,1,0,0:0:0:0:
256,192,108202,1,0,0:0:0:0:
256,192,108333,1,0,0:0:0:0:
256,192,108463,1,8,0:0:0:0:
256,192,108593,1,8,0:0:0:0:
256,192,108658,1,8,0:0:0:0:
256,192,108724,1,0,0:0:0:0:
256,192,108854,1,0,0:0:0:0:
256,192,108985,1,8,0:0:0:0:
256,192,109115,1,0,0:0:0:0:
256,192,109246,1,0,0:0:0:0:
256,192,109376,1,0,0:0:0:0:
256,192,109507,1,8,0:0:0:0:
256,192,109637,1,0,0:0:0:0:
256,192,109702,1,0,0:0:0:0:
256,192,109768,1,0,0:0:0:0:
256,192,109898,1,0,0:0:0:0:
256,192,110029,1,8,0:0:0:0:
256,192,110159,1,0,0:0:0:0:
256,192,110289,1,0,0:0:0:0:
256,192,110420,1,0,0:0:0:0:
256,192,110550,1,8,0:0:0:0:
256,192,110681,1,0,0:0:0:0:
256,192,110745,1,0,0:0:0:0:
256,192,110811,1,8,0:0:0:0:
256,192,110941,1,0,0:0:0:0:
256,192,111072,1,8,0:0:0:0:
256,192,111202,1,0,0:0:0:0:
256,192,111332,1,0,0:0:0:0:
256,192,111463,1,0,0:0:0:0:
256,192,111593,1,8,0:0:0:0:
256,192,111724,1,0,0:0:0:0:
256,192,111789,1,0,0:0:0:0:
256,192,111854,1,0,0:0:0:0:
256,192,111985,1,0,0:0:0:0:
256,192,112115,1,8,0:0:0:0:
256,192,112245,1,0,0:0:0:0:
256,192,112376,1,0,0:0:0:0:
256,192,112506,1,0,0:0:0:0:
256,192,112637,1,8,0:0:0:0:
256,192,112767,1,0,0:0:0:0:
256,192,112898,1,8,0:0:0:0:
256,192,112963,1,8,0:0:0:0:
256,192,113028,1,8,0:0:0:0:
256,192,113158,1,8,0:0:0:0:
256,192,113289,1,8,0:0:0:0:
256,192,113419,1,0,0:0:0:0:
256,192,113550,1,0,0:0:0:0:
256,192,113680,1,8,0:0:0:0:
256,192,113811,1,8,0:0:0:0:
256,192,113941,1,0,0:0:0:0:
256,192,114072,1,0,0:0:0:0:
256,192,114202,1,8,0:0:0:0:
256,192,114332,1,0,0:0:0:0:
256,192,114463,1,8,0:0:0:0:
256,192,114528,1,8,0:0:0:0:
256,192,114593,1,8,0:0:0:0:
256,192,114724,1,0,0:0:0:0:
256,192,114854,1,8,0:0:0:0:
256,192,114985,1,0,0:0:0:0:
256,192,115050,1,0,0:0:0:0:
256,192,115115,1,0,0:0:0:0:
256,192,115245,1,0,0:0:0:0:
256,192,115376,1,0,0:0:0:0:
256,192,115506,1,8,0:0:0:0:
256,192,116028,1,0,0:0:0:0:
256,192,116093,1,0,0:0:0:0:
256,192,116158,1,8,0:0:0:0:
256,192,116289,1,0,0:0:0:0:
256,192,116419,1,0,0:0:0:0:
256,192,116550,1,8,0:0:0:0:
256,192,116811,1,0,0:0:0:0:
256,192,116941,1,8,0:0:0:0:
256,192,117072,1,0,0:0:0:0:
256,192,117137,1,0,0:0:0:0:
256,192,117202,1,0,0:0:0:0:
256,192,117332,1,0,0:0:0:0:
256,192,117463,1,0,0:0:0:0:
256,192,117593,1,8,0:0:0:0:
256,192,117658,1,0,0:0:0:0:
256,192,117724,1,0,0:0:0:0:
256,192,117854,1,0,0:0:0:0:
256,192,117919,1,0,0:0:0:0:
256,192,117985,1,8,0:0:0:0:
256,192,118115,1,0,0:0:0:0:
256,192,118311,1,0,0:0:0:0:
256,192,118506,1,0,0:0:0:0:
256,192,118637,1,12,0:0:0:0:
256,192,119158,1,0,0:0:0:0:
256,192,119223,1,0,0:0:0:0:
256,192,119288,1,0,0:0:0:0:
256,192,119418,1,0,0:0:0:0:
256,192,119549,1,0,0:0:0:0:
256,192,119679,1,8,0:0:0:0:
256,192,120201,1,0,0:0:0:0:
256,192,120266,1,0,0:0:0:0:
256,192,120331,1,8,0:0:0:0:
256,192,120462,1,0,0:0:0:0:
256,192,120592,1,0,0:0:0:0:
256,192,120723,1,8,0:0:0:0:
256,192,120984,1,0,0:0:0:0:
256,192,121114,1,8,0:0:0:0:
256,192,121245,1,0,0:0:0:0:
256,192,121310,1,0,0:0:0:0:
256,192,121375,1,0,0:0:0:0:
256,192,121505,1,0,0:0:0:0:
256,192,121636,1,0,0:0:0:0:
256,192,121766,1,8,0:0:0:0:
256,192,121831,1,0,0:0:0:0:
256,192,121897,1,0,0:0:0:0:
256,192,122027,1,0,0:0:0:0:
256,192,122092,1,0,0:0:0:0:
256,192,122158,1,8,0:0:0:0:
256,192,122288,1,8,0:0:0:0:
256,192,122419,1,0,0:0:0:0:
256,192,122550,1,8,0:0:0:0:
256,192,122680,1,8,0:0:0:0:
256,192,122810,1,8,0:0:0:0:
256,192,122941,1,0,0:0:0:0:
256,192,123072,1,8,0:0:0:0:
256,192,123137,1,8,0:0:0:0:
256,192,123202,1,8,0:0:0:0:
256,192,123267,1,8,0:0:0:0:
256,192,123332,1,0,0:0:0:0:
256,192,123463,1,0,0:0:0:0:
256,192,123593,1,8,0:0:0:0:
256,192,123724,1,0,0:0:0:0:
256,192,123854,1,0,0:0:0:0:
256,192,123985,1,0,0:0:0:0:
256,192,124115,1,8,0:0:0:0:
256,192,124245,1,0,0:0:0:0:
256,192,124376,1,0,0:0:0:0:
256,192,124441,1,0,0:0:0:0:
256,192,124506,1,0,0:0:0:0:
256,192,124637,1,8,0:0:0:0:
256,192,124767,1,0,0:0:0:0:
256,192,124832,1,0,0:0:0:0:
256,192,124898,1,0,0:0:0:0:
256,192,125028,1,0,0:0:0:0:
256,192,125158,1,8,0:0:0:0:
256,192,125289,1,0,0:0:0:0:
256,192,125419,1,0,0:0:0:0:
256,192,125550,1,0,0:0:0:0:
256,192,125680,1,8,0:0:0:0:
256,192,125811,1,0,0:0:0:0:
256,192,125941,1,0,0:0:0:0:
256,192,126072,1,0,0:0:0:0:
256,192,126202,1,8,0:0:0:0:
256,192,126332,1,0,0:0:0:0:
256,192,126463,1,0,0:0:0:0:
256,192,126528,1,0,0:0:0:0:
256,192,126593,1,0,0:0:0:0:
256,192,126724,1,8,0:0:0:0:
256,192,126854,1,0,0:0:0:0:
256,192,126919,1,0,0:0:0:0:
256,192,126985,1,0,0:0:0:0:
256,192,127115,1,0,0:0:0:0:
256,192,127245,1,8,0:0:0:0:
256,192,127311,1,8,0:0:0:0:
256,192,127376,1,8,0:0:0:0:
256,192,127441,1,8,0:0:0:0:
256,192,127506,1,0,0:0:0:0:
256,192,127637,1,0,0:0:0:0:
256,192,127767,1,8,0:0:0:0:
256,192,127898,1,0,0:0:0:0:
256,192,128028,1,0,0:0:0:0:
256,192,128158,1,0,0:0:0:0:
256,192,128289,1,8,0:0:0:0:
256,192,128419,1,0,0:0:0:0:
256,192,128550,1,8,0:0:0:0:
256,192,128615,1,0,0:0:0:0:
256,192,128680,1,0,0:0:0:0:
256,192,128811,1,0,0:0:0:0:
256,192,128941,1,8,0:0:0:0:
256,192,129006,1,0,0:0:0:0:
256,192,129072,1,0,0:0:0:0:
256,192,129202,1,0,0:0:0:0:
256,192,129332,1,8,0:0:0:0:
256,192,129463,1,0,0:0:0:0:
256,192,129593,1,0,0:0:0:0:
256,192,129680,1,0,0:0:0:0:
256,192,129767,1,0,0:0:0:0:
256,192,129854,1,8,0:0:0:0:
256,192,129941,1,0,0:0:0:0:
256,192,130028,1,8,0:0:0:0:
256,192,130115,1,0,0:0:0:0:
256,192,130202,1,0,0:0:0:0:
256,192,130289,1,0,0:0:0:0:
256,192,130376,1,8,0:0:0:0:
256,192,130463,1,8,0:0:0:0:
256,192,130550,1,8,0:0:0:0:
256,192,130637,1,8,0:0:0:0:
256,192,130724,1,0,0:0:0:0:
256,192,130811,1,0,0:0:0:0:
256,192,130898,1,8,0:0:0:0:
256,192,130985,1,0,0:0:0:0:
256,192,131072,1,8,0:0:0:0:
256,192,131158,1,8,0:0:0:0:
256,192,131680,1,0,0:0:0:0:
256,192,131745,1,0,0:0:0:0:
256,192,131811,1,0,0:0:0:0:
256,192,132072,1,0,0:0:0:0:
256,192,132137,1,0,0:0:0:0:
256,192,132202,1,8,0:0:0:0:
256,192,132463,1,0,0:0:0:0:
256,192,132528,1,0,0:0:0:0:
256,192,132593,1,0,0:0:0:0:
256,192,132724,1,12,0:0:0:0:
256,192,133506,1,8,0:0:0:0:
256,192,133767,1,4,0:0:0:0:
256,192,134158,1,0,0:0:0:0:
256,192,134289,1,0,0:0:0:0:
256,192,134354,1,0,0:0:0:0:
256,192,134419,1,0,0:0:0:0:
256,192,134550,1,0,0:0:0:0:
256,192,134680,1,0,0:0:0:0:
256,192,134811,1,12,0:0:0:0:
256,192,135072,1,0,0:0:0:0:
256,192,135202,1,0,0:0:0:0:
256,192,135332,1,8,0:0:0:0:
256,192,135463,1,0,0:0:0:0:
256,192,135854,1,4,0:0:0:0:
256,192,136115,1,8,0:0:0:0:
256,192,136245,1,0,0:0:0:0:
256,192,136376,1,8,0:0:0:0:
256,192,136637,1,0,0:0:0:0:
256,192,136767,1,0,0:0:0:0:
256,192,136898,1,12,0:0:0:0:
256,192,137158,1,0,0:0:0:0:
256,192,137419,1,8,0:0:0:0:
256,192,137550,1,0,0:0:0:0:
256,192,137680,1,0,0:0:0:0:
256,192,137811,1,0,0:0:0:0:
256,192,137941,1,0,0:0:0:0:
256,192,138006,1,0,0:0:0:0:
256,192,138072,1,0,0:0:0:0:
256,192,138202,1,0,0:0:0:0:
256,192,138332,1,0,0:0:0:0:
256,192,138593,1,0,0:0:0:0:
256,192,138724,1,0,0:0:0:0:
256,192,138854,1,0,0:0:0:0:
256,192,138985,1,12,0:0:0:0:
256,192,139245,1,8,0:0:0:0:
256,192,139311,1,8,0:0:0:0:
256,192,139376,1,8,0:0:0:0:
256,192,139506,1,0,0:0:0:0:
256,192,139572,1,0,0:0:0:0:
256,192,139637,1,0,0:0:0:0:
256,192,139702,1,0,0:0:0:0:
256,192,139767,1,8,0:0:0:0:
256,192,139832,1,8,0:0:0:0:
256,192,139898,1,8,0:0:0:0:
256,192,139963,1,8,0:0:0:0:
256,192,140028,1,0,0:0:0:0:
256,192,140093,1,0,0:0:0:0:
256,192,140158,1,0,0:0:0:0:
256,192,140419,1,0,0:0:0:0:
256,192,140485,1,0,0:0:0:0:
256,192,140550,1,8,0:0:0:0:
256,192,140811,1,0,0:0:0:0:
256,192,140876,1,0,0:0:0:0:
256,192,140941,1,0,0:0:0:0:
256,192,141072,1,12,0:0:0:0:
256,192,141854,1,8,0:0:0:0:
256,192,142115,1,4,0:0:0:0:
256,192,142506,1,0,0:0:0:0:
256,192,142637,1,0,0:0:0:0:
256,192,142702,1,0,0:0:0:0:
256,192,142767,1,0,0:0:0:0:
256,192,142898,1,0,0:0:0:0:
256,192,143028,1,0,0:0:0:0:
256,192,143159,1,12,0:0:0:0:
256,192,143420,1,0,0:0:0:0:
256,192,143550,1,0,0:0:0:0:
256,192,143680,1,8,0:0:0:0:
256,192,143811,1,0,0:0:0:0:
256,192,144202,1,4,0:0:0:0:
256,192,144463,1,8,0:0:0:0:
256,192,144593,1,0,0:0:0:0:
256,192,144724,1,8,0:0:0:0:
256,192,144985,1,0,0:0:0:0:
256,192,145115,1,0,0:0:0:0:
256,192,145246,1,12,0:0:0:0:
256,192,145506,1,0,0:0:0:0:
256,192,145637,1,0,0:0:0:0:
256,192,145702,1,0,0:0:0:0:
256,192,145767,1,8,0:0:0:0:
256,192,145898,1,0,0:0:0:0:
256,192,146028,1,0,0:0:0:0:
256,192,146159,1,0,0:0:0:0:
256,192,146289,1,0,0:0:0:0:
256,192,146354,1,0,0:0:0:0:
256,192,146420,1,0,0:0:0:0:
256,192,146550,1,0,0:0:0:0:
256,192,146680,1,0,0:0:0:0:
256,192,146941,1,0,0:0:0:0:
256,192,147006,1,0,0:0:0:0:
256,192,147072,1,0,0:0:0:0:
256,192,147202,1,0,0:0:0:0:
256,192,147332,1,0,0:0:0:0:
256,192,147463,1,8,0:0:0:0:
256,192,147724,1,0,0:0:0:0:
256,192,147854,1,8,0:0:0:0:
256,192,147985,1,0,0:0:0:0:
256,192,148115,1,8,0:0:0:0:
256,192,148245,1,8,0:0:0:0:
256,192,148376,1,4,0:0:0:0:
256,192,148506,1,0,0:0:0:0:
256,192,148637,1,8,0:0:0:0:
256,192,148767,1,0,0:0:0:0:
256,192,148898,1,0,0:0:0:0:
256,192,149028,1,0,0:0:0:0:
256,192,149158,1,8,0:0:0:0:
256,192,149289,1,0,0:0:0:0:
256,192,149419,1,0,0:0:0:0:
256,192,149485,1,0,0:0:0:0:
256,192,149550,1,0,0:0:0:0:
256,192,149680,1,8,0:0:0:0:
256,192,149811,1,0,0:0:0:0:
256,192,149876,1,0,0:0:0:0:
256,192,149941,1,0,0:0:0:0:
256,192,150072,1,0,0:0:0:0:
256,192,150202,1,8,0:0:0:0:
256,192,150267,1,8,0:0:0:0:
256,192,150332,1,0,0:0:0:0:
256,192,150398,1,0,0:0:0:0:
256,192,150463,1,8,0:0:0:0:
256,192,150593,1,0,0:0:0:0:
256,192,150724,1,0,0:0:0:0:
256,192,150854,1,8,0:0:0:0:
256,192,150985,1,0,0:0:0:0:
256,192,151115,1,0,0:0:0:0:
256,192,151245,1,8,0:0:0:0:
256,192,151376,1,0,0:0:0:0:
256,192,151506,1,8,0:0:0:0:
256,192,151572,1,8,0:0:0:0:
256,192,151637,1,0,0:0:0:0:
256,192,151767,1,0,0:0:0:0:
256,192,151898,1,8,0:0:0:0:
256,192,151963,1,8,0:0:0:0:
256,192,152028,1,0,0:0:0:0:
256,192,152158,1,0,0:0:0:0:
256,192,152289,1,8,0:0:0:0:
256,192,152354,1,8,0:0:0:0:
256,192,152419,1,8,0:0:0:0:
256,192,152485,1,8,0:0:0:0:
256,192,152550,1,0,0:0:0:0:
256,192,152680,1,0,0:0:0:0:
256,192,152811,1,8,0:0:0:0:
256,192,152941,1,0,0:0:0:0:
256,192,153072,1,0,0:0:0:0:
256,192,153137,1,0,0:0:0:0:
256,192,153202,1,0,0:0:0:0:
256,192,153332,1,8,0:0:0:0:
256,192,153463,1,0,0:0:0:0:
256,192,153593,1,8,0:0:0:0:
256,192,153658,1,8,0:0:0:0:
256,192,153724,1,0,0:0:0:0:
256,192,153854,1,8,0:0:0:0:
256,192,153985,1,0,0:0:0:0:
256,192,154050,1,0,0:0:0:0:
256,192,154115,1,8,0:0:0:0:
256,192,154245,1,0,0:0:0:0:
256,192,154376,1,8,0:0:0:0:
256,192,154506,1,8,0:0:0:0:
256,192,154637,1,0,0:0:0:0:
256,192,154702,1,0,0:0:0:0:
256,192,154767,1,0,0:0:0:0:
256,192,154898,1,8,0:0:0:0:
256,192,155028,1,0,0:0:0:0:
256,192,155158,1,0,0:0:0:0:
256,192,155224,1,0,0:0:0:0:
256,192,155289,1,0,0:0:0:0:
256,192,155419,1,8,0:0:0:0:
256,192,155485,1,0,0:0:0:0:
256,192,155550,1,0,0:0:0:0:
256,192,155680,1,0,0:0:0:0:
256,192,155745,1,0,0:0:0:0:
256,192,155811,1,0,0:0:0:0:
256,192,155941,1,8,0:0:0:0:
256,192,156072,1,0,0:0:0:0:
256,192,156202,1,8,0:0:0:0:
256,192,156267,1,8,0:0:0:0:
256,192,156332,1,0,0:0:0:0:
256,192,156463,1,8,0:0:0:0:
256,192,156528,1,8,0:0:0:0:
256,192,156593,1,8,0:0:0:0:
256,192,156658,1,8,0:0:0:0:
256,192,156724,1,0,0:0:0:0:
256,192,156985,1,8,0:0:0:0:
256,192,157115,1,0,0:0:0:0:
256,192,157245,1,0,0:0:0:0:
256,192,157376,1,0,0:0:0:0:
256,192,157506,1,8,0:0:0:0:
256,192,157572,1,0,0:0:0:0:
256,192,157637,1,8,0:0:0:0:
256,192,157702,1,8,0:0:0:0:
256,192,157767,1,0,0:0:0:0:
256,192,157832,1,0,0:0:0:0:
256,192,157898,1,0,0:0:0:0:
256,192,158028,1,8,0:0:0:0:
256,192,158158,1,0,0:0:0:0:
256,192,158224,1,0,0:0:0:0:
256,192,158289,1,0,0:0:0:0:
256,192,158419,1,0,0:0:0:0:
256,192,158550,1,8,0:0:0:0:
256,192,158680,1,0,0:0:0:0:
256,192,158811,1,0,0:0:0:0:
256,192,158941,1,0,0:0:0:0:
256,192,159072,1,8,0:0:0:0:
256,192,159202,1,0,0:0:0:0:
256,192,159332,1,0,0:0:0:0:
256,192,159398,1,0,0:0:0:0:
256,192,159463,1,0,0:0:0:0:
256,192,159528,1,0,0:0:0:0:
256,192,159593,1,8,0:0:0:0:
256,192,159724,1,0,0:0:0:0:
256,192,159854,1,0,0:0:0:0:
256,192,159919,1,0,0:0:0:0:
256,192,159985,1,0,0:0:0:0:
256,192,160050,1,0,0:0:0:0:
256,192,160115,1,8,0:0:0:0:
256,192,160245,1,0,0:0:0:0:
256,192,160311,1,0,0:0:0:0:
256,192,160376,1,8,0:0:0:0:
256,192,160506,1,0,0:0:0:0:
256,192,160637,1,8,0:0:0:0:
256,192,160702,1,8,0:0:0:0:
256,192,160767,1,8,0:0:0:0:
256,192,160832,1,8,0:0:0:0:
256,192,160898,1,0,0:0:0:0:
256,192,161028,1,0,0:0:0:0:
256,192,161158,1,8,0:0:0:0:
256,192,161289,1,0,0:0:0:0:
256,192,161419,1,0,0:0:0:0:
256,192,161485,1,0,0:0:0:0:
256,192,161550,1,0,0:0:0:0:
256,192,161680,1,8,0:0:0:0:
256,192,161811,1,0,0:0:0:0:
256,192,161941,1,8,0:0:0:0:
256,192,162006,1,8,0:0:0:0:
256,192,162072,1,0,0:0:0:0:
256,192,162202,1,8,0:0:0:0:
256,192,162332,1,0,0:0:0:0:
256,192,162398,1,0,0:0:0:0:
256,192,162463,1,0,0:0:0:0:
256,192,162593,1,0,0:0:0:0:
256,192,162724,1,8,0:0:0:0:
256,192,162854,1,0,0:0:0:0:
256,192,162985,1,0,0:0:0:0:
256,192,163050,1,0,0:0:0:0:
256,192,163115,1,0,0:0:0:0:
256,192,163245,1,8,0:0:0:0:
256,192,163376,1,0,0:0:0:0:
256,192,163506,1,0,0:0:0:0:
256,192,163572,1,8,0:0:0:0:
256,192,163637,1,0,0:0:0:0:
256,192,163702,1,0,0:0:0:0:
256,192,163767,1,8,0:0:0:0:
256,192,163832,1,8,0:0:0:0:
256,192,163898,1,0,0:0:0:0:
256,192,164028,1,0,0:0:0:0:
256,192,164158,1,0,0:0:0:0:
256,192,164289,1,8,0:0:0:0:
256,192,164419,1,0,0:0:0:0:
256,192,164550,1,0,0:0:0:0:
256,192,164615,1,0,0:0:0:0:
256,192,164680,1,8,0:0:0:0:
256,192,164745,1,0,0:0:0:0:
256,192,164811,1,8,0:0:0:0:
256,192,164876,1,8,0:0:0:0:
256,192,164941,1,8,0:0:0:0:
256,192,165006,1,8,0:0:0:0:
256,192,165072,1,0,0:0:0:0:
256,192,165137,1,0,0:0:0:0:
256,192,165202,1,0,0:0:0:0:
256,192,165332,1,8,0:0:0:0:
256,192,165463,1,0,0:0:0:0:
256,192,165593,1,0,0:0:0:0:
256,192,165658,1,0,0:0:0:0:
256,192,165724,1,0,0:0:0:0:
256,192,165854,1,8,0:0:0:0:
256,192,165985,1,0,0:0:0:0:
256,192,166115,1,0,0:0:0:0:
256,192,166180,1,0,0:0:0:0:
256,192,166245,1,0,0:0:0:0:
256,192,166311,1,0,0:0:0:0:
256,192,166376,1,8,0:0:0:0:
256,192,166506,1,0,0:0:0:0:
256,192,166572,1,8,0:0:0:0:
256,192,166637,1,0,0:0:0:0:
256,192,166702,1,0,0:0:0:0:
256,192,166767,1,0,0:0:0:0:
256,192,166898,1,8,0:0:0:0:
256,192,167028,1,0,0:0:0:0:
256,192,167158,1,8,0:0:0:0:
256,192,167224,1,8,0:0:0:0:
256,192,167289,1,0,0:0:0:0:
256,192,167419,1,8,0:0:0:0:
256,192,167550,1,0,0:0:0:0:
256,192,167680,1,0,0:0:0:0:
256,192,167745,1,8,0:0:0:0:
256,192,167811,1,0,0:0:0:0:
256,192,167941,1,8,0:0:0:0:
256,192,168072,1,0,0:0:0:0:
256,192,168202,1,0,0:0:0:0:
256,192,168267,1,0,0:0:0:0:
256,192,168332,1,0,0:0:0:0:
256,192,168398,1,0,0:0:0:0:
256,192,168463,1,8,0:0:0:0:
256,192,168593,1,0,0:0:0:0:
256,192,168658,1,8,0:0:0:0:
256,192,168724,1,0,0:0:0:0:
256,192,168854,1,0,0:0:0:0:
256,192,168985,1,8,0:0:0:0:
256,192,169050,1,8,0:0:0:0:
256,192,169115,1,8,0:0:0:0:
256,192,169180,1,8,0:0:0:0:
256,192,169245,1,0,0:0:0:0:
256,192,169311,1,0,0:0:0:0:
256,192,169376,1,0,0:0:0:0:
256,192,169441,1,0,0:0:0:0:
256,192,169506,1,8,0:0:0:0:
256,192,169637,1,0,0:0:0:0:
256,192,169702,1,8,0:0:0:0:
256,192,169767,1,0,0:0:0:0:
256,192,169832,1,0,0:0:0:0:
256,192,169898,1,0,0:0:0:0:
256,192,169963,1,0,0:0:0:0:
256,192,170028,1,8,0:0:0:0:
256,192,170158,1,0,0:0:0:0:
256,192,170224,1,0,0:0:0:0:
256,192,170289,1,8,0:0:0:0:
256,192,170354,1,8,0:0:0:0:
256,192,170419,1,0,0:0:0:0:
256,192,170485,1,0,0:0:0:0:
256,192,170550,1,8,0:0:0:0:
256,192,170680,1,8,0:0:0:0:
256,192,170745,1,8,0:0:0:0:
256,192,170811,1,0,0:0:0:0:
256,192,170876,1,8,0:0:0:0:
256,192,170941,1,0,0:0:0:0:
256,192,171006,1,0,0:0:0:0:
256,192,171072,1,8,0:0:0:0:
256,192,171202,1,0,0:0:0:0:
256,192,171332,1,8,0:0:0:0:
256,192,171398,1,8,0:0:0:0:
256,192,171463,1,0,0:0:0:0:
256,192,171528,1,0,0:0:0:0:
256,192,171593,1,8,0:0:0:0:
256,192,171724,1,0,0:0:0:0:
256,192,171789,1,8,0:0:0:0:
256,192,171854,1,0,0:0:0:0:
256,192,171919,1,0,0:0:0:0:
256,192,171985,1,0,0:0:0:0:
256,192,172115,1,8,0:0:0:0:
256,192,172245,1,0,0:0:0:0:
256,192,172376,1,0,0:0:0:0:
256,192,172441,1,0,0:0:0:0:
256,192,172506,1,0,0:0:0:0:
256,192,172572,1,0,0:0:0:0:
256,192,172637,1,8,0:0:0:0:
256,192,172767,1,0,0:0:0:0:
256,192,172898,1,0,0:0:0:0:
256,192,172963,1,8,0:0:0:0:
256,192,173028,1,0,0:0:0:0:
256,192,173158,1,8,0:0:0:0:
256,192,173224,1,8,0:0:0:0:
256,192,173289,1,8,0:0:0:0:
256,192,173354,1,8,0:0:0:0:
256,192,173419,1,0,0:0:0:0:
256,192,173550,1,0,0:0:0:0:
256,192,173680,1,8,0:0:0:0:
256,192,173811,1,0,0:0:0:0:
256,192,173941,1,0,0:0:0:0:
256,192,174006,1,0,0:0:0:0:
256,192,174072,1,0,0:0:0:0:
256,192,174202,1,8,0:0:0:0:
256,192,174332,1,0,0:0:0:0:
256,192,174463,1,0,0:0:0:0:
256,192,174528,1,0,0:0:0:0:
256,192,174593,1,0,0:0:0:0:
256,192,174658,1,0,0:0:0:0:
256,192,174724,1,8,0:0:0:0:
256,192,174854,1,0,0:0:0:0:
256,192,174919,1,8,0:0:0:0:
256,192,174985,1,0,0:0:0:0:
256,192,175050,1,0,0:0:0:0:
256,192,175115,1,0,0:0:0:0:
256,192,175245,1,8,0:0:0:0:
256,192,175376,1,0,0:0:0:0:
256,192,175506,1,8,0:0:0:0:
256,192,175572,1,8,0:0:0:0:
256,192,175637,1,0,0:0:0:0:
256,192,175702,1,0,0:0:0:0:
256,192,175767,1,8,0:0:0:0:
256,192,175898,1,0,0:0:0:0:
256,192,176028,1,0,0:0:0:0:
256,192,176093,1,0,0:0:0:0:
256,192,176158,1,0,0:0:0:0:
256,192,176289,1,8,0:0:0:0:
256,192,176419,1,8,0:0:0:0:
256,192,176550,1,0,0:0:0:0:
256,192,176615,1,0,0:0:0:0:
256,192,176680,1,0,0:0:0:0:
256,192,176745,1,0,0:0:0:0:
256,192,176811,1,8,0:0:0:0:
256,192,176941,1,8,0:0:0:0:
256,192,177006,1,8,0:0:0:0:
256,192,177072,1,0,0:0:0:0:
256,192,177137,1,8,0:0:0:0:
256,192,177202,1,0,0:0:0:0:
256,192,177332,1,8,0:0:0:0:
256,192,177398,1,8,0:0:0:0:
256,192,177463,1,8,0:0:0:0:
256,192,177528,1,8,0:0:0:0:
256,192,177593,1,0,0:0:0:0:
256,192,177724,1,0,0:0:0:0:
256,192,177854,1,8,0:0:0:0:
256,192,177985,1,0,0:0:0:0:
256,192,178050,1,8,0:0:0:0:
256,192,178115,1,0,0:0:0:0:
256,192,178245,1,0,0:0:0:0:
256,192,178376,1,8,0:0:0:0:
256,192,178506,1,0,0:0:0:0:
256,192,178637,1,0,0:0:0:0:
256,192,178702,1,0,0:0:0:0:
256,192,178767,1,0,0:0:0:0:
256,192,178832,1,0,0:0:0:0:
256,192,178898,1,8,0:0:0:0:
256,192,179028,1,0,0:0:0:0:
256,192,179093,1,8,0:0:0:0:
256,192,179158,1,0,0:0:0:0:
256,192,179224,1,0,0:0:0:0:
256,192,179289,1,0,0:0:0:0:
256,192,179354,1,0,0:0:0:0:
256,192,179419,1,8,0:0:0:0:
256,192,179550,1,0,0:0:0:0:
256,192,179680,1,0,0:0:0:0:
256,192,179745,1,0,0:0:0:0:
256,192,179811,1,0,0:0:0:0:
256,192,179876,1,0,0:0:0:0:
256,192,179941,1,8,0:0:0:0:
256,192,180072,1,0,0:0:0:0:
256,192,180202,1,0,0:0:0:0:
256,192,180267,1,0,0:0:0:0:
256,192,180332,1,0,0:0:0:0:
256,192,180463,1,8,0:0:0:0:
256,192,180528,1,8,0:0:0:0:
256,192,180593,1,0,0:0:0:0:
256,192,180724,1,8,0:0:0:0:
256,192,180789,1,8,0:0:0:0:
256,192,180854,1,8,0:0:0:0:
256,192,180919,1,8,0:0:0:0:
256,192,180985,1,0,0:0:0:0:
256,192,181050,1,0,0:0:0:0:
256,192,181115,1,0,0:0:0:0:
256,192,181180,1,0,0:0:0:0:
256,192,181245,1,8,0:0:0:0:
256,192,181311,1,8,0:0:0:0:
256,192,181376,1,0,0:0:0:0:
256,192,181441,1,0,0:0:0:0:
256,192,181506,1,8,0:0:0:0:
256,192,181572,1,0,0:0:0:0:
256,192,181637,1,8,0:0:0:0:
256,192,181702,1,8,0:0:0:0:
256,192,181767,1,0,0:0:0:0:
256,192,182811,1,8,0:0:0:0:
256,192,183332,1,0,0:0:0:0:
256,192,183854,1,8,0:0:0:0:
256,192,184898,1,8,0:0:0:0:
256,192,185419,1,8,0:0:0:0:
256,192,185941,1,8,0:0:0:0:
256,192,186724,1,0,0:0:0:0:
256,192,186985,1,8,0:0:0:0:
256,192,187506,1,0,0:0:0:0:
256,192,188028,1,8,0:0:0:0:
256,192,188550,1,8,0:0:0:0:
256,192,188811,1,8,0:0:0:0:
256,192,189072,1,0,0:0:0:0:
256,192,189463,1,8,0:0:0:0:
256,192,189528,1,8,0:0:0:0:
256,192,189593,1,8,0:0:0:0:
256,192,189724,1,8,0:0:0:0:
256,192,189985,1,8,0:0:0:0:
256,192,190115,1,4,0:0:0:0:
256,192,190637,1,8,0:0:0:0:
256,192,191028,1,0,0:0:0:0:
256,192,191158,1,0,0:0:0:0:
256,192,191419,1,0,0:0:0:0:
256,192,191680,1,8,0:0:0:0:
256,192,191941,1,0,0:0:0:0:
256,192,192072,1,8,0:0:0:0:
256,192,192202,1,0,0:0:0:0:
256,192,192463,1,0,0:0:0:0:
256,192,192593,1,0,0:0:0:0:
256,192,192724,1,8,0:0:0:0:
256,192,192854,1,0,0:0:0:0:
256,192,192919,1,8,0:0:0:0:
256,192,192985,1,0,0:0:0:0:
256,192,193115,1,8,0:0:0:0:
256,192,193245,1,0,0:0:0:0:
256,192,193506,1,0,0:0:0:0:
256,192,193637,1,8,0:0:0:0:
256,192,193767,1,8,0:0:0:0:
256,192,193898,1,8,0:0:0:0:
256,192,194028,1,8,0:0:0:0:
256,192,194158,1,8,0:0:0:0:
256,192,194289,1,4,0:0:0:0:
256,192,194550,1,8,0:0:0:0:
256,192,194811,1,0,0:0:0:0:
256,192,195332,1,0,0:0:0:0:
256,192,195463,1,8,0:0:0:0:
256,192,195593,1,8,0:0:0:0:
256,192,195724,1,8,0:0:0:0:
256,192,195854,1,0,0:0:0:0:
256,192,195985,1,8,0:0:0:0:
256,192,196115,1,8,0:0:0:0:
256,192,196245,1,8,0:0:0:0:
256,192,196376,1,4,0:0:0:0:
256,192,196898,1,8,0:0:0:0:
256,192,196963,1,8,0:0:0:0:
256,192,197028,1,0,0:0:0:0:
256,192,197093,1,0,0:0:0:0:
256,192,197158,1,8,0:0:0:0:
256,192,197224,1,8,0:0:0:0:
256,192,197289,1,0,0:0:0:0:
256,192,197354,1,0,0:0:0:0:
256,192,197419,1,8,0:0:0:0:
256,192,197485,1,0,0:0:0:0:
256,192,197550,1,8,0:0:0:0:
256,192,197615,1,8,0:0:0:0:
256,192,197680,1,0,0:0:0:0:
256,192,197745,1,0,0:0:0:0:
256,192,197811,1,8,0:0:0:0:
256,192,197876,1,0,0:0:0:0:
256,192,197941,1,8,0:0:0:0:
256,192,198006,1,8,0:0:0:0:
256,192,198072,1,8,0:0:0:0:
256,192,198137,1,8,0:0:0:0:
256,192,198202,1,8,0:0:0:0:
256,192,198267,1,8,0:0:0:0:
256,192,198332,1,8,0:0:0:0:
256,192,198398,1,8,0:0:0:0:
256,192,198463,1,0,0:0:0:0:
256,192,198724,1,8,0:0:0:0:
256,192,198985,1,0,0:0:0:0:
256,192,199115,1,0,0:0:0:0:
256,192,199246,1,8,0:0:0:0:
256,192,199507,1,0,0:0:0:0:
256,192,199768,1,8,0:0:0:0:
256,192,199898,1,0,0:0:0:0:
256,192,200159,1,0,0:0:0:0:
256,192,200289,1,8,0:0:0:0:
256,192,200550,1,0,0:0:0:0:
256,192,200811,1,8,0:0:0:0:
256,192,201072,1,0,0:0:0:0:
256,192,201202,1,0,0:0:0:0:
256,192,201333,1,8,0:0:0:0:
256,192,201594,1,0,0:0:0:0:
256,192,201855,1,8,0:0:0:0:
256,192,201985,1,0,0:0:0:0:
256,192,202246,1,0,0:0:0:0:
256,192,202376,1,8,0:0:0:0:
256,192,202507,1,8,0:0:0:0:
256,192,202637,1,0,0:0:0:0:
256,192,202898,1,8,0:0:0:0:
256,192,203159,1,0,0:0:0:0:
256,192,203289,1,0,0:0:0:0:
256,192,203420,1,8,0:0:0:0:
256,192,203681,1,0,0:0:0:0:
256,192,203942,1,8,0:0:0:0:
256,192,204072,1,0,0:0:0:0:
256,192,204202,1,0,0:0:0:0:
256,192,204333,1,0,0:0:0:0:
256,192,204463,1,8,0:0:0:0:
256,192,204724,1,0,0:0:0:0:
256,192,204985,1,8,0:0:0:0:
256,192,205115,1,8,0:0:0:0:
256,192,205246,1,0,0:0:0:0:
256,192,205376,1,0,0:0:0:0:
256,192,205507,1,8,0:0:0:0:
256,192,205637,1,0,0:0:0:0:
256,192,205768,1,8,0:0:0:0:
256,192,206028,1,0,0:0:0:0:
256,192,206159,1,8,0:0:0:0:
256,192,206289,1,8,0:0:0:0:
256,192,206420,1,0,0:0:0:0:
256,192,206550,1,8,0:0:0:0:
256,192,206811,1,0,0:0:0:0:
256,192,207072,1,8,0:0:0:0:
256,192,207333,1,0,0:0:0:0:
256,192,207463,1,0,0:0:0:0:
256,192,207594,1,8,0:0:0:0:
256,192,207855,1,0,0:0:0:0:
256,192,208116,1,8,0:0:0:0:
256,192,208246,1,0,0:0:0:0:
256,192,208507,1,0,0:0:0:0:
256,192,208637,1,8,0:0:0:0:
256,192,208898,1,0,0:0:0:0:
256,192,209159,1,8,0:0:0:0:
256,192,209420,1,0,0:0:0:0:
256,192,209550,1,0,0:0:0:0:
256,192,209681,1,8,0:0:0:0:
256,192,209942,1,0,0:0:0:0:
256,192,210203,1,8,0:0:0:0:
256,192,210333,1,0,0:0:0:0:
256,192,210594,1,0,0:0:0:0:
256,192,210724,1,8,0:0:0:0:
256,192,210855,1,8,0:0:0:0:
256,192,210985,1,0,0:0:0:0:
256,192,211246,1,8,0:0:0:0:
256,192,211507,1,0,0:0:0:0:
256,192,211637,1,0,0:0:0:0:
256,192,211768,1,8,0:0:0:0:
256,192,212029,1,0,0:0:0:0:
256,192,212290,1,8,0:0:0:0:
256,192,212420,1,0,0:0:0:0:
256,192,212550,1,0,0:0:0:0:
256,192,212681,1,0,0:0:0:0:
256,192,212811,1,8,0:0:0:0:
256,192,213072,1,4,0:0:0:0:
256,192,213333,1,8,0:0:0:0:
256,192,213594,1,0,0:0:0:0:
256,192,213724,1,0,0:0:0:0:
256,192,213855,1,8,0:0:0:0:
256,192,213985,1,0,0:0:0:0:
256,192,214116,1,8,0:0:0:0:
256,192,214202,1,8,0:0:0:0:
256,192,214289,1,0,0:0:0:0:
256,192,214376,1,8,0:0:0:0:
256,192,214463,1,8,0:0:0:0:
256,192,214550,1,0,0:0:0:0:
256,192,214637,1,8,0:0:0:0:
256,192,214724,1,0,0:0:0:0:
256,192,214811,1,0,0:0:0:0:
256,192,214898,1,8,0:0:0:0:
256,192,214985,1,8,0:0:0:0:
256,192,215072,1,8,0:0:0:0:
256,192,215159,1,4,0:0:0:0:
256,192,215289,1,0,0:0:0:0:
256,192,215420,1,8,0:0:0:0:
256,192,215550,1,0,0:0:0:0:
256,192,215681,1,0,0:0:0:0:
256,192,215811,1,0,0:0:0:0:
256,192,215942,1,8,0:0:0:0:
256,192,216006,1,0,0:0:0:0:
256,192,216072,1,0,0:0:0:0:
256,192,216137,1,0,0:0:0:0:
256,192,216203,1,0,0:0:0:0:
256,192,216333,1,0,0:0:0:0:
256,192,216464,1,8,0:0:0:0:
256,192,216594,1,0,0:0:0:0:
256,192,216724,1,0,0:0:0:0:
256,192,216855,1,0,0:0:0:0:
256,192,216985,1,8,0:0:0:0:
256,192,217115,1,8,0:0:0:0:
256,192,217246,1,0,0:0:0:0:
256,192,217376,1,0,0:0:0:0:
256,192,217507,1,8,0:0:0:0:
256,192,217637,1,0,0:0:0:0:
256,192,217768,1,0,0:0:0:0:
256,192,217898,1,0,0:0:0:0:
256,192,218029,1,8,0:0:0:0:
256,192,218093,1,8,0:0:0:0:
256,192,218159,1,0,0:0:0:0:
256,192,218224,1,0,0:0:0:0:
256,192,218290,1,0,0:0:0:0:
256,192,218420,1,0,0:0:0:0:
256,192,218551,1,8,0:0:0:0:
256,192,218681,1,0,0:0:0:0:
256,192,218811,1,0,0:0:0:0:
256,192,218942,1,0,0:0:0:0:
256,192,219072,1,8,0:0:0:0:
256,192,219203,1,8,0:0:0:0:
256,192,219333,1,0,0:0:0:0:
256,192,219463,1,0,0:0:0:0:
256,192,219594,1,8,0:0:0:0:
256,192,219724,1,0,0:0:0:0:
256,192,219855,1,0,0:0:0:0:
256,192,219985,1,0,0:0:0:0:
256,192,220116,1,8,0:0:0:0:
256,192,220180,1,8,0:0:0:0:
256,192,220246,1,0,0:0:0:0:
256,192,220311,1,0,0:0:0:0:
256,192,220377,1,8,0:0:0:0:
256,192,220507,1,0,0:0:0:0:
256,192,220638,1,8,0:0:0:0:
256,192,220768,1,0,0:0:0:0:
256,192,220898,1,0,0:0:0:0:
256,192,221029,1,0,0:0:0:0:
256,192,221159,1,8,0:0:0:0:
256,192,221289,1,8,0:0:0:0:
256,192,221355,1,8,0:0:0:0:
256,192,221420,1,0,0:0:0:0:
256,192,221550,1,0,0:0:0:0:
256,192,221681,1,8,0:0:0:0:
256,192,221811,1,0,0:0:0:0:
256,192,221942,1,0,0:0:0:0:
256,192,222072,1,0,0:0:0:0:
256,192,222203,1,8,0:0:0:0:
256,192,222333,1,0,0:0:0:0:
256,192,222398,1,0,0:0:0:0:
256,192,222464,1,8,0:0:0:0:
256,192,222594,1,0,0:0:0:0:
256,192,222724,1,0,0:0:0:0:
256,192,222855,1,8,0:0:0:0:
256,192,222985,1,0,0:0:0:0:
256,192,223116,1,0,0:0:0:0:
256,192,223246,1,8,0:0:0:0:
256,192,223311,1,0,0:0:0:0:
256,192,223377,1,8,0:0:0:0:
256,192,223442,1,8,0:0:0:0:
256,192,223507,1,0,0:0:0:0:
256,192,223637,1,0,0:0:0:0:
256,192,223768,1,8,0:0:0:0:
256,192,223898,1,0,0:0:0:0:
256,192,224029,1,0,0:0:0:0:
256,192,224159,1,0,0:0:0:0:
256,192,224290,1,8,0:0:0:0:
256,192,224354,1,0,0:0:0:0:
256,192,224420,1,0,0:0:0:0:
256,192,224485,1,0,0:0:0:0:
256,192,224551,1,0,0:0:0:0:
256,192,224681,1,0,0:0:0:0:
256,192,224812,1,8,0:0:0:0:
256,192,224942,1,0,0:0:0:0:
256,192,225072,1,0,0:0:0:0:
256,192,225203,1,0,0:0:0:0:
256,192,225333,1,8,0:0:0:0:
256,192,225463,1,8,0:0:0:0:
256,192,225528,1,8,0:0:0:0:
256,192,225594,1,0,0:0:0:0:
256,192,225724,1,0,0:0:0:0:
256,192,225855,1,8,0:0:0:0:
256,192,225985,1,0,0:0:0:0:
256,192,226116,1,0,0:0:0:0:
256,192,226246,1,0,0:0:0:0:
256,192,226377,1,8,0:0:0:0:
256,192,226441,1,8,0:0:0:0:
256,192,226507,1,0,0:0:0:0:
256,192,226572,1,0,0:0:0:0:
256,192,226638,1,0,0:0:0:0:
256,192,226768,1,0,0:0:0:0:
256,192,226899,1,8,0:0:0:0:
256,192,227029,1,0,0:0:0:0:
256,192,227159,1,0,0:0:0:0:
256,192,227290,1,0,0:0:0:0:
256,192,227420,1,8,0:0:0:0:
256,192,227551,1,0,0:0:0:0:
256,192,227615,1,0,0:0:0:0:
256,192,227681,1,8,0:0:0:0:
256,192,227811,1,0,0:0:0:0:
256,192,227942,1,8,0:0:0:0:
256,192,228072,1,0,0:0:0:0:
256,192,228202,1,0,0:0:0:0:
256,192,228333,1,0,0:0:0:0:
256,192,228463,1,8,0:0:0:0:
256,192,228528,1,0,0:0:0:0:
256,192,228594,1,0,0:0:0:0:
256,192,228659,1,0,0:0:0:0:
256,192,228724,1,0,0:0:0:0:
256,192,228855,1,0,0:0:0:0:
256,192,228985,1,8,0:0:0:0:
256,192,229115,1,0,0:0:0:0:
256,192,229246,1,0,0:0:0:0:
256,192,229376,1,0,0:0:0:0:
256,192,229507,1,8,0:0:0:0:
256,192,229637,1,0,0:0:0:0:
256,192,229768,1,8,0:0:0:0:
256,192,229833,1,8,0:0:0:0:
256,192,229898,1,8,0:0:0:0:
256,192,230028,1,8,0:0:0:0:
256,192,230159,1,8,0:0:0:0:
256,192,230289,1,0,0:0:0:0:
256,192,230354,1,8,0:0:0:0:
256,192,230420,1,0,0:0:0:0:
256,192,230550,1,8,0:0:0:0:
256,192,230681,1,0,0:0:0:0:
256,192,230811,1,8,0:0:0:0:
256,192,230876,1,8,0:0:0:0:
256,192,230942,1,0,0:0:0:0:
256,192,231072,1,8,0:0:0:0:
256,192,231202,1,0,0:0:0:0:
256,192,231333,1,8,0:0:0:0:
256,192,231398,1,8,0:0:0:0:
256,192,231463,1,8,0:0:0:0:
256,192,231528,1,8,0:0:0:0:
256,192,231594,1,0,0:0:0:0:
256,192,231724,1,8,0:0:0:0:
256,192,231855,1,0,0:0:0:0:
256,192,231920,1,0,0:0:0:0:
256,192,231985,1,0,0:0:0:0:
256,192,232115,1,0,0:0:0:0:
256,192,232246,1,0,0:0:0:0:
256,192,232376,1,8,0:0:0:0:
256,192,232898,1,0,0:0:0:0:
256,192,232963,1,0,0:0:0:0:
256,192,233028,1,8,0:0:0:0:
256,192,233159,1,0,0:0:0:0:
256,192,233289,1,0,0:0:0:0:
256,192,233420,1,8,0:0:0:0:
256,192,233681,1,0,0:0:0:0:
256,192,233811,1,8,0:0:0:0:
256,192,233942,1,0,0:0:0:0:
256,192,234007,1,0,0:0:0:0:
256,192,234072,1,0,0:0:0:0:
256,192,234202,1,0,0:0:0:0:
256,192,234333,1,0,0:0:0:0:
256,192,234463,1,8,0:0:0:0:
256,192,234528,1,0,0:0:0:0:
256,192,234594,1,0,0:0:0:0:
256,192,234724,1,0,0:0:0:0:
256,192,234789,1,0,0:0:0:0:
256,192,234855,1,8,0:0:0:0:
256,192,234985,1,0,0:0:0:0:
256,192,235181,1,0,0:0:0:0:
256,192,235376,1,0,0:0:0:0:
256,192,235507,1,12,0:0:0:0:
256,192,236028,1,0,0:0:0:0:
256,192,236093,1,0,0:0:0:0:
256,192,236158,1,0,0:0:0:0:
256,192,236288,1,0,0:0:0:0:
256,192,236419,1,0,0:0:0:0:
256,192,236549,1,8,0:0:0:0:
256,192,237071,1,0,0:0:0:0:
256,192,237136,1,0,0:0:0:0:
256,192,237201,1,8,0:0:0:0:
256,192,237332,1,0,0:0:0:0:
256,192,237462,1,0,0:0:0:0:
256,192,237593,1,8,0:0:0:0:
256,192,237854,1,0,0:0:0:0:
256,192,237984,1,8,0:0:0:0:
256,192,238115,1,0,0:0:0:0:
256,192,238180,1,0,0:0:0:0:
256,192,238245,1,0,0:0:0:0:
256,192,238375,1,0,0:0:0:0:
256,192,238506,1,0,0:0:0:0:
256,192,238636,1,8,0:0:0:0:
256,192,238701,1,0,0:0:0:0:
256,192,238767,1,0,0:0:0:0:
256,192,238897,1,0,0:0:0:0:
256,192,238962,1,0,0:0:0:0:
256,192,239028,1,8,0:0:0:0:
256,192,239158,1,8,0:0:0:0:
256,192,239289,1,0,0:0:0:0:
256,192,239420,1,0,0:0:0:0:
256,192,239550,1,0,0:0:0:0:
256,192,239680,1,8,0:0:0:0:
256,192,239811,1,0,0:0:0:0:
256,192,239942,1,8,0:0:0:0:
256,192,240007,1,8,0:0:0:0:
256,192,240072,1,8,0:0:0:0:
256,192,240137,1,8,0:0:0:0:
256,192,240202,1,0,0:0:0:0:
256,192,240332,1,0,0:0:0:0:
256,192,240462,1,8,0:0:0:0:
256,192,240593,1,0,0:0:0:0:
256,192,240723,1,0,0:0:0:0:
256,192,240854,1,0,0:0:0:0:
256,192,240984,1,8,0:0:0:0:
256,192,241114,1,0,0:0:0:0:
256,192,241245,1,0,0:0:0:0:
256,192,241310,1,0,0:0:0:0:
256,192,241375,1,0,0:0:0:0:
256,192,241441,1,0,0:0:0:0:
256,192,241506,1,8,0:0:0:0:
256,192,241636,1,0,0:0:0:0:
256,192,241701,1,0,0:0:0:0:
256,192,241767,1,0,0:0:0:0:
256,192,241897,1,0,0:0:0:0:
256,192,242027,1,8,0:0:0:0:
256,192,242158,1,0,0:0:0:0:
256,192,242288,1,0,0:0:0:0:
256,192,242419,1,0,0:0:0:0:
256,192,242549,1,8,0:0:0:0:
256,192,242680,1,0,0:0:0:0:
256,192,242810,1,0,0:0:0:0:
256,192,242941,1,0,0:0:0:0:
256,192,243071,1,8,0:0:0:0:
256,192,243201,1,0,0:0:0:0:
256,192,243332,1,0,0:0:0:0:
256,192,243397,1,0,0:0:0:0:
256,192,243462,1,0,0:0:0:0:
256,192,243528,1,0,0:0:0:0:
256,192,243593,1,8,0:0:0:0:
256,192,243723,1,0,0:0:0:0:
256,192,243788,1,8,0:0:0:0:
256,192,243854,1,0,0:0:0:0:
256,192,243984,1,0,0:0:0:0:
256,192,244114,1,8,0:0:0:0:
256,192,244180,1,8,0:0:0:0:
256,192,244245,1,8,0:0:0:0:
256,192,244310,1,8,0:0:0:0:
256,192,244375,1,0,0:0:0:0:
256,192,244506,1,0,0:0:0:0:
256,192,244636,1,8,0:0:0:0:
256,192,244767,1,0,0:0:0:0:
256,192,244897,1,0,0:0:0:0:
256,192,245027,1,0,0:0:0:0:
256,192,245158,1,8,0:0:0:0:
256,192,245288,1,0,0:0:0:0:
256,192,245419,1,8,0:0:0:0:
256,192,245485,1,0,0:0:0:0:
256,192,245549,1,0,0:0:0:0:
256,192,245680,1,0,0:0:0:0:
256,192,245810,1,8,0:0:0:0:
256,192,245875,1,0,0:0:0:0:
256,192,245941,1,0,0:0:0:0:
256,192,246071,1,0,0:0:0:0:
256,192,246201,1,8,0:0:0:0:
256,192,246332,1,0,0:0:0:0:
256,192,246462,1,0,0:0:0:0:
256,192,246549,1,0,0:0:0:0:
256,192,246636,1,0,0:0:0:0:
256,192,246723,1,8,0:0:0:0:
256,192,246810,1,8,0:0:0:0:
256,192,246897,1,8,0:0:0:0:
256,192,246984,1,0,0:0:0:0:
256,192,247071,1,0,0:0:0:0:
256,192,247158,1,0,0:0:0:0:
256,192,247245,1,8,0:0:0:0:
256,192,247332,1,8,0:0:0:0:
256,192,247419,1,8,0:0:0:0:
256,192,247506,1,8,0:0:0:0:
256,192,247593,1,0,0:0:0:0:
256,192,247680,1,0,0:0:0:0:
256,192,247767,1,8,0:0:0:0:
256,192,247854,1,8,0:0:0:0:
256,192,247941,1,8,0:0:0:0:
256,192,248027,1,8,0:0:0:0:
256,192,248550,1,0,0:0:0:0:
256,192,248615,1,0,0:0:0:0:
256,192,248681,1,0,0:0:0:0:
256,192,248942,1,0,0:0:0:0:
256,192,249007,1,0,0:0:0:0:
256,192,249072,1,8,0:0:0:0:
256,192,249333,1,0,0:0:0:0:
256,192,249398,1,0,0:0:0:0:
256,192,249463,1,0,0:0:0:0:
256,192,249593,1,12,0:0:0:0:
256,192,250376,1,8,0:0:0:0:
256,192,250637,1,4,0:0:0:0:
256,192,251028,1,0,0:0:0:0:
256,192,251159,1,0,0:0:0:0:
256,192,251224,1,0,0:0:0:0:
256,192,251289,1,0,0:0:0:0:
256,192,251420,1,0,0:0:0:0:
256,192,251550,1,0,0:0:0:0:
256,192,251681,1,12,0:0:0:0:
256,192,251942,1,0,0:0:0:0:
256,192,252072,1,0,0:0:0:0:
256,192,252202,1,8,0:0:0:0:
256,192,252333,1,0,0:0:0:0:
256,192,252724,1,4,0:0:0:0:
256,192,252985,1,8,0:0:0:0:
256,192,253115,1,0,0:0:0:0:
256,192,253246,1,8,0:0:0:0:
256,192,253507,1,0,0:0:0:0:
256,192,253637,1,0,0:0:0:0:
256,192,253768,1,12,0:0:0:0:
256,192,254028,1,0,0:0:0:0:
256,192,254289,1,8,0:0:0:0:
256,192,254420,1,0,0:0:0:0:
256,192,254550,1,0,0:0:0:0:
256,192,254681,1,0,0:0:0:0:
256,192,254811,1,0,0:0:0:0:
256,192,254876,1,0,0:0:0:0:
256,192,254942,1,0,0:0:0:0:
256,192,255072,1,0,0:0:0:0:
256,192,255202,1,0,0:0:0:0:
256,192,255463,1,0,0:0:0:0:
256,192,255594,1,0,0:0:0:0:
256,192,255724,1,0,0:0:0:0:
256,192,255855,1,12,0:0:0:0:
256,192,256115,1,8,0:0:0:0:
256,192,256181,1,8,0:0:0:0:
256,192,256246,1,8,0:0:0:0:
256,192,256311,1,8,0:0:0:0:
256,192,256376,1,0,0:0:0:0:
256,192,256442,1,0,0:0:0:0:
256,192,256507,1,0,0:0:0:0:
256,192,256572,1,0,0:0:0:0:
256,192,256637,1,8,0:0:0:0:
256,192,256702,1,8,0:0:0:0:
256,192,256768,1,8,0:0:0:0:
256,192,256833,1,8,0:0:0:0:
256,192,256898,1,0,0:0:0:0:
256,192,256963,1,0,0:0:0:0:
256,192,257028,1,0,0:0:0:0:
256,192,257289,1,0,0:0:0:0:
256,192,257355,1,0,0:0:0:0:
256,192,257420,1,8,0:0:0:0:
256,192,257681,1,0,0:0:0:0:
256,192,257746,1,0,0:0:0:0:
256,192,257811,1,0,0:0:0:0:
256,192,257942,1,12,0:0:0:0:
256,192,258724,1,8,0:0:0:0:
256,192,258985,1,4,0:0:0:0:
256,192,259376,1,0,0:0:0:0:
256,192,259507,1,8,0:0:0:0:
256,192,259572,1,0,0:0:0:0:
256,192,259637,1,0,0:0:0:0:
256,192,259768,1,0,0:0:0:0:
256,192,259898,1,0,0:0:0:0:
256,192,260029,1,12,0:0:0:0:
256,192,260290,1,0,0:0:0:0:
256,192,260420,1,0,0:0:0:0:
256,192,260550,1,8,0:0:0:0:
256,192,260681,1,0,0:0:0:0:
256,192,261072,1,4,0:0:0:0:
256,192,261333,1,8,0:0:0:0:
256,192,261463,1,0,0:0:0:0:
256,192,261594,1,8,0:0:0:0:
256,192,261855,1,0,0:0:0:0:
256,192,261985,1,0,0:0:0:0:
256,192,262116,1,12,0:0:0:0:
256,192,262376,1,0,0:0:0:0:
256,192,262637,1,8,0:0:0:0:
256,192,262768,1,0,0:0:0:0:
256,192,262898,1,0,0:0:0:0:
256,192,263029,1,0,0:0:0:0:
256,192,263159,1,0,0:0:0:0:
256,192,263224,1,0,0:0:0:0:
256,192,263290,1,0,0:0:0:0:
256,192,263420,1,0,0:0:0:0:
256,192,263550,1,0,0:0:0:0:
256,192,263811,1,0,0:0:0:0:
256,192,263876,1,0,0:0:0:0:
256,192,263942,1,0,0:0:0:0:
256,192,264072,1,0,0:0:0:0:
256,192,264202,1,0,0:0:0:0:
256,192,264333,1,8,0:0:0:0:
256,192,264593,1,0,0:0:0:0:
256,192,264724,1,8,0:0:0:0:
256,192,264854,1,0,0:0:0:0:
256,192,264985,1,8,0:0:0:0:
256,192,265115,1,8,0:0:0:0:
256,192,265245,1,4,0:0:0:0:
256,192,266289,1,12,0:0:0:0:
256,192,267332,1,12,0:0:0:0:
256,192,268376,1,12,0:0:0:0:
256,192,268637,1,0,0:0:0:0:
256,192,268767,1,0,0:0:0:0:
256,192,268898,1,8,0:0:0:0:
256,192,269028,1,0,0:0:0:0:
256,192,269419,1,4,0:0:0:0:
256,192,270463,1,12,0:0:0:0:
256,192,271506,1,4,0:0:0:0:
256,192,271854,1,8,0:0:0:0:
256,192,272028,1,8,0:0:0:0:
256,192,272376,1,8,0:0:0:0:
256,192,272550,1,8,0:0:0:0:
256,192,272898,1,8,0:0:0:0:
256,192,273072,1,0,0:0:0:0:
256,192,273332,1,0,0:0:0:0:
256,192,273463,1,0,0:0:0:0:
256,192,273593,1,4,0:0:0:0:
256,192,274637,1,12,0:0:0:0:
256,192,275680,1,12,0:0:0:0:
256,192,276724,1,12,0:0:0:0:
256,192,277115,1,0,0:0:0:0:
256,192,277245,1,8,0:0:0:0:
256,192,277506,1,8,0:0:0:0:
256,192,277637,1,8,0:0:0:0:
256,192,277767,1,4,0:0:0:0:
256,192,278550,1,0,0:0:0:0:
256,192,278680,1,0,0:0:0:0:
256,192,278811,1,12,0:0:0:0:
256,192,279072,1,0,0:0:0:0:
256,192,279202,1,0,0:0:0:0:
256,192,279332,1,8,0:0:0:0:
256,192,279463,1,0,0:0:0:0:
256,192,279854,1,4,0:0:0:0:
256,192,280115,1,8,0:0:0:0:
256,192,280202,1,8,0:0:0:0:
256,192,280289,1,0,0:0:0:0:
256,192,280376,1,8,0:0:0:0:
256,192,280463,1,8,0:0:0:0:
256,192,280550,1,0,0:0:0:0:
256,192,280637,1,8,0:0:0:0:
256,192,280724,1,8,0:0:0:0:
256,192,280811,1,8,0:0:0:0:
256,192,280898,1,0,0:0:0:0:
256,192,280985,1,0,0:0:0:0:
256,192,281072,1,0,0:0:0:0:
256,192,281158,1,8,0:0:0:0:
256,192,281245,1,8,0:0:0:0:
256,192,281332,1,0,0:0:0:0:
256,192,281419,1,8,0:0:0:0:
256,192,281941,1,4,0:0:0:0:
256,192,282072,1,0,0:0:0:0:
256,192,282202,1,8,0:0:0:0:
256,192,282332,1,0,0:0:0:0:
256,192,282463,1,0,0:0:0:0:
256,192,282528,1,0,0:0:0:0:
256,192,282593,1,0,0:0:0:0:
256,192,282724,1,8,0:0:0:0:
256,192,282854,1,0,0:0:0:0:
256,192,282985,1,8,0:0:0:0:
256,192,283050,1,0,0:0:0:0:
256,192,283115,1,0,0:0:0:0:
256,192,283245,1,0,0:0:0:0:
256,192,283376,1,8,0:0:0:0:
256,192,283441,1,0,0:0:0:0:
256,192,283506,1,0,0:0:0:0:
256,192,283637,1,0,0:0:0:0:
256,192,283767,1,8,0:0:0:0:
256,192,283898,1,8,0:0:0:0:
256,192,284028,1,0,0:0:0:0:
256,192,284159,1,0,0:0:0:0:
256,192,284289,1,8,0:0:0:0:
256,192,284419,1,0,0:0:0:0:
256,192,284550,1,0,0:0:0:0:
256,192,284615,1,0,0:0:0:0:
256,192,284680,1,0,0:0:0:0:
256,192,284811,1,8,0:0:0:0:
256,192,284941,1,0,0:0:0:0:
256,192,285072,1,8,0:0:0:0:
256,192,285137,1,8,0:0:0:0:
256,192,285202,1,0,0:0:0:0:
256,192,285332,1,0,0:0:0:0:
256,192,285463,1,8,0:0:0:0:
256,192,285528,1,8,0:0:0:0:
256,192,285593,1,0,0:0:0:0:
256,192,285724,1,0,0:0:0:0:
256,192,285854,1,8,0:0:0:0:
256,192,285919,1,8,0:0:0:0:
256,192,285985,1,8,0:0:0:0:
256,192,286050,1,8,0:0:0:0:
256,192,286115,1,0,0:0:0:0:
256,192,286245,1,0,0:0:0:0:
256,192,286375,1,8,0:0:0:0:
256,192,286505,1,0,0:0:0:0:
256,192,286636,1,0,0:0:0:0:
256,192,286702,1,0,0:0:0:0:
256,192,286766,1,0,0:0:0:0:
256,192,286897,1,8,0:0:0:0:
256,192,287027,1,0,0:0:0:0:
256,192,287158,1,8,0:0:0:0:
256,192,287223,1,8,0:0:0:0:
256,192,287288,1,8,0:0:0:0:
256,192,287418,1,0,0:0:0:0:
256,192,287549,1,8,0:0:0:0:
256,192,287614,1,8,0:0:0:0:
256,192,287679,1,0,0:0:0:0:
256,192,287810,1,0,0:0:0:0:
256,192,287940,1,8,0:0:0:0:
256,192,288071,1,0,0:0:0:0:
256,192,288201,1,0,0:0:0:0:
256,192,288267,1,0,0:0:0:0:
256,192,288332,1,0,0:0:0:0:
256,192,288398,1,0,0:0:0:0:
256,192,288463,1,8,0:0:0:0:
256,192,288593,1,0,0:0:0:0:
256,192,288724,1,0,0:0:0:0:
256,192,288789,1,0,0:0:0:0:
256,192,288854,1,0,0:0:0:0:
256,192,288985,1,8,0:0:0:0:
256,192,289050,1,8,0:0:0:0:
256,192,289115,1,0,0:0:0:0:
256,192,289245,1,8,0:0:0:0:
256,192,289376,1,0,0:0:0:0:
256,192,289506,1,8,0:0:0:0:
256,192,289637,1,8,0:0:0:0:
256,192,289767,1,0,0:0:0:0:
256,192,289832,1,0,0:0:0:0:
256,192,289898,1,0,0:0:0:0:
256,192,289963,1,0,0:0:0:0:
256,192,290028,1,8,0:0:0:0:
256,192,290093,1,8,0:0:0:0:
256,192,290159,1,8,0:0:0:0:
256,192,290224,1,8,0:0:0:0:
256,192,290289,1,0,0:0:0:0:
256,192,290419,1,0,0:0:0:0:
256,192,290549,1,8,0:0:0:0:
256,192,290679,1,0,0:0:0:0:
256,192,290810,1,0,0:0:0:0:
256,192,290876,1,0,0:0:0:0:
256,192,290940,1,0,0:0:0:0:
256,192,291071,1,8,0:0:0:0:
256,192,291201,1,0,0:0:0:0:
256,192,291332,1,8,0:0:0:0:
256,192,291397,1,0,0:0:0:0:
256,192,291462,1,0,0:0:0:0:
256,192,291592,1,0,0:0:0:0:
256,192,291723,1,8,0:0:0:0:
256,192,291788,1,0,0:0:0:0:
256,192,291853,1,0,0:0:0:0:
256,192,291984,1,0,0:0:0:0:
256,192,292114,1,8,0:0:0:0:
256,192,292245,1,8,0:0:0:0:
256,192,292375,1,0,0:0:0:0:
256,192,292506,1,0,0:0:0:0:
256,192,292636,1,8,0:0:0:0:
256,192,292766,1,0,0:0:0:0:
256,192,292897,1,0,0:0:0:0:
256,192,292963,1,0,0:0:0:0:
256,192,293027,1,0,0:0:0:0:
256,192,293158,1,8,0:0:0:0:
256,192,293288,1,0,0:0:0:0:
256,192,293419,1,8,0:0:0:0:
256,192,293484,1,8,0:0:0:0:
256,192,293549,1,0,0:0:0:0:
256,192,293679,1,0,0:0:0:0:
256,192,293810,1,8,0:0:0:0:
256,192,293875,1,8,0:0:0:0:
256,192,293940,1,0,0:0:0:0:
256,192,294071,1,0,0:0:0:0:
256,192,294201,1,8,0:0:0:0:
256,192,294266,1,8,0:0:0:0:
256,192,294332,1,8,0:0:0:0:
256,192,294397,1,8,0:0:0:0:
256,192,294463,1,0,0:0:0:0:
256,192,294593,1,0,0:0:0:0:
256,192,294723,1,8,0:0:0:0:
256,192,294853,1,0,0:0:0:0:
256,192,294984,1,0,0:0:0:0:
256,192,295050,1,0,0:0:0:0:
256,192,295114,1,0,0:0:0:0:
256,192,295245,1,8,0:0:0:0:
256,192,295375,1,0,0:0:0:0:
256,192,295506,1,8,0:0:0:0:
256,192,295571,1,8,0:0:0:0:
256,192,295636,1,8,0:0:0:0:
256,192,295766,1,0,0:0:0:0:
256,192,295897,1,8,0:0:0:0:
256,192,295962,1,8,0:0:0:0:
256,192,296027,1,0,0:0:0:0:
256,192,296158,1,0,0:0:0:0:
256,192,296288,1,8,0:0:0:0:
256,192,296419,1,0,0:0:0:0:
256,192,296549,1,8,0:0:0:0:
256,192,296615,1,8,0:0:0:0:
256,192,296680,1,8,0:0:0:0:
256,192,296746,1,8,0:0:0:0:
256,192,296811,1,8,0:0:0:0:
256,192,296941,1,8,0:0:0:0:
256,192,297006,1,8,0:0:0:0:
256,192,297071,1,0,0:0:0:0:
256,192,297136,1,0,0:0:0:0:
256,192,297201,1,8,0:0:0:0:
256,192,297267,1,0,0:0:0:0:
256,192,297332,1,8,0:0:0:0:
256,192,297398,1,8,0:0:0:0:
256,192,297463,1,0,0:0:0:0:
256,192,297528,1,0,0:0:0:0:
256,192,297592,1,8,0:0:0:0:
256,192,298637,1,0,0:0:0:0:
256,192,298702,1,0,0:0:0:0:
256,192,298767,1,0,0:0:0:0:
256,192,298832,1,0,0:0:0:0:
256,192,298898,1,0,0:0:0:0:
256,192,299158,1,8,0:0:0:0:
256,192,299419,1,0,0:0:0:0:
256,192,299485,1,0,0:0:0:0:
256,192,299550,1,0,0:0:0:0:
256,192,299615,1,0,0:0:0:0:
256,192,299680,1,8,0:0:0:0:
256,192,299941,1,0,0:0:0:0:
256,192,300202,1,0,0:0:0:0:
256,192,300267,1,0,0:0:0:0:
256,192,300332,1,0,0:0:0:0:
256,192,300398,1,0,0:0:0:0:
256,192,300463,1,0,0:0:0:0:
256,192,300724,1,0,0:0:0:0:
256,192,300789,1,0,0:0:0:0:
256,192,300854,1,0,0:0:0:0:
256,192,300919,1,0,0:0:0:0:
256,192,300985,1,0,0:0:0:0:
256,192,301245,1,8,0:0:0:0:
256,192,301506,1,0,0:0:0:0:
256,192,301572,1,0,0:0:0:0:
256,192,301637,1,0,0:0:0:0:
256,192,301702,1,0,0:0:0:0:
256,192,301767,1,8,0:0:0:0:
256,192,302028,1,0,0:0:0:0:
256,192,302115,1,0,0:0:0:0:
256,192,302202,1,0,0:0:0:0:
256,192,302289,1,8,0:0:0:0:
256,192,302376,1,8,0:0:0:0:
256,192,302463,1,0,0:0:0:0:
256,192,302550,1,8,0:0:0:0:
256,192,302637,1,0,0:0:0:0:
256,192,302724,1,8,0:0:0:0:
256,192,302811,1,0,0:0:0:0:
256,192,302876,1,0,0:0:0:0:
256,192,302941,1,0,0:0:0:0:
256,192,303006,1,0,0:0:0:0:
256,192,303072,1,0,0:0:0:0:
256,192,303332,1,8,0:0:0:0:
256,192,303593,1,0,0:0:0:0:
256,192,303658,1,0,0:0:0:0:
256,192,303724,1,0,0:0:0:0:
256,192,303789,1,0,0:0:0:0:
256,192,303854,1,8,0:0:0:0:
256,192,304115,1,0,0:0:0:0:
256,192,304376,1,0,0:0:0:0:
256,192,304441,1,0,0:0:0:0:
256,192,304506,1,0,0:0:0:0:
256,192,304571,1,0,0:0:0:0:
256,192,304637,1,0,0:0:0:0:
256,192,304897,1,0,0:0:0:0:
256,192,304963,1,0,0:0:0:0:
256,192,305028,1,0,0:0:0:0:
256,192,305093,1,0,0:0:0:0:
256,192,305158,1,0,0:0:0:0:
256,192,305419,1,0,0:0:0:0:
256,192,305680,1,0,0:0:0:0:
256,192,305941,1,8,0:0:0:0:
256,192,306028,1,0,0:0:0:0:
256,192,306115,1,0,0:0:0:0:
256,192,306202,1,8,0:0:0:0:
256,192,306289,1,0,0:0:0:0:
256,192,306376,1,8,0:0:0:0:
256,192,306463,1,8,0:0:0:0:
256,192,306550,1,0,0:0:0:0:
256,192,306637,1,0,0:0:0:0:
256,192,306724,1,8,0:0:0:0:
256,192,306811,1,8,0:0:0:0:
256,192,306897,1,8,0:0:0:0:
256,192,306984,1,0,0:0:0:0:
256,192,307050,1,0,0:0:0:0:
256,192,307115,1,0,0:0:0:0:
256,192,307180,1,0,0:0:0:0:
256,192,307245,1,0,0:0:0:0:
256,192,307506,1,8,0:0:0:0:
256,192,307767,1,0,0:0:0:0:
256,192,307832,1,0,0:0:0:0:
256,192,307898,1,0,0:0:0:0:
256,192,307963,1,0,0:0:0:0:
256,192,308028,1,8,0:0:0:0:
256,192,308289,1,0,0:0:0:0:
256,192,308550,1,0,0:0:0:0:
256,192,308615,1,0,0:0:0:0:
256,192,308680,1,0,0:0:0:0:
256,192,308745,1,0,0:0:0:0:
256,192,308811,1,0,0:0:0:0:
256,192,309072,1,0,0:0:0:0:
256,192,309137,1,0,0:0:0:0:
256,192,309202,1,0,0:0:0:0:
256,192,309267,1,0,0:0:0:0:
256,192,309332,1,0,0:0:0:0:
256,192,309593,1,8,0:0:0:0:
256,192,309854,1,0,0:0:0:0:
256,192,309919,1,0,0:0:0:0:
256,192,309985,1,0,0:0:0:0:
256,192,310050,1,0,0:0:0:0:
256,192,310115,1,8,0:0:0:0:
256,192,310376,1,0,0:0:0:0:
256,192,310463,1,0,0:0:0:0:
256,192,310550,1,0,0:0:0:0:
256,192,310637,1,8,0:0:0:0:
256,192,310724,1,0,0:0:0:0:
256,192,310811,1,0,0:0:0:0:
256,192,310898,1,8,0:0:0:0:
256,192,310985,1,0,0:0:0:0:
256,192,311072,1,8,0:0:0:0:
256,192,311159,1,0,0:0:0:0:
256,192,311224,1,0,0:0:0:0:
256,192,311289,1,0,0:0:0:0:
256,192,311354,1,0,0:0:0:0:
256,192,311420,1,0,0:0:0:0:
256,192,311680,1,8,0:0:0:0:
256,192,311941,1,0,0:0:0:0:
256,192,312006,1,0,0:0:0:0:
256,192,312072,1,0,0:0:0:0:
256,192,312137,1,0,0:0:0:0:
256,192,312202,1,8,0:0:0:0:
256,192,312463,1,0,0:0:0:0:
256,192,312724,1,0,0:0:0:0:
256,192,312789,1,0,0:0:0:0:
256,192,312854,1,0,0:0:0:0:
256,192,312919,1,0,0:0:0:0:
256,192,312985,1,0,0:0:0:0:
256,192,313245,1,12,0:0:0:0:
256,192,313767,1,8,0:0:0:0:
256,192,314028,1,0,0:0:0:0:
256,192,314158,1,8,0:0:0:0:
256,192,314289,1,4,0:0:0:0:
256,192,314550,1,8,0:0:0:0:
256,192,314615,1,8,0:0:0:0:
256,192,314680,1,0,0:0:0:0:
256,192,314745,1,0,0:0:0:0:
256,192,314811,1,8,0:0:0:0:
256,192,314876,1,0,0:0:0:0:
256,192,314941,1,0,0:0:0:0:
256,192,315006,1,0,0:0:0:0:
256,192,315072,1,8,0:0:0:0:
256,192,315137,1,8,0:0:0:0:
256,192,315202,1,8,0:0:0:0:
256,192,315267,1,8,0:0:0:0:
256,192,315332,1,0,0:0:0:0:
256,192,315724,1,0,0:0:0:0:
256,192,315854,1,8,0:0:0:0:
256,192,315919,1,8,0:0:0:0:
256,192,315985,1,0,0:0:0:0:
256,192,316050,1,0,0:0:0:0:
256,192,316115,1,8,0:0:0:0:
256,192,316245,1,0,0:0:0:0:
256,192,316376,1,8,0:0:0:0:
256,192,316441,1,8,0:0:0:0:
256,192,316506,1,8,0:0:0:0:
256,192,316572,1,8,0:0:0:0:
256,192,316637,1,0,0:0:0:0:
256,192,316767,1,8,0:0:0:0:
256,192,316898,1,0,0:0:0:0:
256,192,316963,1,0,0:0:0:0:
256,192,317028,1,8,0:0:0:0:
256,192,317093,1,0,0:0:0:0:
256,192,317158,1,8,0:0:0:0:
256,192,317224,1,8,0:0:0:0:
256,192,317289,1,8,0:0:0:0:
256,192,317354,1,8,0:0:0:0:
256,192,317419,1,0,0:0:0:0:
256,192,317941,1,8,0:0:0:0:
256,192,318072,1,0,0:0:0:0:
256,192,318202,1,0,0:0:0:0:
256,192,318332,1,8,0:0:0:0:
256,192,318463,1,0,0:0:0:0:
256,192,318593,1,8,0:0:0:0:
256,192,318724,1,0,0:0:0:0:
256,192,318985,1,8,0:0:0:0:
256,192,319115,1,0,0:0:0:0:
256,192,319506,1,4,0:0:0:0:
256,192,320028,1,0,0:0:0:0:
256,192,320093,1,0,0:0:0:0:
256,192,320158,1,0,0:0:0:0:
256,192,320289,1,0,0:0:0:0:
256,192,320419,1,0,0:0:0:0:
256,192,320680,1,0,0:0:0:0:
256,192,320941,1,0,0:0:0:0:
256,192,321202,1,0,0:0:0:0:
256,192,321332,1,0,0:0:0:0:
256,192,321593,1,12,0:0:0:0:
256,192,321724,12,12,325767,0:0:0:0:
