osu file format v10

[General]
AudioFilename: POP STEP LOVE.mp3
AudioLeadIn: 1500
PreviewTime: 55837
Countdown: 0
SampleSet: Soft
StackLeniency: 0.7
Mode: 0
LetterboxInBreaks: 0

[Editor]
Bookmarks: 1166,1171,9170,79837,87837,145170,158504,167837,183670
DistanceSpacing: 0.9
BeatDivisor: 4
GridSize: 4

[Metadata]
Title:POP STEP LOVE
TitleUnicode:POP STEP LOVE
Artist:Ono Ryoko
ArtistUnicode:小野 涼子
Creator:-Gamu-
Version:Collab
Source:Mashiro Iro Symphony - The color of lovers -
Tags:character song sena airi mythol byakugan249 palette visual novel
BeatmapID:173681
BeatmapSetID:57649

[Difficulty]
HPDrainRate:6
CircleSize:4
OverallDifficulty:8
ApproachRate:9
SliderMultiplier:1.8
SliderTickRate:2

[Events]
//Background and Video events
0,0,"Airi.jpg"
//Break Periods
2,11837,21904
2,80037,87237
2,145370,157904
//Storyboard Layer 0 (Background)
//Storyboard Layer 1 (Fail)
//Storyboard Layer 2 (Pass)
//Storyboard Layer 3 (Foreground)
Sprite,Foreground,Centre,"SB\-Gamu-.png",320,240 M,0,1171,,143,103 R,0,1171,,-0.3891202 F,0,1171,1837,0,1 F,0,1837,9170,1 F,0,9170,9837,1,0
Sprite,Foreground,Centre,"SB\-Gamu-.png",320,240 M,0,22504,,143,103 R,0,22504,,-0.3891202 F,0,22504,23170,0,1 F,0,23170,79837,1,0.9924925 F,0,79837,80504,0.9924925,0
Sprite,Foreground,Centre,"SB\Mythol.png",320,240 M,0,87837,,143,103 R,0,87837,,-0.3891202 F,0,87837,88504,0,1 F,0,88504,145170,1,0.7496252 F,0,145170,145837,0.7496252,0
Sprite,Foreground,Centre,"SB\-Gamu-.png",320,240 M,0,158504,,143,103 R,0,158504,,-0.3891202 F,0,158504,159170,0,0.8464002 F,0,159170,168504,0.8464002,0.8349624 F,0,168504,169170,0.8349624,0
Sprite,Foreground,Centre,"SB\Mythol.png",320,240 M,0,169170,,143,103 R,0,169170,,-0.3891202 F,0,169170,169837,0,0.896 F,0,169837,182504,0.896 F,0,182504,183670,0.896,0
//Storyboard Sound Samples
//Background Colour Transformations
3,100,163,162,255

[TimingPoints]
1171,333.333333333333,4,2,1,50,1,0
1171,-133.333333333333,4,2,1,50,0,0
6504,-133.333333333333,4,2,1,60,0,0
6837,-133.333333333333,4,2,1,70,0,0
7170,-133.333333333333,4,2,1,80,0,0
7504,-133.333333333333,4,2,1,90,0,0
7837,-100,4,1,1,50,0,0
22504,-100,4,2,1,70,0,0
43837,-133.333333333333,4,2,1,60,0,0
51837,-100,4,2,1,80,0,0
55837,-100,4,2,1,80,0,1
77837,-100,4,2,1,85,0,1
78170,-100,4,2,1,90,0,1
78504,-100,4,2,1,95,0,1
79004,-100,4,2,1,80,0,1
79837,-100,4,2,1,80,0,0
87837,-100,4,2,1,70,0,0
109170,-133.333333333333,4,2,1,60,0,0
113004,-100,4,2,1,80,0,0
121170,-100,4,2,1,80,0,1
145170,-100,4,2,1,80,0,0
158504,-200,4,2,1,50,0,0
163837,-133.333333333333,4,2,1,60,0,0
167837,-100,4,2,1,80,0,0
169170,-100,4,2,1,80,0,1
182504,-100,4,2,1,80,0,0
182587,-100,4,2,1,50,0,0

[Colours]
Combo1 : 0,255,255
Combo2 : 0,0,255
Combo3 : 89,89,255

[HitObjects]
128,256,1171,2,0,B|160:272|192:256,1,67.5000025749208,4|0,0:0|0:0,0:0:0
240,192,1504,2,0,B|272:176|304:192,1,67.5000025749208
360,256,1837,2,0,B|400:296|448:272|448:272|480:312,1,135.000005149842,2|0,0:0|0:0,0:0:0
416,192,2337,1,0,0:0:0
360,136,2504,6,0,B|336:112|336:72,1,67.5000025749208,2|0,0:0|0:0,0:0:0
256,272,2837,2,0,B|280:296|280:336,1,67.5000025749208,0|0,0:0|0:0,0:0:0
184,120,3170,2,0,B|160:96|160:56,1,67.5000025749208,2|0,0:0|0:0,0:0:0
80,256,3504,2,0,B|104:280|104:320,1,67.5000025749208,0|2,0:0|0:0,0:0:0
136,200,3837,6,0,B|184:248|184:328,1,135.000005149842,2|0,0:0|0:0,0:0:0
256,360,4337,1,0,0:0:0
416,304,4504,1,2,0:0:0
304,208,4670,1,0,0:0:0
320,296,4837,1,4,0:0:0
224,192,5837,5,8,0:0:0
280,136,6004,2,2,B|312:144|320:192|312:240|280:248,1,135.000005149842,0|0,0:0|0:0,0:0:0
208,272,6504,6,0,B|168:264|152:232,1,67.5000025749208,4|0,0:0|0:0,0:0:0
80,264,6837,2,0,B|57:230|68:196,1,67.5000025749208,0|0,0:0|0:0,0:0:0
264,56,7170,2,0,B|224:64|208:96,1,67.5000025749208,0|0,0:0|0:0,0:0:0
136,64,7504,2,0,B|113:97|124:131,1,67.5000025749208,0|0,0:0|0:0,0:0:0
224,192,7837,5,4,0:0:0
256,204,7920,1,0,0:0:0
280,232,8004,1,0,0:0:0
288,268,8087,1,0,0:0:0
280,304,8170,2,0,B|240:320,3,45
200,324,8504,5,4,0:0:0
164,316,8587,1,0,0:0:0
140,292,8670,1,0,0:0:0
132,256,8754,1,0,0:0:0
116,224,8837,2,0,B|88:188,4,45,0|0|0|0|4,0:0|0:0|0:0|0:0|0:0,0:0:0
96,192,22504,5,4,0:0:0
80,280,22670,2,0,B|136:288|168:248,1,90,0|8,0:0|0:0,0:0:0
176,168,23004,2,0,B|224:168|252:208,1,90
280,296,23337,1,0,0:0:0
376,168,23504,1,8,0:0:0
416,328,23670,2,0,B|455:299|466:254,1,90,0|0,0:0|0:0,0:0:0
464,168,24004,5,0,0:0:0
376,168,24170,1,8,0:0:0
304,120,24337,1,0,0:0:0
216,88,24504,2,0,B|168:88|136:48,1,90
0,168,24837,2,0,B|48:176|86:144,1,90,8|0,0:0|0:0,0:0:0
176,168,25170,5,0,0:0:0
232,240,25337,1,0,0:0:0
168,304,25504,1,8,0:0:0
8,280,25670,2,0,B|40:320|104:328,1,90
280,240,26004,1,0,0:0:0
344,304,26170,1,8,0:0:0
504,280,26337,2,0,B|472:320|408:328,1,90
408,240,26670,6,0,B|400:184|440:152,2,90,0|8|0,0:0|0:0|0:0,0:0:0
336,112,27170,2,0,B|302:157|251:151,1,90
168,136,27504,1,8,0:0:0
104,200,27670,1,0,0:0:0
128,288,27837,5,4,0:0:0
216,296,28004,2,0,B|264:288|304:312,1,90,0|8,0:0|0:0,0:0:0
392,304,28337,2,0,B|384:256|408:216,1,90
440,136,28670,1,0,0:0:0
304,64,28837,1,8,0:0:0
344,144,29004,2,0,B|332:189|293:217,1,90
184,240,29337,5,0,0:0:0
200,152,29504,1,8,0:0:0
216,328,29670,1,0,0:0:0
128,320,29837,2,0,B|80:280|96:216|96:216|16:200,1,180,0|8,0:0|0:0,0:0:0
176,72,30504,6,0,B|216:104|256:64|256:64|296:104|336:72,1,180,4|8,0:0|0:0,0:0:0
424,96,31004,1,0,0:0:0
432,128,31087,1,0,0:0:0
432,160,31170,1,0,0:0:0
400,248,31337,1,0,0:0:0
312,264,31504,2,0,B|224:288,1,90,8|0,0:0|0:0,0:0:0
32,144,31837,5,4,0:0:0
200,296,32004,1,0,0:0:0
264,128,32337,6,0,B|312:120|344:160,1,90,4|0,0:0|0:0,0:0:0
432,160,32670,1,4,0:0:0
400,248,32837,2,0,B|392:296|425:330,1,90,0|0,0:0|0:0,0:0:0
296,248,33170,5,4,0:0:0
208,216,33337,1,0,0:0:0
120,192,33504,2,0,B|144:256|104:312|104:312|128:360,1,180,8|0,0:0|0:0,0:0:0
48,240,34004,1,0,0:0:0
48,152,34170,2,0,B|60:126|95:106|124:107,1,90,8|0,0:0|0:0,0:0:0
208,216,34504,6,0,B|210:244|192:280|166:293,2,90,0|0|8,0:0|0:0|0:0,0:0:0
320,144,35004,2,0,B|317:115|335:79|361:66,1,90
408,144,35337,1,0,0:0:0
464,216,35504,1,8,0:0:0
416,296,35670,1,0,0:0:0
328,288,35837,1,0,0:0:0
272,216,36004,6,0,B|264:168|232:136,2,90,0|8|0,0:0|0:0|0:0,0:0:0
232,296,36504,1,0,0:0:0
144,288,36670,1,0,0:0:0
64,120,36837,1,8,0:0:0
152,112,37004,1,0,0:0:0
336,144,37170,6,0,B|376:168|424:168,1,90
496,120,37504,1,8,0:0:0
416,248,37670,1,0,0:0:0
400,280,37754,1,0,0:0:0
376,304,37837,1,0,0:0:0
296,336,38004,1,0,0:0:0
208,328,38170,1,8,0:0:0
136,272,38337,1,0,0:0:0
160,184,38504,6,0,B|168:136|144:96,1,90,4|0,0:0|0:0,0:0:0
72,152,38837,1,8,0:0:0
232,240,39004,1,0,0:0:0
264,228,39087,1,0,0:0:0
292,204,39170,1,0,0:0:0
320,120,39337,2,0,B|328:72|304:32,1,90,0|8,0:0|0:0,0:0:0
232,88,39671,5,4,0:0:0
408,80,39837,1,0,0:0:0
456,160,40004,1,0,0:0:0
424,248,40171,1,8,0:0:0
352,304,40337,2,0,B|312:328|264:320,1,90
176,304,40671,1,0,0:0:0
24,256,40837,1,8,0:0:0
112,240,41004,1,0,0:0:0
144,152,41171,6,0,B|184:112|176:56|176:56|248:40,1,180,4|8,0:0|0:0,0:0:0
328,80,41671,1,0,0:0:0
320,168,41837,2,0,B|312:224|272:248,1,90
456,192,42171,2,0,B|464:136|504:112,1,90,8|0,0:0|0:0,0:0:0
376,248,42504,5,0,0:0:0
240,168,42671,1,0,0:0:0
248,328,42837,1,8,0:0:0
288,248,43004,5,0,0:0:0
240,168,43171,1,0,0:0:0
152,144,43337,1,0,0:0:0
88,208,43504,1,8,0:0:0
104,296,43671,1,0,0:0:0
248,328,43837,6,0,B|296:344|344:320|344:320|384:336,2,135.000005149842,4|0|8,0:0|0:0|0:0,0:0:0
240,168,44837,1,0,0:0:0
192,104,45004,2,0,B|220:84|256:92,1,67.5000025749208
320,144,45337,1,0,0:0:0
304,224,45504,1,8,0:0:0
440,304,45837,5,2,0:0:0
472,232,46004,1,0,0:0:0
440,160,46171,1,2,0:0:0
256,88,46504,6,0,B|184:96,1,67.5000025749208
32,144,46837,2,0,B|99:136,1,67.5000025749208
168,176,47171,2,0,B|176:232|136:264|136:264|152:296,1,135.000005149842,8|0,0:0|0:0,0:0:0
232,280,47671,6,0,B|256:208,1,67.5000025749208,4|0,0:0|0:0,0:0:0
304,312,48004,1,0,0:0:0
376,272,48171,2,0,B|384:200,1,67.5000025749208,2|0,0:0|0:0,0:0:0
472,232,48504,2,0,B|464:160,1,67.5000025749208,2|0,0:0|0:0,0:0:0
384,48,48837,2,0,B|392:120,1,67.5000025749208,2|0,0:0|0:0,0:0:0
256,160,49171,6,0,B|216:192|168:168|168:168|136:192,1,135.000005149842,4|8,0:0|0:0,0:0:0
96,264,49671,1,0,0:0:0
160,312,49837,2,0,B|192:328|224:312,2,67.5000025749208,0|0|8,0:0|0:0|0:0,0:0:0
96,264,50337,1,0,0:0:0
56,192,50504,6,0,B|40:152|64:120,1,67.5000025749208
120,72,50837,1,8,0:0:0
200,56,51004,1,0,0:0:0
256,112,51171,2,0,B|296:128|328:104,1,67.5000025749208
496,104,51504,2,0,B|464:80|424:96,1,67.5000025749208,8|0,0:0|0:0,0:0:0
432,240,51837,5,4,0:0:0
272,336,52004,1,0,0:0:0
336,160,52171,1,0,0:0:0
400,336,52337,2,0,B|352:320|336:256|336:256|264:240,1,180,4|0,0:0|0:0,0:0:0
64,192,52837,5,4,0:0:0
208,192,53004,1,0,0:0:0
40,224,53171,1,0,0:0:0
232,160,53337,1,4,0:0:0
256,192,53421,12,0,54504,0:0:0
304,224,54671,5,2,0:0:0
464,256,54837,1,10,0:0:0
416,104,55171,5,2,0:0:0
232,56,55337,1,10,0:0:0
224,56,55421,1,0,0:0:0
216,56,55504,1,0,0:0:0
208,56,55587,1,0,0:0:0
200,56,55671,1,0,0:0:0
192,56,55754,1,0,0:0:0
184,56,55837,6,0,B|128:48|96:88,1,90,4|0,0:0|0:0,0:0:0
168,144,56171,2,0,B|122:177|128:228,1,90,8|0,0:0|0:0,0:0:0
216,224,56504,2,0,B|207:279|248:312|248:312|288:280|336:296,1,180,0|8,0:0|0:0,0:0:0
480,224,57004,2,0,B|424:200|376:232|376:232|344:208|304:216,1,180
256,120,57504,1,8,0:0:0
168,56,57671,1,0,0:0:0
72,104,57837,2,0,B|64:152|88:192,1,90
336,152,58171,2,0,B|344:104|320:64,1,90,8|0,0:0|0:0,0:0:0
160,224,58504,6,0,B|176:304|259:300|259:300|272:352,1,180,4|8,0:0|0:0,0:0:0
248,208,59004,2,0,B|296:208|328:248,1,90
184,136,59337,2,0,B|136:136|104:96,1,90,0|8,0:0|0:0,0:0:0
272,120,59671,2,0,B|272:72|312:40,1,90,0|0,0:0|0:0,0:0:0
464,192,60171,1,0,0:0:0
288,320,60504,1,0,0:0:0
64,312,60671,5,0,0:0:0
144,272,60837,1,8,0:0:0
184,192,61004,2,0,B|184:136|144:112,1,90
72,224,61337,1,0,0:0:0
144,272,61504,1,8,0:0:0
232,264,61671,2,0,B|288:264|312:304,1,90
240,352,62004,1,0,0:0:0
296,200,62171,1,8,0:0:0
432,280,62337,1,0,0:0:0
408,152,62504,6,0,B|344:120|368:40|368:40|312:48,1,180,0|8,0:0|0:0,0:0:0
256,128,63004,1,0,0:0:0
104,152,63171,2,0,B|168:120|144:40|144:40|200:48,1,180,0|8,0:0|0:0,0:0:0
256,128,63671,1,0,0:0:0
328,200,63837,2,0,B|352:248|408:248,1,90
184,200,64171,2,0,B|160:248|104:248,1,90,8|0,0:0|0:0,0:0:0
296,112,64504,1,0,0:0:0
112,168,64671,1,0,0:0:0
216,112,64837,1,8,0:0:0
400,168,65004,1,0,0:0:0
256,40,65171,5,4,0:0:0
168,48,65337,2,0,B|80:56,1,90,0|8,0:0|0:0,0:0:0
0,192,65671,2,0,B|88:200,1,90,4|0,0:0|0:0,0:0:0
112,288,66004,1,4,0:0:0
136,320,66087,1,0,0:0:0
172,336,66171,1,8,0:0:0
216,344,66254,1,0,0:0:0
256,336,66337,1,0,0:0:0
292,320,66421,1,0,0:0:0
316,288,66504,5,4,0:0:0
488,240,66671,1,0,0:0:0
336,176,66837,1,8,0:0:0
464,144,67004,1,0,0:0:0
384,88,67171,2,0,B|312:104|264:56|264:56|216:72,1,180,0|8,0:0|0:0,0:0:0
80,144,67671,2,0,B|152:128|200:176|200:176|248:160,1,180,4|0,0:0|0:0,0:0:0
120,224,68171,1,8,0:0:0
336,304,68504,2,0,B|376:336|424:328,1,90
496,216,68837,2,0,B|456:184|408:192,1,90,8|0,0:0|0:0,0:0:0
272,248,69171,6,0,B|192:272|192:272|176:328|112:336,1,180,4|8,0:0|0:0,0:0:0
88,232,69671,1,0,0:0:0
80,188,69754,1,0,0:0:0
88,144,69837,1,0,0:0:0
280,48,70004,1,0,0:0:0
184,96,70171,2,0,B|208:136|256:152,1,90,8|0,0:0|0:0,0:0:0
360,168,70504,1,0,0:0:0
464,136,70671,1,0,0:0:0
320,264,70837,6,0,B|272:272|232:296,1,90,8|0,0:0|0:0,0:0:0
4,204,71171,2,0,B|52:212|89:233,1,90
192,216,71504,1,8,0:0:0
280,272,71671,1,0,0:0:0
360,168,71837,6,0,B|392:128|376:80,1,90,4|0,0:0|0:0,0:0:0
192,216,72171,2,0,B|160:256|176:304,1,90,8|0,0:0|0:0,0:0:0
256,104,72504,2,0,B|216:72|168:88,1,90,0|0,0:0|0:0,0:0:0
304,272,72837,2,0,B|344:304|392:288,1,90,8|0,0:0|0:0,0:0:0
256,104,73171,6,0,B|178:41|84:72,1,180,2|8,0:0|0:0,0:0:0
40,168,73671,1,0,0:0:0
48,272,73837,2,0,B|104:272|128:224,1,90
152,128,74171,1,8,0:0:0
256,104,74337,1,0,0:0:0
304,200,74504,6,0,B|328:296|432:336,1,180,4|8,0:0|0:0,0:0:0
424,224,75004,2,0,B|328:248|288:352,1,180
184,328,75504,2,0,B|104:280,1,90,8|0,0:0|0:0,0:0:0
24,216,75837,2,0,B|66:155|132:188|132:188|190:157,1,180,4|8,0:0|0:0,0:0:0
280,48,76337,2,0,B|237:108|171:75|171:75|113:106,1,180,4|0,0:0|0:0,0:0:0
256,192,76837,1,8,0:0:0
256,192,77004,1,0,0:0:0
184,320,77171,6,0,B|224:344|272:336,1,90,4|0,0:0|0:0,0:0:0
328,64,77504,2,0,B|288:40|240:48,1,90,8|0,0:0|0:0,0:0:0
320,272,77837,2,0,B|360:288,3,45
352,208,78171,2,0,B|392:192,3,45,8|0|0|0,0:0|0:0|0:0|0:0,0:0:0
336,136,78504,5,4,0:0:0
176,120,78670,1,0,0:0:0
104,328,79170,6,0,B|144:352|192:344,1,90
280,248,79504,2,0,B|240:224|192:232,1,90
104,328,79837,1,4,0:0:0
94,243,87837,5,4,0:0:0
169,293,88004,1,0,0:0:0
251,256,88170,2,0,B|296:236|352:256,1,90,8|0,0:0|0:0,0:0:0
447,317,88504,1,0,0:0:0
506,206,88670,2,0,B|524:158|505:109,1,90,0|8,0:0|0:0,0:0:0
413,33,89004,1,0,0:0:0
413,33,89087,1,0,0:0:0
413,33,89170,1,0,0:0:0
320,118,89337,6,0,B|271:137|218:118,1,90,0|8,0:0|0:0,0:0:0
158,69,89670,1,0,0:0:0
83,120,89837,2,0,B|63:166|87:222,1,90,0|0,0:0|0:0,0:0:0
188,274,90170,2,0,B|208:228|184:172,1,90,8|0,0:0|0:0,0:0:0
63,290,90504,5,0,0:0:0
133,345,90670,1,0,0:0:0
188,274,90837,2,0,B|232:254|282:271,1,90,8|0,0:0|0:0,0:0:0
339,334,91170,1,0,0:0:0
272,185,91337,1,0,0:0:0
234,342,91504,1,8,0:0:0
355,236,91670,6,0,B|378:190|357:141,1,90,0|0,0:0|0:0,0:0:0
282,72,92004,1,0,0:0:0
197,138,92170,2,0,B|153:153|108:140,1,90,8|0,0:0|0:0,0:0:0
36,84,92504,1,0,0:0:0
36,236,92670,1,0,0:0:0
36,84,92837,1,8,0:0:0
36,236,93004,2,0,B|22:286|39:336,1,90,0|4,0:0|0:0,0:0:0
197,226,93337,6,0,B|211:176|194:126,2,90,0|8|0,0:0|0:0|0:0,0:0:0
122,304,93837,1,0,0:0:0
210,365,94004,1,0,0:0:0
297,302,94170,1,8,0:0:0
243,148,94337,1,0,0:0:0
243,148,94670,6,0,B|195:122|136:153,1,90,0|8,0:0|0:0,0:0:0
218,244,95004,1,0,0:0:0
322,192,95170,2,0,B|339:146|317:87,1,90,0|0,0:0|0:0,0:0:0
141,203,95504,2,0,B|124:249|146:308,1,90,8|0,0:0|0:0,0:0:0
226,357,95837,6,0,B|288:333|348:365|348:365|402:310,1,180,4|8,0:0|0:0,0:0:0
425,225,96337,1,0,0:0:0
322,192,96504,1,0,0:0:0
322,192,96587,1,0,0:0:0
322,192,96670,1,0,0:0:0
393,137,96837,5,8,0:0:0
317,280,97004,1,0,0:0:0
179,196,97170,2,0,B|132:181|84:197,2,90,4|0|8,0:0|0:0|0:0,0:0:0
317,280,97670,6,0,B|336:326|320:376,1,90,4|0,0:0|0:0,0:0:0
179,196,98004,2,0,B|145:124|180:56,1,135,4|0,0:0|0:0,0:0:0
211,39,98337,1,0,0:0:0
310,83,98504,6,0,B|364:105|414:81|414:81|443:170,1,180,0|12,0:0|0:0,0:0:0
410,236,99004,1,0,0:0:0
354,306,99170,2,0,B|309:324|263:307,1,90,0|0,0:0|0:0,0:0:0
206,216,99504,2,0,B|251:198|297:215,1,90,8|0,0:0|0:0,0:0:0
175,296,99837,6,0,B|101:276|101:179|159:142,1,180,0|8,0:0|0:0,0:0:0
187,70,100337,2,0,B|231:96|236:153,1,90,0|0,0:0|0:0,0:0:0
175,296,100670,1,0,0:0:0
146,151,100837,1,8,0:0:0
288,209,101004,1,0,0:0:0
288,209,101087,1,0,0:0:0
288,209,101170,6,0,B|334:227|385:208,1,90,0|0,0:0|0:0,0:0:0
447,155,101504,5,8,0:0:0
426,31,101670,1,0,0:0:0
332,128,101837,1,0,0:0:0
252,32,102004,1,0,0:0:0
216,160,102170,1,8,0:0:0
104,120,102337,1,0,0:0:0
130,244,102504,6,0,B|114:293|130:344,1,90,0|0,0:0|0:0,0:0:0
205,377,102837,1,8,0:0:0
285,335,103004,2,0,B|344:303|389:339|389:339|440:333|446:278,1,180,0|0,0:0|0:0,0:0:0
413,152,103504,1,8,0:0:0
467,226,103670,1,0,0:0:0
467,226,103754,1,0,0:0:0
467,226,103837,6,0,B|526:202|522:87|449:66,1,180,4|8,0:0|0:0,0:0:0
378,71,104337,2,0,B|290:37,1,90,0|0,0:0|0:0,0:0:0
266,124,104670,2,0,B|176:154,1,90,0|8,0:0|0:0,0:0:0
223,233,105004,2,0,B|160:304,2,90,0|0|0,0:0|0:0|0:0,0:0:0
266,124,105504,1,8,0:0:0
319,206,105670,1,0,0:0:0
223,233,105837,5,0,0:0:0
78,233,106004,1,0,0:0:0
223,233,106170,1,8,0:0:0
78,233,106337,1,0,0:0:0
21,163,106504,6,0,B|3:119|20:70,1,90,4|0,0:0|0:0,0:0:0
138,35,106837,2,0,B|156:79|139:128,1,90,8|0,0:0|0:0,0:0:0
78,233,107170,1,0,0:0:0
150,336,107337,1,0,0:0:0
223,233,107504,1,8,0:0:0
64,317,107670,1,0,0:0:0
64,317,107754,1,0,0:0:0
64,317,107837,6,0,B|-36:317,1,90,0|0,0:0|0:0,0:0:0
78,233,108170,2,0,B|178:233,1,90,8|0,0:0|0:0,0:0:0
192,232,108420,1,0,0:0:0
192,232,108504,1,0,0:0:0
288,338,108670,1,0,0:0:0
407,256,108837,1,0,0:0:0
407,256,108920,1,0,0:0:0
407,256,109004,1,0,0:0:0
407,256,109087,1,0,0:0:0
407,256,109170,5,4,0:0:0
349,47,109504,1,8,0:0:0
229,226,109837,2,0,B|195:237|162:227,1,67.5000025749208,0|0,0:0|0:0,0:0:0
99,156,110170,1,8,0:0:0
29,220,110337,2,0,B|17:258|30:296,1,67.5000025749208,0|0,0:0|0:0,0:0:0
77,350,110670,1,0,0:0:0
151,316,110837,6,0,B|185:307|217:313,1,67.5000025749208,8|0,0:0|0:0,0:0:0
296,229,111170,2,0,B|262:220|230:226,1,67.5000025749208,0|0,0:0|0:0,0:0:0
151,140,111504,2,0,B|185:131|217:137,1,67.5000025749208,8|0,0:0|0:0,0:0:0
140,222,111837,5,4,0:0:0
75,172,112004,1,0,0:0:0
82,91,112170,1,8,0:0:0
157,61,112337,1,0,0:0:0
225,105,112504,2,0,B|293:140|364:106,1,135.000005149842,0|8,0:0|0:0,0:0:0
445,210,113004,6,0,B|360:256|387:376,1,180,4|0,0:0|0:0,0:0:0
479,313,113504,1,8,0:0:0
256,192,113837,1,0,0:0:0
33,313,114170,1,8,0:0:0
122,38,114504,6,0,B|75:118|130:223,1,180,4|8,0:0|0:0,0:0:0
198,261,115004,1,0,0:0:0
256,192,115170,2,0,B|302:177|349:193,1,90,0|0,0:0|0:0,0:0:0
257,329,115504,1,8,0:0:0
198,261,115670,1,0,0:0:0
256,192,115837,6,0,B|275:147|253:96,1,90,0|0,0:0|0:0,0:0:0
120,223,116170,2,0,B|101:268|123:319,1,90,8|0,0:0|0:0,0:0:0
285,182,116504,2,0,B|304:137|282:86,1,90,0|0,0:0|0:0,0:0:0
91,233,116837,2,0,B|72:278|94:329,1,90,8|0,0:0|0:0,0:0:0
174,353,117170,5,4,0:0:0
307,261,117337,1,0,0:0:0
287,367,117504,1,8,0:0:0
195,234,117670,2,0,B|139:143|182:51,1,180,4|0,0:0|0:0,0:0:0
296,102,118170,5,12,0:0:0
394,22,118337,1,0,0:0:0
453,133,118504,1,0,0:0:0
348,217,118670,1,0,0:0:0
256,192,118754,12,0,119837,0:0:0
264,184,120004,5,0,0:0:0
389,184,120170,1,8,0:0:0
176,52,120504,5,0,0:0:0
51,52,120670,1,2,0:0:0
51,52,120754,1,0,0:0:0
51,52,120837,1,10,0:0:0
51,52,120920,1,0,0:0:0
51,52,121004,1,2,0:0:0
51,52,121087,1,0,0:0:0
51,52,121170,6,0,B|31:142,1,90,4|0,0:0|0:0,0:0:0
112,238,121504,2,0,B|132:148,1,90,8|0,0:0|0:0,0:0:0
176,52,121837,1,0,0:0:0
232,175,122004,1,0,0:0:0
112,238,122170,1,8,0:0:0
192,340,122337,6,0,B|252:380|336:340|324:256,1,180,0|0,0:0|0:0,0:0:0
232,175,122837,2,0,B|241:282,1,90,8|0,0:0|0:0,0:0:0
344,179,123170,2,0,B|335:72,1,90,0|0,0:0|0:0,0:0:0
245,28,123504,1,8,0:0:0
152,83,123670,1,0,0:0:0
152,83,123754,1,0,0:0:0
152,83,123837,6,0,B|48:80,1,90,4|0,0:0|0:0,0:0:0
102,180,124170,1,8,0:0:0
187,246,124337,2,0,B|245:282|328:240|315:153,2,180,0|0|0,0:0|0:0|0:0,0:0:0
83,276,125170,2,0,B|62:322|83:374,1,90,0|0,0:0|0:0,0:0:0
187,246,125504,2,0,B|208:200|187:148,1,90,8|0,0:0|0:0,0:0:0
172,116,125754,1,0,0:0:0
172,116,125837,1,0,0:0:0
52,197,126004,5,0,0:0:0
187,246,126170,1,8,0:0:0
295,151,126337,2,0,B|340:138|385:150,1,90,0|0,0:0|0:0,0:0:0
445,238,126670,1,0,0:0:0
361,307,126837,1,8,0:0:0
275,241,127004,1,0,0:0:0
275,241,127087,1,0,0:0:0
275,241,127170,2,0,B|230:229|187:246,1,90,0|0,0:0|0:0,0:0:0
90,297,127504,1,8,0:0:0
52,197,127670,5,0,0:0:0
133,125,127837,2,0,B|149:79|132:34,1,90,0|0,0:0|0:0,0:0:0
49,105,128170,1,8,0:0:0
135,208,128337,1,0,0:0:0
216,100,128504,2,0,B|261:84|309:96,1,90,0|0,0:0|0:0,0:0:0
386,202,128837,2,0,B|341:218|293:206,1,90,8|0,0:0|0:0,0:0:0
402,122,129170,6,0,B|456:123|485:174|473:221|473:221|523:239,2,180,4|8|0,0:0|0:0|0:0,0:0:0
303,187,130004,1,0,0:0:0
216,100,130170,1,8,0:0:0
323,53,130337,5,0,0:0:0
323,53,130420,1,0,0:0:0
323,53,130504,1,4,0:0:0
221,178,130670,1,0,0:0:0
373,121,130837,1,8,0:0:0
243,22,131004,6,0,B|152:25,1,90,4|0,0:0|0:0,0:0:0
303,187,131337,2,0,B|394:190,1,90,4|8,0:0|0:0,0:0:0
435,205,131587,1,0,0:0:0
463,239,131670,1,0,0:0:0
457,283,131754,1,0,0:0:0
423,312,131837,6,0,B|381:338|326:324,1,90,4|0,0:0|0:0,0:0:0
242,272,132170,1,8,0:0:0
146,323,132337,1,0,0:0:0
54,265,132504,1,0,0:0:0
54,265,132587,1,0,0:0:0
54,265,132670,2,0,B|30:310|44:361,1,90,0|8,0:0|0:0,0:0:0
140,233,133004,6,0,B|180:136|133:56,1,180,0|0,0:0|0:0,0:0:0
30,30,133504,2,0,B|19:74|45:128,1,90,8|0,0:0|0:0,0:0:0
216,95,133837,2,0,B|183:63|123:58,1,90,0|0,0:0|0:0,0:0:0
59,219,134170,2,0,B|102:206|136:157,1,90,8|0,0:0|0:0,0:0:0
216,95,134504,6,0,B|305:42|393:95,1,180,4|8,0:0|0:0,0:0:0
479,190,135004,2,0,B|390:243|302:190,1,180,0|0,0:0|0:0,0:0:0
154,186,135504,2,0,B|93:176|67:241|98:311|173:284,1,180,12|0,0:0|0:0,0:0:0
259,290,136004,1,0,0:0:0
308,193,136170,2,0,B|356:173|400:191,1,90,8|0,0:0|0:0,0:0:0
372,295,136504,2,0,B|421:310|443:352,1,90,0|0,0:0|0:0,0:0:0
308,370,136837,1,8,0:0:0
226,262,137004,1,0,0:0:0
110,330,137170,6,0,B|67:349|12:331,1,90,4|0,0:0|0:0,0:0:0
58,174,137504,2,0,B|42:219|61:262,1,90,8|0,0:0|0:0,0:0:0
217,214,137837,2,0,B|174:233|119:215,1,90,0|0,0:0|0:0,0:0:0
165,58,138170,2,0,B|149:103|168:146,1,90,8|0,0:0|0:0,0:0:0
306,231,138504,6,0,B|377:274|446:212|432:145,2,180,0|8|0,0:0|0:0|0:0,0:0:0
217,214,139337,1,0,0:0:0
166,289,139504,1,8,0:0:0
223,357,139670,1,0,0:0:0
223,357,139754,1,0,0:0:0
223,357,139837,6,0,B|269:374|313:356,1,90,4|0,0:0|0:0,0:0:0
352,228,140170,1,8,0:0:0
217,214,140337,2,0,B|165:121|224:28,1,180,0|0,0:0|0:0,0:0:0
320,128,140837,1,8,0:0:0
217,214,141004,1,0,0:0:0
217,214,141087,1,0,0:0:0
217,214,141170,6,0,B|116:214,1,90,4|0,0:0|0:0,0:0:0
48,103,141504,1,8,0:0:0
166,40,141670,2,0,B|267:40,1,90,4|0,0:0|0:0,0:0:0
320,128,142004,2,0,B|421:128,1,90,0|8,0:0|0:0,0:0:0
481,209,142337,1,0,0:0:0
427,302,142504,6,0,B|414:353|363:374,1,90,4|0,0:0|0:0,0:0:0
284,306,142837,2,0,B|241:336|188:320,1,90,8|0,0:0|0:0,0:0:0
159,221,143170,2,0,B|106:217|76:170,1,90,0|0,0:0|0:0,0:0:0
197,105,143504,2,0,B|249:108|279:155,1,90,8|0,0:0|0:0,0:0:0
200,292,143837,5,0,0:0:0
83,179,144004,1,0,0:0:0
408,48,144337,1,0,0:0:0
408,48,144420,1,0,0:0:0
408,48,144504,2,0,B|408:145,1,90,0|0,0:0|0:0,0:0:0
338,220,144837,1,8,0:0:0
238,178,145004,1,0,0:0:0
238,178,145087,1,0,0:0:0
238,178,145170,1,4,0:0:0
165,282,158504,6,0,B|208:264,1,45,2|0,0:0|0:0,0:0:0
128,192,158837,2,0,B|176:192,1,45
165,101,159171,2,0,B|208:120|256:128,1,90,2|0,0:0|0:0,0:0:0
304,120,159671,2,0,B|347:127|390:145,1,90,2|0,0:0|0:0,0:0:0
428,184,160171,1,2,0:0:0
384,280,160504,1,0,0:0:0
280,320,160837,1,2,0:0:0
192,256,161171,6,0,B|184:232|168:216,1,45,2|0,0:0|0:0,0:0:0
128,180,161504,1,2,0:0:0
76,164,161671,1,0,0:0:0
72,272,162004,1,0,0:0:0
56,288,162337,1,2,0:0:0
256,112,163337,2,0,B|224:72,2,45,2|0|0,0:0|0:0|0:0,0:0:0
272,200,163837,5,4,0:0:0
272,200,164004,2,0,B|313:251,1,67.5000025749208
384,288,164337,1,0,0:0:0
440,232,164504,2,0,B|456:176|416:144|416:144|432:104,1,135.000005149842,2|0,0:0|0:0,0:0:0
360,72,165004,1,0,0:0:0
280,96,165171,2,0,B|216:128|144:88,1,135.000005149842,2|0,0:0|0:0,0:0:0
40,208,165837,2,0,B|104:176|176:216,1,135.000005149842,2|0,0:0|0:0,0:0:0
456,320,166504,6,0,B|392:352|320:312,1,135.000005149842,2|0,0:0|0:0,0:0:0
280,248,167004,1,0,0:0:0
328,184,167171,1,4,0:0:0
168,192,167504,2,0,B|152:256,1,67.5000025749208
56,192,167837,5,4,0:0:0
168,192,168004,1,0,0:0:0
336,104,168337,2,0,B|328:160|368:192,1,90,4|0,0:0|0:0,0:0:0
464,224,168671,1,4,0:0:0
392,304,168837,2,0,B|336:312|304:272,1,90
256,144,169171,5,4,0:0:0
123,219,169337,1,0,0:0:0
275,231,169504,1,8,0:0:0
159,131,169671,1,0,0:0:0
193,279,169837,2,0,B|219:323|276:324,1,90,0|0,0:0|0:0,0:0:0
420,325,170171,1,8,0:0:0
503,196,170337,6,0,B|528:93|447:32,1,180,0|0,0:0|0:0,0:0:0
344,15,170837,1,8,0:0:0
263,87,171004,1,0,0:0:0
334,167,171171,2,0,B|353:213|336:266,1,90,0|0,0:0|0:0,0:0:0
254,323,171504,1,8,0:0:0
172,252,171671,1,0,0:0:0
172,252,171754,1,0,0:0:0
172,252,171837,6,0,B|87:182|0:256,1,180,4|8,0:0|0:0,0:0:0
74,310,172337,2,0,B|131:200|15:148,1,180,0|0,0:0|0:0,0:0:0
80,59,172837,2,0,B|172:109|264:55,1,180,12|0,0:0|0:0,0:0:0
352,19,173337,1,0,0:0:0
430,93,173504,2,0,B|450:139|434:189,1,90,8|0,0:0|0:0,0:0:0
272,96,173837,2,0,B|301:55|353:44,1,90,0|0,0:0|0:0,0:0:0
344,224,174171,2,0,B|294:218|258:179,1,90,8|0,0:0|0:0,0:0:0
181,102,174504,5,4,0:0:0
96,168,174671,1,0,0:0:0
149,262,174837,2,0,B|176:304|162:357,1,90,8|0,0:0|0:0,0:0:0
40,290,175171,1,0,0:0:0
96,168,175337,1,0,0:0:0
223,211,175504,1,8,0:0:0
355,184,175671,1,0,0:0:0
355,184,175754,1,0,0:0:0
355,184,175837,6,0,B|403:136|469:167|469:167|517:126,2,180,0|8|0,0:0|0:0|0:0,0:0:0
163,83,176837,1,8,0:0:0
96,168,177004,1,0,0:0:0
96,168,177087,1,0,0:0:0
96,168,177171,6,0,B|79:217|99:271,1,90,4|0,0:0|0:0,0:0:0
175,329,177504,1,8,0:0:0
266,272,177671,2,0,B|353:223|448:275,1,180,0|0,0:0|0:0,0:0:0
353,363,178171,1,12,0:0:0
266,272,178337,1,0,0:0:0
266,272,178421,1,0,0:0:0
266,272,178504,6,0,B|266:174,1,90,4|0,0:0|0:0,0:0:0
340,79,178837,1,8,0:0:0
392,193,179004,2,0,B|438:209|485:192,1,90,4|0,0:0|0:0,0:0:0
428,79,179337,2,0,B|382:63|335:80,1,90,0|8,0:0|0:0,0:0:0
257,148,179671,1,0,0:0:0
198,239,179837,6,0,B|175:333,1,90,4|0,0:0|0:0,0:0:0
314,239,180171,2,0,B|337:333,1,90,8|0,0:0|0:0,0:0:0
147,158,180504,2,0,B|68:215,1,90,0|0,0:0|0:0,0:0:0
365,158,180837,2,0,B|443:215,1,90,8|0,0:0|0:0,0:0:0
212,72,181171,5,0,0:0:0
300,72,181337,1,0,0:0:0
39,264,181837,1,0,0:0:0
107,347,182004,1,0,0:0:0
149,248,182171,1,0,0:0:0
39,264,182337,1,0,0:0:0
39,264,182421,1,0,0:0:0
39,264,182504,1,4,0:0:0
256,192,182587,12,4,183671,0:0:0
