osu file format v12

[General]
AudioFilename: sola.mp3
AudioLeadIn: 0
PreviewTime: 34105
Countdown: 0
SampleSet: Normal
StackLeniency: 0.7
Mode: 1
LetterboxInBreaks: 0
WidescreenStoryboard: 0

[Editor]
DistanceSpacing: 0.8
BeatDivisor: 4
GridSize: 8

[Metadata]
Title:sola
TitleUnicode:sola
Artist:Ono Hideyuki
ArtistUnicode:小野秀幸
Creator:Mapper 31
Version:Ura Oni
Source:jubeat saucer
Tags:Dance Revolution DDR DDR2013 GITADORA Triple_Journey
BeatmapID:330848
BeatmapSetID:131347

[Difficulty]
HPDrainRate:6
CircleSize:5
OverallDifficulty:5
ApproachRate:5
SliderMultiplier:1.4
SliderTickRate:1

[Events]
//Background and Video events
0,0,"travel-the-globe-12468-hd-wallpapers.jpg",0,0
//Break Periods
//Storyboard Layer 0 (Background)
//Storyboard Layer 1 (Fail)
//Storyboard Layer 2 (Pass)
//Storyboard Layer 3 (Foreground)
//Storyboard Sound Samples
//Background Colour Transformations
3,100,163,162,255

[TimingPoints]
2105.64705882353,444.444444444444,4,1,0,80,1,0
34105,-100,4,1,0,80,0,1
48327,-100,4,1,0,80,0,0
90105,444.444444444444,4,1,0,80,1,1
104327,-100,4,1,0,80,0,0

[HitObjects]
240,184,1216,1,0,0:0:0:0:
240,184,1327,1,8,0:0:0:0:
240,184,1438,1,8,0:0:0:0:
240,184,1550,1,0,0:0:0:0:
240,184,1661,1,8,0:0:0:0:
240,184,1772,1,8,0:0:0:0:
240,184,1883,1,0,0:0:0:0:
240,184,1994,1,8,0:0:0:0:
240,184,2105,1,0,0:0:0:0:
232,120,2327,1,8,0:0:0:0:
232,120,2550,1,0,0:0:0:0:
232,120,2661,1,8,0:0:0:0:
232,120,2883,1,8,0:0:0:0:
232,120,2994,1,0,0:0:0:0:
232,120,3216,1,8,0:0:0:0:
232,120,3327,1,0,0:0:0:0:
232,120,3550,1,8,0:0:0:0:
232,120,3772,1,8,0:0:0:0:
232,120,3883,1,0,0:0:0:0:
232,120,4105,1,8,0:0:0:0:
232,120,4327,1,0,0:0:0:0:
232,120,4438,1,8,0:0:0:0:
232,120,4661,1,8,0:0:0:0:
232,120,4772,1,0,0:0:0:0:
232,120,4994,1,8,0:0:0:0:
232,120,5105,1,0,0:0:0:0:
232,120,5327,1,8,0:0:0:0:
232,120,5550,1,8,0:0:0:0:
232,120,5661,1,0,0:0:0:0:
232,120,5883,1,8,0:0:0:0:
232,120,6105,1,8,0:0:0:0:
232,120,6216,1,8,0:0:0:0:
232,120,6327,1,0,0:0:0:0:
232,120,6438,1,0,0:0:0:0:
232,120,6550,1,0,0:0:0:0:
232,120,6883,1,4,0:0:0:0:
232,120,7216,1,12,0:0:0:0:
232,120,7438,1,4,0:0:0:0:
232,120,7772,1,8,0:0:0:0:
232,120,7883,1,8,0:0:0:0:
232,120,7994,1,8,0:0:0:0:
232,120,8105,1,0,0:0:0:0:
232,120,8216,1,0,0:0:0:0:
232,120,8327,1,0,0:0:0:0:
304,144,8661,1,8,0:0:0:0:
304,144,8772,1,0,0:0:0:0:
304,144,8994,1,8,0:0:0:0:
304,144,9216,1,0,0:0:0:0:
304,144,9438,1,8,0:0:0:0:
304,144,9661,1,8,0:0:0:0:
304,144,9772,1,8,0:0:0:0:
304,144,9883,1,0,0:0:0:0:
304,144,9994,1,0,0:0:0:0:
304,144,10105,1,0,0:0:0:0:
304,144,10438,1,4,0:0:0:0:
304,144,10772,1,12,0:0:0:0:
304,144,10994,1,12,0:0:0:0:
304,144,11327,1,0,0:0:0:0:
304,144,11438,1,8,0:0:0:0:
304,144,11550,1,8,0:0:0:0:
304,144,11661,1,0,0:0:0:0:
304,144,11772,1,0,0:0:0:0:
304,144,11883,1,0,0:0:0:0:
304,144,12216,1,0,0:0:0:0:
304,144,12550,1,8,0:0:0:0:
232,128,12772,1,0,0:0:0:0:
232,120,12994,1,8,0:0:0:0:
232,120,13216,1,8,0:0:0:0:
232,120,13327,1,8,0:0:0:0:
232,120,13438,1,0,0:0:0:0:
232,120,13550,1,0,0:0:0:0:
232,120,13661,1,0,0:0:0:0:
232,120,13994,1,4,0:0:0:0:
232,120,14327,1,12,0:0:0:0:
232,120,14550,1,4,0:0:0:0:
232,120,14883,1,8,0:0:0:0:
232,120,14994,1,8,0:0:0:0:
232,120,15105,1,8,0:0:0:0:
232,120,15216,1,0,0:0:0:0:
232,120,15327,1,0,0:0:0:0:
232,120,15438,1,0,0:0:0:0:
304,144,15772,1,8,0:0:0:0:
304,144,15883,1,0,0:0:0:0:
304,144,16105,1,8,0:0:0:0:
304,144,16327,1,0,0:0:0:0:
304,144,16550,1,8,0:0:0:0:
304,144,16772,1,8,0:0:0:0:
304,144,16883,1,8,0:0:0:0:
304,144,16994,1,0,0:0:0:0:
304,144,17105,1,0,0:0:0:0:
304,144,17216,1,0,0:0:0:0:
304,144,17550,1,4,0:0:0:0:
304,144,17883,1,12,0:0:0:0:
304,144,18105,1,12,0:0:0:0:
304,144,18438,1,0,0:0:0:0:
304,144,18550,1,8,0:0:0:0:
304,144,18661,1,8,0:0:0:0:
304,144,18772,1,0,0:0:0:0:
304,144,18883,1,0,0:0:0:0:
304,144,18994,1,0,0:0:0:0:
304,144,19327,1,0,0:0:0:0:
304,144,19661,1,8,0:0:0:0:
304,176,19883,1,0,0:0:0:0:
304,176,19994,1,0,0:0:0:0:
304,176,20105,1,0,0:0:0:0:
304,176,20216,1,0,0:0:0:0:
304,176,20327,1,8,0:0:0:0:
304,176,20438,1,0,0:0:0:0:
304,176,20550,1,0,0:0:0:0:
304,176,20661,1,8,0:0:0:0:
304,176,20772,1,0,0:0:0:0:
304,176,20883,1,8,0:0:0:0:
304,176,20994,1,0,0:0:0:0:
304,176,21105,1,8,0:0:0:0:
304,176,21216,1,0,0:0:0:0:
304,176,21327,1,0,0:0:0:0:
304,176,21438,1,8,0:0:0:0:
304,176,21550,1,0,0:0:0:0:
304,176,21661,1,8,0:0:0:0:
304,176,21772,1,0,0:0:0:0:
304,176,21883,1,0,0:0:0:0:
304,176,21994,1,8,0:0:0:0:
304,176,22105,1,0,0:0:0:0:
304,176,22216,1,0,0:0:0:0:
304,176,22327,1,8,0:0:0:0:
304,176,22438,1,0,0:0:0:0:
304,176,22550,1,0,0:0:0:0:
304,176,22661,1,8,0:0:0:0:
304,176,22772,1,0,0:0:0:0:
304,176,22883,1,0,0:0:0:0:
304,176,22994,1,8,0:0:0:0:
304,176,23105,1,8,0:0:0:0:
304,176,23216,1,0,0:0:0:0:
152,160,23327,1,0,0:0:0:0:
304,176,23438,1,0,0:0:0:0:
304,176,23549,1,0,0:0:0:0:
304,176,23660,1,0,0:0:0:0:
304,176,23771,1,0,0:0:0:0:
304,176,23882,1,8,0:0:0:0:
304,176,23993,1,0,0:0:0:0:
304,176,24105,1,0,0:0:0:0:
304,176,24216,1,8,0:0:0:0:
304,176,24327,1,0,0:0:0:0:
304,176,24438,1,8,0:0:0:0:
304,176,24549,1,0,0:0:0:0:
304,176,24660,1,8,0:0:0:0:
304,176,24771,1,0,0:0:0:0:
304,176,24882,1,0,0:0:0:0:
304,176,24993,1,8,0:0:0:0:
304,176,25105,1,0,0:0:0:0:
304,176,25216,1,8,0:0:0:0:
304,176,25327,1,0,0:0:0:0:
304,176,25438,1,0,0:0:0:0:
304,176,25549,1,8,0:0:0:0:
304,176,25660,1,0,0:0:0:0:
304,176,25771,1,0,0:0:0:0:
304,176,25882,1,8,0:0:0:0:
304,176,25993,1,0,0:0:0:0:
304,176,26105,1,0,0:0:0:0:
304,176,26216,1,8,0:0:0:0:
304,176,26327,1,0,0:0:0:0:
304,176,26438,1,0,0:0:0:0:
304,176,26549,1,8,0:0:0:0:
304,176,26994,1,0,0:0:0:0:
304,176,27105,1,0,0:0:0:0:
304,176,27216,1,0,0:0:0:0:
304,176,27327,1,0,0:0:0:0:
304,176,27438,1,8,0:0:0:0:
304,176,27549,1,0,0:0:0:0:
304,176,27661,1,0,0:0:0:0:
304,176,27772,1,8,0:0:0:0:
304,176,27883,1,0,0:0:0:0:
304,176,27994,1,8,0:0:0:0:
304,176,28105,1,0,0:0:0:0:
304,176,28216,1,8,0:0:0:0:
304,176,28327,1,0,0:0:0:0:
304,176,28438,1,0,0:0:0:0:
304,176,28549,1,8,0:0:0:0:
304,176,28661,1,0,0:0:0:0:
304,176,28772,1,8,0:0:0:0:
304,176,28883,1,0,0:0:0:0:
304,176,28994,1,0,0:0:0:0:
304,176,29105,1,8,0:0:0:0:
304,176,29216,1,0,0:0:0:0:
304,176,29327,1,0,0:0:0:0:
304,176,29438,1,8,0:0:0:0:
304,176,29549,1,0,0:0:0:0:
304,176,29661,1,0,0:0:0:0:
304,176,29772,1,8,0:0:0:0:
304,176,29883,1,0,0:0:0:0:
304,176,29994,1,0,0:0:0:0:
304,176,30105,1,8,0:0:0:0:
304,176,30216,1,0,0:0:0:0:
304,176,30327,1,0,0:0:0:0:
304,176,30438,1,0,0:0:0:0:
104,144,30550,1,0,0:0:0:0:
328,96,30772,1,0,0:0:0:0:
328,96,30994,1,8,0:0:0:0:
328,96,31216,1,0,0:0:0:0:
328,96,31327,1,0,0:0:0:0:
328,96,31438,1,8,0:0:0:0:
328,96,31661,1,0,0:0:0:0:
328,96,31883,1,8,0:0:0:0:
328,96,32105,1,8,0:0:0:0:
328,96,32216,1,8,0:0:0:0:
256,192,32327,12,0,33661,0:0:0:0:
200,168,34105,5,4,0:0:0:0:
200,168,34327,1,8,0:0:0:0:
200,168,34550,1,0,0:0:0:0:
200,168,34661,1,8,0:0:0:0:
200,168,34883,1,8,0:0:0:0:
200,168,34994,1,0,0:0:0:0:
200,168,35105,1,0,0:0:0:0:
200,168,35327,1,8,0:0:0:0:
200,168,35550,1,8,0:0:0:0:
200,168,35661,1,0,0:0:0:0:
200,168,35772,1,8,0:0:0:0:
200,168,35883,1,0,0:0:0:0:
200,168,36105,1,8,0:0:0:0:
200,168,36327,1,0,0:0:0:0:
200,168,36438,1,8,0:0:0:0:
200,168,36661,1,8,0:0:0:0:
200,168,36772,1,0,0:0:0:0:
200,168,36883,1,0,0:0:0:0:
200,168,37105,1,8,0:0:0:0:
256,184,37327,1,8,0:0:0:0:
256,184,37438,1,0,0:0:0:0:
256,184,37550,1,8,0:0:0:0:
256,184,37661,1,0,0:0:0:0:
288,216,37883,1,8,0:0:0:0:
288,216,38105,1,0,0:0:0:0:
288,216,38216,1,8,0:0:0:0:
288,216,38438,1,8,0:0:0:0:
288,216,38550,1,0,0:0:0:0:
288,216,38661,1,0,0:0:0:0:
288,216,38883,1,8,0:0:0:0:
288,216,39105,1,8,0:0:0:0:
288,216,39216,1,0,0:0:0:0:
288,216,39327,1,8,0:0:0:0:
288,216,39438,1,0,0:0:0:0:
184,224,39661,1,8,0:0:0:0:
184,224,39772,1,8,0:0:0:0:
184,224,39883,1,0,0:0:0:0:
184,224,40105,1,8,0:0:0:0:
184,224,40216,1,8,0:0:0:0:
184,224,40327,1,0,0:0:0:0:
184,224,40438,1,8,0:0:0:0:
184,224,40550,1,8,0:0:0:0:
184,224,40661,1,8,0:0:0:0:
184,224,40772,1,0,0:0:0:0:
184,224,40994,1,8,0:0:0:0:
184,224,41216,1,4,0:0:0:0:
184,224,41438,1,8,0:0:0:0:
184,224,41661,1,0,0:0:0:0:
184,224,41772,1,8,0:0:0:0:
184,224,41994,1,8,0:0:0:0:
184,224,42105,1,8,0:0:0:0:
184,224,42216,1,0,0:0:0:0:
184,224,42438,1,8,0:0:0:0:
184,224,42661,1,8,0:0:0:0:
184,224,42772,1,0,0:0:0:0:
184,224,42883,1,8,0:0:0:0:
184,224,42994,1,0,0:0:0:0:
184,224,43216,1,8,0:0:0:0:
184,224,43438,1,0,0:0:0:0:
184,224,43550,1,8,0:0:0:0:
184,224,43772,1,8,0:0:0:0:
184,224,43883,1,8,0:0:0:0:
184,224,43994,1,0,0:0:0:0:
184,224,44216,1,8,0:0:0:0:
184,224,44438,1,8,0:0:0:0:
184,224,44550,1,0,0:0:0:0:
184,224,44661,1,8,0:0:0:0:
184,224,44772,1,0,0:0:0:0:
184,224,44994,1,8,0:0:0:0:
184,224,45216,1,0,0:0:0:0:
184,224,45327,1,8,0:0:0:0:
184,224,45550,1,8,0:0:0:0:
184,224,45661,1,8,0:0:0:0:
184,224,45772,1,0,0:0:0:0:
184,224,45994,1,0,0:0:0:0:
184,224,46216,1,8,0:0:0:0:
312,136,46661,1,12,0:0:0:0:
248,184,47142,1,12,0:0:0:0:
248,184,47290,1,12,0:0:0:0:
440,128,47438,1,8,0:0:0:0:
40,112,47550,1,8,0:0:0:0:
440,128,47661,1,0,0:0:0:0:
440,128,47772,1,8,0:0:0:0:
440,128,47883,1,0,0:0:0:0:
440,128,47994,1,8,0:0:0:0:
440,128,48105,1,0,0:0:0:0:
440,128,48216,1,8,0:0:0:0:
440,128,48327,1,0,0:0:0:0:
248,216,48550,1,8,0:0:0:0:
248,216,48772,1,0,0:0:0:0:
248,216,48883,1,8,0:0:0:0:
248,216,49105,1,8,0:0:0:0:
248,216,49216,1,0,0:0:0:0:
248,216,49438,1,8,0:0:0:0:
248,216,49550,1,0,0:0:0:0:
248,216,49661,1,0,0:0:0:0:
248,216,49772,1,8,0:0:0:0:
248,216,49994,1,8,0:0:0:0:
248,216,50105,1,0,0:0:0:0:
248,216,50327,1,8,0:0:0:0:
248,216,50550,1,0,0:0:0:0:
248,216,50661,1,8,0:0:0:0:
248,216,50883,1,0,0:0:0:0:
248,216,50994,1,8,0:0:0:0:
272,152,51216,1,8,0:0:0:0:
272,152,51327,1,0,0:0:0:0:
272,152,51550,1,0,0:0:0:0:
248,216,51661,1,8,0:0:0:0:
248,216,51883,1,0,0:0:0:0:
232,184,52105,1,8,0:0:0:0:
232,184,52327,1,0,0:0:0:0:
232,184,52438,1,8,0:0:0:0:
232,184,52661,1,0,0:0:0:0:
232,184,52772,1,8,0:0:0:0:
232,184,52994,1,8,0:0:0:0:
232,184,53105,1,8,0:0:0:0:
232,184,53216,1,0,0:0:0:0:
232,184,53327,1,8,0:0:0:0:
232,184,53550,1,8,0:0:0:0:
232,184,53661,1,0,0:0:0:0:
232,184,53772,1,8,0:0:0:0:
232,184,53883,1,8,0:0:0:0:
232,184,53994,1,0,0:0:0:0:
232,184,54105,1,0,0:0:0:0:
232,184,54216,1,8,0:0:0:0:
232,184,54327,1,8,0:0:0:0:
232,184,54438,1,0,0:0:0:0:
200,128,54550,1,8,0:0:0:0:
200,128,54661,1,8,0:0:0:0:
200,128,54772,1,0,0:0:0:0:
200,128,54883,1,0,0:0:0:0:
232,184,54994,1,8,0:0:0:0:
232,184,55105,1,8,0:0:0:0:
232,184,55216,1,0,0:0:0:0:
232,184,55327,1,0,0:0:0:0:
232,184,55438,1,0,0:0:0:0:
232,184,55550,1,8,0:0:0:0:
232,184,55772,1,8,0:0:0:0:
232,184,55994,1,8,0:0:0:0:
232,184,56216,1,8,0:0:0:0:
232,184,56327,1,0,0:0:0:0:
232,184,56550,1,0,0:0:0:0:
232,184,56661,1,0,0:0:0:0:
232,184,56772,1,0,0:0:0:0:
232,184,56883,1,8,0:0:0:0:
232,184,56994,1,8,0:0:0:0:
232,184,57105,1,8,0:0:0:0:
232,184,57216,1,8,0:0:0:0:
272,216,57438,1,8,0:0:0:0:
144,152,57661,1,0,0:0:0:0:
144,152,57772,1,8,0:0:0:0:
160,112,57994,1,0,0:0:0:0:
160,112,58105,1,8,0:0:0:0:
272,216,58327,1,8,0:0:0:0:
272,216,58438,1,0,0:0:0:0:
160,112,58772,2,0,L|400:128,1,210
96,152,59661,1,12,0:0:0:0:
96,152,60105,1,0,0:0:0:0:
96,152,60327,1,8,0:0:0:0:
96,152,60438,1,8,0:0:0:0:
96,152,60550,1,8,0:0:0:0:
96,152,60661,1,8,0:0:0:0:
96,152,60772,1,0,0:0:0:0:
392,152,61216,1,0,0:0:0:0:
392,152,61438,1,8,0:0:0:0:
392,152,61550,1,8,0:0:0:0:
392,152,61661,1,0,0:0:0:0:
392,152,61772,1,8,0:0:0:0:
392,152,61994,1,8,0:0:0:0:
392,152,62105,1,0,0:0:0:0:
392,152,62216,1,0,0:0:0:0:
392,152,62327,1,8,0:0:0:0:
392,152,62438,1,8,0:0:0:0:
392,152,62550,1,0,0:0:0:0:
392,152,62661,1,0,0:0:0:0:
392,152,62772,1,0,0:0:0:0:
392,152,62883,1,0,0:0:0:0:
392,152,62994,1,8,0:0:0:0:
392,152,63105,1,8,0:0:0:0:
392,152,63216,1,0,0:0:0:0:
392,152,63327,1,0,0:0:0:0:
392,152,63438,1,0,0:0:0:0:
392,152,63550,1,8,0:0:0:0:
392,152,63661,1,0,0:0:0:0:
392,152,63772,1,0,0:0:0:0:
392,152,63883,1,8,0:0:0:0:
392,152,63994,1,0,0:0:0:0:
392,152,64105,1,0,0:0:0:0:
392,152,64216,1,8,0:0:0:0:
392,152,64327,1,8,0:0:0:0:
392,152,64438,1,8,0:0:0:0:
392,152,64550,1,0,0:0:0:0:
392,152,64661,1,0,0:0:0:0:
392,152,64772,1,0,0:0:0:0:
392,152,64994,1,8,0:0:0:0:
392,152,65216,1,8,0:0:0:0:
392,152,65327,1,8,0:0:0:0:
392,152,65438,1,0,0:0:0:0:
392,152,65550,1,0,0:0:0:0:
392,152,65661,1,8,0:0:0:0:
392,152,65772,1,8,0:0:0:0:
392,152,65883,1,0,0:0:0:0:
392,152,65994,1,0,0:0:0:0:
392,152,66105,1,0,0:0:0:0:
392,152,66216,1,0,0:0:0:0:
392,152,66327,1,8,0:0:0:0:
392,152,66772,1,8,0:0:0:0:
392,152,66883,1,8,0:0:0:0:
392,152,66994,1,0,0:0:0:0:
392,152,67105,1,0,0:0:0:0:
224,128,67216,1,8,0:0:0:0:
224,128,67327,1,8,0:0:0:0:
224,128,67438,1,8,0:0:0:0:
224,128,67550,1,0,0:0:0:0:
224,128,67661,1,8,0:0:0:0:
392,152,67772,1,0,0:0:0:0:
392,152,67883,1,0,0:0:0:0:
392,152,68105,1,8,0:0:0:0:
392,152,68216,1,8,0:0:0:0:
392,152,68327,1,0,0:0:0:0:
392,152,68438,1,8,0:0:0:0:
392,152,68661,1,0,0:0:0:0:
392,152,68772,1,8,0:0:0:0:
392,152,69327,1,0,0:0:0:0:
392,152,69438,1,8,0:0:0:0:
392,152,69661,1,0,0:0:0:0:
392,152,69883,1,0,0:0:0:0:
432,88,70105,1,8,0:0:0:0:
432,88,70179,1,8,0:0:0:0:
432,88,70698,1,0,0:0:0:0:
432,88,70772,1,0,0:0:0:0:
432,88,70994,1,0,0:0:0:0:
432,88,71216,1,8,0:0:0:0:
432,88,71438,1,8,0:0:0:0:
432,88,71513,1,8,0:0:0:0:
432,88,71587,1,8,0:0:0:0:
432,88,71661,1,0,0:0:0:0:
480,48,71735,1,0,0:0:0:0:
480,48,72550,1,12,0:0:0:0:
480,48,72994,1,4,0:0:0:0:
480,48,73216,1,8,0:0:0:0:
480,48,73290,1,8,0:0:0:0:
480,48,73364,1,8,0:0:0:0:
480,48,73438,1,0,0:0:0:0:
128,168,73513,1,0,0:0:0:0:
128,168,73587,1,0,0:0:0:0:
432,48,73661,1,8,0:0:0:0:
432,48,73883,1,8,0:0:0:0:
432,48,73994,1,8,0:0:0:0:
432,48,74105,1,0,0:0:0:0:
432,48,74327,1,8,0:0:0:0:
432,48,74550,1,0,0:0:0:0:
432,48,74772,1,8,0:0:0:0:
432,48,74994,1,0,0:0:0:0:
432,48,75105,1,8,0:0:0:0:
432,48,75216,1,8,0:0:0:0:
432,48,75327,1,0,0:0:0:0:
472,40,75883,1,8,0:0:0:0:
472,40,75957,1,8,0:0:0:0:
472,40,76031,1,8,0:0:0:0:
472,40,76105,1,0,0:0:0:0:
472,40,76179,1,0,0:0:0:0:
200,128,76253,1,0,0:0:0:0:
56,136,76327,1,0,0:0:0:0:
328,96,76772,1,0,0:0:0:0:
328,96,76994,1,8,0:0:0:0:
328,96,77216,1,8,0:0:0:0:
328,96,77661,1,8,0:0:0:0:
240,96,77772,1,0,0:0:0:0:
328,96,77994,1,8,0:0:0:0:
152,152,78216,1,8,0:0:0:0:
152,152,78327,1,0,0:0:0:0:
152,152,78438,1,0,0:0:0:0:
328,96,78772,1,8,0:0:0:0:
328,96,78994,1,8,0:0:0:0:
328,96,79438,1,8,0:0:0:0:
240,96,79550,1,0,0:0:0:0:
328,96,79772,1,8,0:0:0:0:
240,96,79994,1,8,0:0:0:0:
328,96,80105,1,0,0:0:0:0:
240,96,80216,1,0,0:0:0:0:
328,96,80550,1,8,0:0:0:0:
328,96,80772,1,8,0:0:0:0:
328,96,81216,1,8,0:0:0:0:
240,96,81327,1,0,0:0:0:0:
328,96,81550,1,8,0:0:0:0:
216,152,81772,1,8,0:0:0:0:
216,152,81883,1,0,0:0:0:0:
216,152,81994,1,8,0:0:0:0:
328,96,82327,1,8,0:0:0:0:
328,96,82550,1,8,0:0:0:0:
328,96,82994,1,8,0:0:0:0:
328,96,83327,1,8,0:0:0:0:
328,96,83438,1,8,0:0:0:0:
328,96,83661,1,8,0:0:0:0:
192,184,83883,1,0,0:0:0:0:
328,96,84105,1,8,0:0:0:0:
328,96,84327,1,8,0:0:0:0:
328,96,84772,1,8,0:0:0:0:
192,184,84883,1,0,0:0:0:0:
328,96,85105,1,8,0:0:0:0:
192,184,85327,1,8,0:0:0:0:
192,184,85438,1,0,0:0:0:0:
192,184,85550,1,8,0:0:0:0:
192,184,85661,1,0,0:0:0:0:
328,96,85883,1,8,0:0:0:0:
328,96,86105,1,8,0:0:0:0:
328,96,86550,1,8,0:0:0:0:
192,184,86661,1,0,0:0:0:0:
328,96,86883,1,8,0:0:0:0:
192,184,87105,1,8,0:0:0:0:
192,184,87216,1,0,0:0:0:0:
192,184,87327,1,8,0:0:0:0:
192,184,87438,1,0,0:0:0:0:
328,96,87661,1,8,0:0:0:0:
328,96,87883,1,8,0:0:0:0:
328,96,88327,1,8,0:0:0:0:
344,256,88438,1,0,0:0:0:0:
328,96,88661,1,12,0:0:0:0:
368,224,88883,1,12,0:0:0:0:
112,104,89068,1,8,0:0:0:0:
112,104,89216,1,0,0:0:0:0:
112,104,89364,1,0,0:0:0:0:
112,104,89513,1,0,0:0:0:0:
112,104,89661,1,8,0:0:0:0:
328,96,90105,1,4,0:0:0:0:
312,208,90327,1,8,0:0:0:0:
312,208,90438,1,8,0:0:0:0:
312,208,90549,1,0,0:0:0:0:
312,208,90660,1,8,0:0:0:0:
256,192,90882,1,8,0:0:0:0:
256,192,90993,1,0,0:0:0:0:
256,192,91105,1,0,0:0:0:0:
192,152,91327,1,8,0:0:0:0:
192,152,91549,1,8,0:0:0:0:
192,152,91660,1,0,0:0:0:0:
192,152,91771,1,8,0:0:0:0:
192,152,91882,1,0,0:0:0:0:
192,152,92105,1,8,0:0:0:0:
192,152,92216,1,8,0:0:0:0:
192,152,92327,1,0,0:0:0:0:
192,152,92438,1,8,0:0:0:0:
192,152,92660,1,8,0:0:0:0:
192,152,92771,1,8,0:0:0:0:
192,152,92882,1,0,0:0:0:0:
192,152,93105,1,0,0:0:0:0:
192,152,93327,1,8,0:0:0:0:
192,152,93438,1,0,0:0:0:0:
192,152,93549,1,8,0:0:0:0:
192,152,93660,1,0,0:0:0:0:
192,152,93882,1,8,0:0:0:0:
192,152,93993,1,8,0:0:0:0:
192,152,94105,1,0,0:0:0:0:
192,152,94216,1,8,0:0:0:0:
192,152,94438,1,8,0:0:0:0:
192,152,94549,1,0,0:0:0:0:
192,152,94660,1,0,0:0:0:0:
192,152,94882,1,8,0:0:0:0:
192,152,95105,1,8,0:0:0:0:
192,152,95216,1,0,0:0:0:0:
256,120,95327,1,0,0:0:0:0:
256,120,95438,1,8,0:0:0:0:
256,120,95549,1,0,0:0:0:0:
192,152,95660,1,0,0:0:0:0:
272,40,95771,1,8,0:0:0:0:
272,40,95882,1,0,0:0:0:0:
192,152,95993,1,0,0:0:0:0:
200,24,96105,1,8,0:0:0:0:
192,152,96216,1,8,0:0:0:0:
192,152,96327,1,8,0:0:0:0:
192,152,96438,1,8,0:0:0:0:
192,152,96549,1,0,0:0:0:0:
192,152,96660,1,0,0:0:0:0:
192,152,96771,1,8,0:0:0:0:
192,152,96882,1,8,0:0:0:0:
192,152,96993,1,0,0:0:0:0:
192,152,97105,1,0,0:0:0:0:
192,152,97216,1,8,0:0:0:0:
192,152,97438,1,8,0:0:0:0:
192,152,97549,1,8,0:0:0:0:
192,152,97660,1,0,0:0:0:0:
192,152,97771,1,8,0:0:0:0:
192,152,97993,1,8,0:0:0:0:
192,152,98104,1,0,0:0:0:0:
192,152,98216,1,0,0:0:0:0:
192,152,98438,1,8,0:0:0:0:
192,152,98660,1,8,0:0:0:0:
192,152,98771,1,0,0:0:0:0:
192,152,98882,1,8,0:0:0:0:
192,152,98993,1,0,0:0:0:0:
192,152,99216,1,8,0:0:0:0:
192,152,99327,1,8,0:0:0:0:
192,152,99438,1,0,0:0:0:0:
224,152,99549,1,0,0:0:0:0:
224,152,99660,1,8,0:0:0:0:
224,152,99771,1,0,0:0:0:0:
192,152,99882,1,8,0:0:0:0:
192,152,99993,1,0,0:0:0:0:
192,152,100216,1,0,0:0:0:0:
192,152,100438,1,8,0:0:0:0:
192,152,100549,1,0,0:0:0:0:
192,152,100660,1,8,0:0:0:0:
192,152,100771,1,0,0:0:0:0:
264,200,101216,1,0,0:0:0:0:
264,200,101327,1,8,0:0:0:0:
264,200,101438,1,8,0:0:0:0:
264,200,101549,1,8,0:0:0:0:
264,200,101660,1,0,0:0:0:0:
264,200,101771,1,8,0:0:0:0:
264,200,101882,1,8,0:0:0:0:
264,200,101993,1,8,0:0:0:0:
264,200,102104,1,0,0:0:0:0:
264,200,102216,1,8,0:0:0:0:
264,200,102327,1,8,0:0:0:0:
264,200,102438,1,8,0:0:0:0:
264,200,102549,1,0,0:0:0:0:
264,200,102660,1,0,0:0:0:0:
264,200,102771,1,0,0:0:0:0:
264,200,102882,1,8,0:0:0:0:
264,200,102993,1,8,0:0:0:0:
264,200,103104,1,8,0:0:0:0:
264,200,103216,1,0,0:0:0:0:
264,200,103327,1,0,0:0:0:0:
264,200,103438,1,0,0:0:0:0:
424,96,103771,1,4,0:0:0:0:
424,96,104104,1,12,0:0:0:0:
464,72,104327,1,0,0:0:0:0:
464,72,104549,1,8,0:0:0:0:
464,72,104993,1,0,0:0:0:0:
464,72,105438,1,12,0:0:0:0:
392,112,105808,1,12,0:0:0:0:
392,112,105956,1,12,0:0:0:0:
328,104,106104,1,12,0:0:0:0:
