osu file format v12

[General]
AudioFilename: sola.mp3
AudioLeadIn: 0
PreviewTime: 34105
Countdown: 0
SampleSet: Normal
StackLeniency: 0.7
Mode: 1
LetterboxInBreaks: 0
WidescreenStoryboard: 0

[Editor]
DistanceSpacing: 0.8
BeatDivisor: 4
GridSize: 8

[Metadata]
Title:sola
TitleUnicode:sola
Artist:Ono Hideyuki
ArtistUnicode:小野秀幸
Creator:Mapper 31
Version:Oni
Source:jubeat saucer
Tags:Dance Revolution DDR DDR2013 GITADORA Triple_Journey
BeatmapID:330849
BeatmapSetID:131347

[Difficulty]
HPDrainRate:6
CircleSize:5
OverallDifficulty:5
ApproachRate:5
SliderMultiplier:1.4
SliderTickRate:1

[Events]
//Background and Video events
0,0,"travel-the-globe-12468-hd-wallpapers.jpg",0,0
//Break Periods
//Storyboard Layer 0 (Background)
//Storyboard Layer 1 (Fail)
//Storyboard Layer 2 (Pass)
//Storyboard Layer 3 (Foreground)
//Storyboard Sound Samples
//Background Colour Transformations
3,100,163,162,255

[TimingPoints]
2105.64705882353,444.444444444444,4,1,0,80,1,0
34105,-100,4,1,0,80,0,1
48327,-100,4,1,0,80,0,0
90105,444.444444444444,4,1,0,80,1,1
104327,-100,4,1,0,80,0,0

[HitObjects]
280,176,2105,1,0,0:0:0:0:
280,176,2327,1,8,0:0:0:0:
280,176,2550,1,0,0:0:0:0:
280,176,2661,1,8,0:0:0:0:
280,176,2994,1,0,0:0:0:0:
288,144,3216,1,8,0:0:0:0:
288,144,3327,1,0,0:0:0:0:
288,144,3550,1,0,0:0:0:0:
288,144,3772,1,8,0:0:0:0:
288,144,3883,1,0,0:0:0:0:
288,144,4105,1,8,0:0:0:0:
288,144,4327,1,0,0:0:0:0:
288,144,4438,1,8,0:0:0:0:
168,128,4772,1,0,0:0:0:0:
168,128,4994,1,8,0:0:0:0:
168,128,5105,1,0,0:0:0:0:
168,128,5327,1,0,0:0:0:0:
168,128,5550,1,8,0:0:0:0:
168,128,5661,1,0,0:0:0:0:
168,128,6105,1,8,0:0:0:0:
168,128,6216,1,8,0:0:0:0:
168,128,6327,1,0,0:0:0:0:
168,128,6438,1,0,0:0:0:0:
168,128,6550,1,0,0:0:0:0:
168,128,6883,1,4,0:0:0:0:
168,128,7216,1,12,0:0:0:0:
168,128,7438,1,4,0:0:0:0:
0,152,7772,2,4,L|432:128,1,455
144,168,9661,1,8,0:0:0:0:
144,168,9772,1,8,0:0:0:0:
144,168,9883,1,0,0:0:0:0:
144,168,9994,1,0,0:0:0:0:
144,168,10105,1,0,0:0:0:0:
144,168,10438,1,4,0:0:0:0:
272,112,10772,1,12,0:0:0:0:
144,168,10994,1,12,0:0:0:0:
0,152,11327,2,4,L|432:128,1,455
168,128,13216,1,8,0:0:0:0:
168,128,13327,1,8,0:0:0:0:
168,128,13438,1,0,0:0:0:0:
168,128,13550,1,0,0:0:0:0:
168,128,13661,1,0,0:0:0:0:
168,128,13994,1,4,0:0:0:0:
168,128,14327,1,12,0:0:0:0:
168,128,14550,1,4,0:0:0:0:
0,152,14883,2,4,L|432:128,1,455
144,168,16772,1,8,0:0:0:0:
144,168,16883,1,8,0:0:0:0:
144,168,16994,1,0,0:0:0:0:
144,168,17105,1,0,0:0:0:0:
144,168,17216,1,0,0:0:0:0:
144,168,17550,1,4,0:0:0:0:
272,112,17883,1,12,0:0:0:0:
144,168,18105,1,12,0:0:0:0:
120,96,18438,2,4,L|448:112,1,315
224,160,19883,1,4,0:0:0:0:
224,160,20327,1,8,0:0:0:0:
224,160,20438,1,8,0:0:0:0:
224,160,20661,1,8,0:0:0:0:
224,160,20883,1,0,0:0:0:0:
224,160,21105,1,0,0:0:0:0:
224,160,21216,1,0,0:0:0:0:
224,160,21438,1,0,0:0:0:0:
224,160,21661,1,8,0:0:0:0:
224,160,21994,1,8,0:0:0:0:
224,160,22327,1,0,0:0:0:0:
224,160,22994,1,8,0:0:0:0:
224,160,23438,1,0,0:0:0:0:
224,160,23883,1,8,0:0:0:0:
224,160,23994,1,8,0:0:0:0:
224,160,24216,1,8,0:0:0:0:
224,160,24438,1,0,0:0:0:0:
224,160,24661,1,0,0:0:0:0:
224,160,24772,1,0,0:0:0:0:
224,160,24994,1,8,0:0:0:0:
224,160,25216,1,0,0:0:0:0:
224,160,25550,1,8,0:0:0:0:
224,160,25883,1,0,0:0:0:0:
224,160,26550,1,12,0:0:0:0:
224,160,26994,1,4,0:0:0:0:
168,120,27438,1,8,0:0:0:0:
168,120,27550,1,8,0:0:0:0:
168,120,27772,1,8,0:0:0:0:
168,120,27994,1,0,0:0:0:0:
168,120,28216,1,0,0:0:0:0:
168,120,28327,1,0,0:0:0:0:
168,120,28550,1,8,0:0:0:0:
168,120,28772,1,8,0:0:0:0:
208,128,29105,1,8,0:0:0:0:
168,120,29438,1,0,0:0:0:0:
152,184,30105,1,8,0:0:0:0:
152,184,30550,1,4,0:0:0:0:
168,120,31438,1,12,0:0:0:0:
168,120,32105,1,8,0:0:0:0:
168,120,32216,1,8,0:0:0:0:
256,192,32327,12,0,33661,0:0:0:0:
176,120,34105,5,4,0:0:0:0:
352,160,34438,1,0,0:0:0:0:
88,192,34550,1,8,0:0:0:0:
88,192,34772,1,0,0:0:0:0:
176,120,34994,1,8,0:0:0:0:
176,120,35105,1,0,0:0:0:0:
176,120,35327,1,8,0:0:0:0:
176,120,35550,1,8,0:0:0:0:
176,120,35772,1,8,0:0:0:0:
176,120,35883,1,0,0:0:0:0:
56,152,36216,1,0,0:0:0:0:
56,152,36327,1,8,0:0:0:0:
56,152,36550,1,0,0:0:0:0:
176,120,36772,1,8,0:0:0:0:
176,120,36883,1,0,0:0:0:0:
176,120,37105,1,0,0:0:0:0:
176,120,37327,1,8,0:0:0:0:
176,120,37550,1,8,0:0:0:0:
176,120,37661,1,0,0:0:0:0:
56,152,37994,1,0,0:0:0:0:
56,152,38105,1,8,0:0:0:0:
56,152,38327,1,0,0:0:0:0:
136,144,38550,1,8,0:0:0:0:
136,144,38661,1,0,0:0:0:0:
136,144,38883,1,0,0:0:0:0:
136,144,39105,1,8,0:0:0:0:
136,144,39327,1,8,0:0:0:0:
136,144,39438,1,0,0:0:0:0:
136,144,39883,1,8,0:0:0:0:
136,144,40327,1,0,0:0:0:0:
136,144,40661,1,0,0:0:0:0:
136,144,40772,1,8,0:0:0:0:
136,144,40994,1,0,0:0:0:0:
136,144,41216,1,12,0:0:0:0:
232,120,41550,1,0,0:0:0:0:
136,144,41661,1,8,0:0:0:0:
136,144,41883,1,0,0:0:0:0:
136,144,42105,1,8,0:0:0:0:
136,144,42216,1,0,0:0:0:0:
136,144,42438,1,8,0:0:0:0:
136,144,42661,1,8,0:0:0:0:
136,144,42883,1,8,0:0:0:0:
136,144,42994,1,0,0:0:0:0:
136,144,43327,1,0,0:0:0:0:
136,144,43438,1,8,0:0:0:0:
136,144,43661,1,0,0:0:0:0:
136,144,43883,1,8,0:0:0:0:
136,144,43994,1,0,0:0:0:0:
136,144,44216,1,0,0:0:0:0:
136,144,44438,1,8,0:0:0:0:
136,144,44661,1,8,0:0:0:0:
136,144,44772,1,0,0:0:0:0:
296,184,45105,1,0,0:0:0:0:
296,184,45216,1,8,0:0:0:0:
296,184,45438,1,0,0:0:0:0:
296,184,45661,1,8,0:0:0:0:
296,184,45772,1,0,0:0:0:0:
296,184,45994,1,0,0:0:0:0:
296,184,46216,1,8,0:0:0:0:
408,56,46661,1,12,0:0:0:0:
408,56,47142,1,12,0:0:0:0:
408,56,47290,1,12,0:0:0:0:
40,56,47438,2,0,L|256:80,1,210
216,120,48327,1,12,0:0:0:0:
216,120,48550,1,0,0:0:0:0:
216,176,49216,1,0,0:0:0:0:
216,176,49550,1,8,0:0:0:0:
216,176,49772,1,8,0:0:0:0:
216,176,49994,1,8,0:0:0:0:
216,176,50105,1,0,0:0:0:0:
216,176,50327,1,8,0:0:0:0:
216,176,50661,1,0,0:0:0:0:
216,176,50994,1,8,0:0:0:0:
216,176,51216,1,0,0:0:0:0:
216,176,51438,1,0,0:0:0:0:
216,176,51661,1,8,0:0:0:0:
216,176,51883,1,4,0:0:0:0:
216,176,52216,1,12,0:0:0:0:
160,160,53327,1,0,0:0:0:0:
160,160,53550,1,0,0:0:0:0:
160,160,53661,1,8,0:0:0:0:
160,160,53772,1,8,0:0:0:0:
160,160,53883,1,0,0:0:0:0:
160,160,53994,1,0,0:0:0:0:
160,160,54105,1,8,0:0:0:0:
160,160,54216,1,8,0:0:0:0:
160,160,54327,1,0,0:0:0:0:
160,160,54438,1,0,0:0:0:0:
160,160,54550,1,8,0:0:0:0:
160,160,54661,1,8,0:0:0:0:
160,160,54772,1,0,0:0:0:0:
160,160,54883,1,0,0:0:0:0:
160,160,54994,1,8,0:0:0:0:
160,160,55105,1,8,0:0:0:0:
160,160,55216,1,0,0:0:0:0:
160,160,55327,1,0,0:0:0:0:
160,160,55438,1,0,0:0:0:0:
160,160,55550,1,8,0:0:0:0:
160,160,55772,1,8,0:0:0:0:
160,160,55994,1,8,0:0:0:0:
160,160,56216,1,8,0:0:0:0:
160,160,56550,1,0,0:0:0:0:
160,160,56661,1,0,0:0:0:0:
160,160,56772,1,0,0:0:0:0:
160,160,56883,1,0,0:0:0:0:
160,160,56994,1,8,0:0:0:0:
160,160,57105,1,8,0:0:0:0:
160,160,57216,1,8,0:0:0:0:
160,160,57550,1,0,0:0:0:0:
160,160,57883,1,0,0:0:0:0:
160,160,58105,1,8,0:0:0:0:
160,160,58327,1,0,0:0:0:0:
160,160,58438,1,0,0:0:0:0:
160,160,58772,1,12,0:0:0:0:
160,160,59438,1,0,0:0:0:0:
160,160,59661,1,12,0:0:0:0:
160,160,60327,1,8,0:0:0:0:
160,160,60438,1,8,0:0:0:0:
160,160,60550,1,8,0:0:0:0:
160,160,60661,1,8,0:0:0:0:
160,160,60772,1,0,0:0:0:0:
160,160,61216,1,0,0:0:0:0:
160,160,61438,1,8,0:0:0:0:
160,160,61661,1,0,0:0:0:0:
160,160,61772,1,8,0:0:0:0:
160,160,61994,1,8,0:0:0:0:
160,160,62105,1,0,0:0:0:0:
160,160,62216,1,0,0:0:0:0:
160,160,62327,1,8,0:0:0:0:
160,160,62550,1,0,0:0:0:0:
160,160,62661,1,0,0:0:0:0:
160,160,62772,1,0,0:0:0:0:
160,160,62883,1,0,0:0:0:0:
160,160,62994,1,8,0:0:0:0:
224,160,63216,1,8,0:0:0:0:
224,160,63327,1,8,0:0:0:0:
224,160,63438,1,0,0:0:0:0:
224,160,63550,1,8,0:0:0:0:
224,160,63661,1,0,0:0:0:0:
224,160,63772,1,0,0:0:0:0:
224,160,63883,1,8,0:0:0:0:
224,160,63994,1,8,0:0:0:0:
224,160,64105,1,0,0:0:0:0:
224,160,64216,1,0,0:0:0:0:
224,160,64327,1,8,0:0:0:0:
224,160,64438,1,8,0:0:0:0:
224,160,64550,1,0,0:0:0:0:
176,136,64661,1,0,0:0:0:0:
224,160,64772,1,0,0:0:0:0:
224,160,64994,1,8,0:0:0:0:
224,160,65216,1,8,0:0:0:0:
224,160,65327,1,8,0:0:0:0:
224,160,65438,1,0,0:0:0:0:
224,160,65550,1,0,0:0:0:0:
224,160,65661,1,8,0:0:0:0:
224,160,65772,1,8,0:0:0:0:
224,160,65883,1,0,0:0:0:0:
224,160,65994,1,0,0:0:0:0:
224,160,66105,1,0,0:0:0:0:
224,160,66216,1,0,0:0:0:0:
224,160,66327,1,8,0:0:0:0:
224,160,66772,1,8,0:0:0:0:
224,160,66883,1,8,0:0:0:0:
224,160,66994,1,0,0:0:0:0:
224,160,67105,1,0,0:0:0:0:
224,160,67216,1,8,0:0:0:0:
224,160,67327,1,8,0:0:0:0:
224,160,67438,1,8,0:0:0:0:
224,160,67550,1,8,0:0:0:0:
224,160,67661,1,0,0:0:0:0:
224,160,67772,1,0,0:0:0:0:
224,160,67883,1,0,0:0:0:0:
224,160,68105,1,8,0:0:0:0:
224,160,68327,1,0,0:0:0:0:
224,160,68438,1,8,0:0:0:0:
224,160,68661,1,0,0:0:0:0:
224,160,68772,1,8,0:0:0:0:
224,160,69327,1,0,0:0:0:0:
224,160,69438,1,0,0:0:0:0:
224,160,69550,1,8,0:0:0:0:
224,160,69661,1,0,0:0:0:0:
224,160,69883,1,0,0:0:0:0:
224,160,70105,1,8,0:0:0:0:
96,176,70661,1,0,0:0:0:0:
96,176,70772,1,0,0:0:0:0:
96,176,70994,1,8,0:0:0:0:
96,176,71216,1,8,0:0:0:0:
96,176,71438,1,8,0:0:0:0:
104,144,71550,1,8,0:0:0:0:
96,176,71661,1,0,0:0:0:0:
96,176,71772,1,0,0:0:0:0:
96,176,72550,1,12,0:0:0:0:
96,176,72994,1,4,0:0:0:0:
192,192,73216,1,8,0:0:0:0:
192,192,73327,1,8,0:0:0:0:
192,192,73438,1,0,0:0:0:0:
96,176,73550,1,8,0:0:0:0:
96,176,73661,1,0,0:0:0:0:
192,192,73883,1,8,0:0:0:0:
192,192,74105,1,0,0:0:0:0:
192,192,74327,1,0,0:0:0:0:
192,192,74550,1,8,0:0:0:0:
192,192,74772,1,8,0:0:0:0:
192,192,74994,1,0,0:0:0:0:
192,192,75105,1,8,0:0:0:0:
192,192,75216,1,8,0:0:0:0:
192,192,75327,1,0,0:0:0:0:
8,168,75883,2,0,L|176:184,1,140
208,104,76772,1,0,0:0:0:0:
104,160,76994,1,12,0:0:0:0:
104,160,77216,1,12,0:0:0:0:
104,160,77661,1,12,0:0:0:0:
104,160,77994,1,12,0:0:0:0:
104,160,78327,1,12,0:0:0:0:
104,160,78772,1,12,0:0:0:0:
104,160,78994,1,12,0:0:0:0:
104,160,79438,1,12,0:0:0:0:
104,160,79772,1,12,0:0:0:0:
104,160,80105,1,12,0:0:0:0:
104,160,80550,1,12,0:0:0:0:
104,160,80772,1,12,0:0:0:0:
104,160,81216,1,12,0:0:0:0:
104,160,81550,1,12,0:0:0:0:
104,160,81883,1,12,0:0:0:0:
104,160,82327,1,12,0:0:0:0:
104,160,82550,1,12,0:0:0:0:
104,160,82994,1,12,0:0:0:0:
104,160,83327,1,12,0:0:0:0:
104,160,83661,1,12,0:0:0:0:
104,160,83883,1,0,0:0:0:0:
104,160,84105,1,12,0:0:0:0:
104,160,84327,1,12,0:0:0:0:
104,160,84772,1,12,0:0:0:0:
104,160,85105,1,12,0:0:0:0:
104,160,85438,1,12,0:0:0:0:
104,160,85661,1,0,0:0:0:0:
104,160,85883,1,12,0:0:0:0:
104,160,86105,1,12,0:0:0:0:
104,160,86550,1,12,0:0:0:0:
104,160,86883,1,12,0:0:0:0:
104,160,87216,1,12,0:0:0:0:
104,160,87438,1,0,0:0:0:0:
104,160,87661,1,12,0:0:0:0:
104,160,87883,1,12,0:0:0:0:
104,160,88327,1,12,0:0:0:0:
104,160,88661,1,12,0:0:0:0:
104,160,88883,1,12,0:0:0:0:
176,120,90105,5,4,0:0:0:0:
208,152,90438,1,0,0:0:0:0:
88,192,90549,1,8,0:0:0:0:
88,192,90771,1,0,0:0:0:0:
336,136,90882,1,0,0:0:0:0:
176,120,90993,1,8,0:0:0:0:
176,120,91105,1,0,0:0:0:0:
176,120,91327,1,8,0:0:0:0:
176,120,91549,1,8,0:0:0:0:
176,120,91771,1,8,0:0:0:0:
176,120,91882,1,0,0:0:0:0:
168,176,92216,1,0,0:0:0:0:
168,176,92327,1,8,0:0:0:0:
168,176,92549,1,0,0:0:0:0:
168,176,92660,1,0,0:0:0:0:
176,120,92771,1,8,0:0:0:0:
176,120,92882,1,0,0:0:0:0:
176,120,93105,1,0,0:0:0:0:
176,120,93327,1,8,0:0:0:0:
176,120,93549,1,8,0:0:0:0:
176,120,93660,1,0,0:0:0:0:
96,112,93993,1,0,0:0:0:0:
96,112,94105,1,8,0:0:0:0:
96,112,94327,1,0,0:0:0:0:
0,96,94438,1,0,0:0:0:0:
136,144,94549,1,8,0:0:0:0:
136,144,94660,1,0,0:0:0:0:
136,144,94882,1,0,0:0:0:0:
136,144,95105,1,8,0:0:0:0:
136,144,95327,1,8,0:0:0:0:
136,144,95438,1,0,0:0:0:0:
224,128,95660,1,8,0:0:0:0:
224,128,95882,1,0,0:0:0:0:
224,128,95993,1,0,0:0:0:0:
224,128,96105,1,8,0:0:0:0:
224,128,96327,1,8,0:0:0:0:
224,128,96438,1,8,0:0:0:0:
224,128,96549,1,0,0:0:0:0:
240,104,96771,1,8,0:0:0:0:
240,104,96882,1,0,0:0:0:0:
136,144,96993,1,0,0:0:0:0:
136,144,97216,1,12,0:0:0:0:
224,128,97549,1,0,0:0:0:0:
136,144,97660,1,8,0:0:0:0:
136,144,97882,1,0,0:0:0:0:
224,128,97993,1,0,0:0:0:0:
136,144,98105,1,8,0:0:0:0:
136,144,98216,1,0,0:0:0:0:
136,144,98438,1,8,0:0:0:0:
136,144,98660,1,8,0:0:0:0:
136,144,98882,1,8,0:0:0:0:
136,144,98993,1,0,0:0:0:0:
136,144,99327,1,0,0:0:0:0:
136,144,99438,1,8,0:0:0:0:
136,144,99660,1,0,0:0:0:0:
96,144,99771,1,0,0:0:0:0:
136,144,99882,1,8,0:0:0:0:
136,144,99993,1,0,0:0:0:0:
136,144,100216,1,0,0:0:0:0:
136,144,100438,1,8,0:0:0:0:
136,144,100660,1,8,0:0:0:0:
136,144,100771,1,0,0:0:0:0:
208,168,101216,1,0,0:0:0:0:
208,168,101327,1,0,0:0:0:0:
208,168,101438,1,8,0:0:0:0:
208,168,101549,1,8,0:0:0:0:
208,168,101660,1,0,0:0:0:0:
208,168,101771,1,0,0:0:0:0:
208,168,101882,1,8,0:0:0:0:
208,168,101993,1,8,0:0:0:0:
208,168,102104,1,0,0:0:0:0:
208,168,102216,1,0,0:0:0:0:
208,168,102327,1,8,0:0:0:0:
208,168,102438,1,8,0:0:0:0:
208,168,102549,1,0,0:0:0:0:
208,168,102660,1,0,0:0:0:0:
208,168,102771,1,8,0:0:0:0:
208,168,102882,1,8,0:0:0:0:
208,168,102993,1,0,0:0:0:0:
208,168,103104,1,0,0:0:0:0:
208,168,103216,1,8,0:0:0:0:
208,168,103327,1,8,0:0:0:0:
208,168,103438,1,0,0:0:0:0:
208,168,103771,1,4,0:0:0:0:
208,168,104104,1,12,0:0:0:0:
240,104,105438,1,12,0:0:0:0:
240,104,105808,1,12,0:0:0:0:
240,104,105956,1,12,0:0:0:0:
240,104,106104,1,12,0:0:0:0:
