osu file format v12

[General]
AudioFilename: sola.mp3
AudioLeadIn: 0
PreviewTime: 34105
Countdown: 0
SampleSet: Normal
StackLeniency: 0.7
Mode: 1
LetterboxInBreaks: 0
WidescreenStoryboard: 0

[Editor]
DistanceSpacing: 0.8
BeatDivisor: 4
GridSize: 8

[Metadata]
Title:sola
TitleUnicode:sola
Artist:Ono Hideyuki
ArtistUnicode:小野秀幸
Creator:Mapper 31
Version:Muzukashii
Source:jubeat saucer
Tags:Dance Revolution DDR DDR2013 GITADORA Triple_Journey
BeatmapID:330868
BeatmapSetID:131347

[Difficulty]
HPDrainRate:5
CircleSize:2
OverallDifficulty:5
ApproachRate:0
SliderMultiplier:1.4
SliderTickRate:1

[Events]
//Background and Video events
0,0,"travel-the-globe-12468-hd-wallpapers.jpg",0,0
//Break Periods
//Storyboard Layer 0 (Background)
//Storyboard Layer 1 (Fail)
//Storyboard Layer 2 (Pass)
//Storyboard Layer 3 (Foreground)
//Storyboard Sound Samples
//Background Colour Transformations
3,100,163,162,255

[TimingPoints]
2105.64705882353,444.444444444444,4,1,0,80,1,0
34105,-100,4,1,0,80,0,1
48327,-100,4,1,0,80,0,0
90105,444.444444444444,4,1,0,80,1,1
104327,-100,4,1,0,80,0,0

[HitObjects]
192,128,2105,1,0,0:0:0:0:
192,128,2327,1,8,0:0:0:0:
192,128,2550,1,0,0:0:0:0:
192,128,2661,1,0,0:0:0:0:
192,128,2994,1,0,0:0:0:0:
192,128,3327,1,8,0:0:0:0:
192,128,3550,1,0,0:0:0:0:
192,128,3883,1,0,0:0:0:0:
192,128,4105,1,8,0:0:0:0:
192,128,4327,1,0,0:0:0:0:
192,128,4438,1,0,0:0:0:0:
192,128,4772,1,0,0:0:0:0:
192,128,5105,1,8,0:0:0:0:
192,128,5327,1,0,0:0:0:0:
192,128,5661,1,0,0:0:0:0:
248,128,6105,1,0,0:0:0:0:
248,128,6216,1,0,0:0:0:0:
248,128,6327,1,0,0:0:0:0:
248,128,6438,1,0,0:0:0:0:
248,128,6550,1,0,0:0:0:0:
248,128,6883,1,4,0:0:0:0:
248,128,7216,1,12,0:0:0:0:
248,128,7438,1,4,0:0:0:0:
72,88,7772,2,4,L|560:80,1,455
248,128,9661,1,0,0:0:0:0:
248,128,9772,1,0,0:0:0:0:
248,128,9883,1,0,0:0:0:0:
248,128,9994,1,0,0:0:0:0:
248,128,10105,1,0,0:0:0:0:
248,128,10438,1,4,0:0:0:0:
248,128,10772,1,12,0:0:0:0:
248,128,10994,1,12,0:0:0:0:
72,88,11327,2,4,L|560:80,1,455
248,128,13216,1,0,0:0:0:0:
248,128,13327,1,0,0:0:0:0:
248,128,13438,1,0,0:0:0:0:
248,128,13550,1,0,0:0:0:0:
248,128,13661,1,0,0:0:0:0:
248,128,13994,1,4,0:0:0:0:
248,128,14327,1,12,0:0:0:0:
248,128,14550,1,4,0:0:0:0:
72,88,14883,2,4,L|560:80,1,455
248,128,16772,1,0,0:0:0:0:
248,128,16883,1,0,0:0:0:0:
248,128,16994,1,0,0:0:0:0:
248,128,17105,1,0,0:0:0:0:
248,128,17216,1,0,0:0:0:0:
248,128,17550,1,4,0:0:0:0:
248,128,17883,1,12,0:0:0:0:
248,128,18105,1,12,0:0:0:0:
96,168,18438,2,4,L|440:160,1,315
160,160,19883,1,4,0:0:0:0:
184,120,20327,1,8,0:0:0:0:
224,144,20438,1,8,0:0:0:0:
184,120,20661,1,8,0:0:0:0:
184,120,20883,1,0,0:0:0:0:
184,120,21105,1,0,0:0:0:0:
184,120,21216,1,0,0:0:0:0:
184,120,21438,1,0,0:0:0:0:
184,120,21661,1,8,0:0:0:0:
184,120,21994,1,8,0:0:0:0:
184,120,22327,1,0,0:0:0:0:
184,120,22994,1,8,0:0:0:0:
184,120,23438,1,0,0:0:0:0:
184,120,23883,1,8,0:0:0:0:
184,120,23994,1,8,0:0:0:0:
184,120,24216,1,8,0:0:0:0:
184,120,24438,1,0,0:0:0:0:
184,120,24661,1,0,0:0:0:0:
184,120,24772,1,0,0:0:0:0:
184,120,24994,1,8,0:0:0:0:
184,120,25216,1,0,0:0:0:0:
184,120,25550,1,8,0:0:0:0:
184,120,25883,1,0,0:0:0:0:
184,120,26550,1,12,0:0:0:0:
184,120,26994,1,4,0:0:0:0:
184,120,27438,1,8,0:0:0:0:
184,120,27550,1,8,0:0:0:0:
184,120,27772,1,8,0:0:0:0:
184,120,27994,1,0,0:0:0:0:
184,120,28216,1,0,0:0:0:0:
184,120,28327,1,0,0:0:0:0:
184,120,28550,1,8,0:0:0:0:
184,120,28772,1,8,0:0:0:0:
184,120,29105,1,0,0:0:0:0:
184,120,29438,1,0,0:0:0:0:
184,120,30105,1,12,0:0:0:0:
184,120,30550,1,4,0:0:0:0:
184,120,31438,1,12,0:0:0:0:
184,120,32105,1,8,0:0:0:0:
184,120,32216,1,8,0:0:0:0:
256,192,32327,12,0,33661,0:0:0:0:
256,224,34105,5,4,0:0:0:0:
128,184,34550,1,8,0:0:0:0:
208,176,34994,1,0,0:0:0:0:
208,176,35105,1,0,0:0:0:0:
208,176,35327,1,8,0:0:0:0:
208,176,35550,1,8,0:0:0:0:
208,176,35772,1,0,0:0:0:0:
128,184,36327,1,8,0:0:0:0:
168,160,36772,1,8,0:0:0:0:
168,160,36883,1,8,0:0:0:0:
168,160,37105,1,0,0:0:0:0:
168,160,37327,1,8,0:0:0:0:
168,160,37550,1,0,0:0:0:0:
240,144,38105,1,8,0:0:0:0:
168,160,38550,1,8,0:0:0:0:
168,160,38661,1,8,0:0:0:0:
168,160,38883,1,0,0:0:0:0:
168,160,39105,1,0,0:0:0:0:
168,160,39327,1,8,0:0:0:0:
168,160,39883,1,0,0:0:0:0:
168,160,40327,1,0,0:0:0:0:
168,160,40772,1,8,0:0:0:0:
168,160,41216,1,12,0:0:0:0:
240,144,41661,1,8,0:0:0:0:
168,160,42105,1,0,0:0:0:0:
168,160,42216,1,0,0:0:0:0:
168,160,42438,1,8,0:0:0:0:
168,160,42661,1,8,0:0:0:0:
168,160,42883,1,0,0:0:0:0:
240,144,43438,1,8,0:0:0:0:
168,160,43883,1,8,0:0:0:0:
168,160,43994,1,8,0:0:0:0:
168,160,44216,1,0,0:0:0:0:
168,160,44438,1,8,0:0:0:0:
168,160,44661,1,0,0:0:0:0:
240,144,45216,1,8,0:0:0:0:
168,160,45661,1,8,0:0:0:0:
168,160,45772,1,8,0:0:0:0:
168,160,45994,1,0,0:0:0:0:
168,160,46216,1,0,0:0:0:0:
320,128,46661,1,12,0:0:0:0:
320,128,47142,1,12,0:0:0:0:
320,128,47290,1,12,0:0:0:0:
48,128,47438,1,12,0:0:0:0:
280,120,48327,1,8,0:0:0:0:
280,120,48550,1,0,0:0:0:0:
280,120,49216,1,0,0:0:0:0:
280,120,49550,1,0,0:0:0:0:
280,120,49772,1,0,0:0:0:0:
336,128,49994,1,8,0:0:0:0:
336,128,50105,1,0,0:0:0:0:
280,120,50327,1,8,0:0:0:0:
280,120,50661,1,0,0:0:0:0:
208,80,50994,1,8,0:0:0:0:
208,80,51216,1,0,0:0:0:0:
208,80,51438,1,0,0:0:0:0:
184,168,51661,1,8,0:0:0:0:
184,168,51883,1,4,0:0:0:0:
184,168,52216,1,12,0:0:0:0:
232,120,53327,1,0,0:0:0:0:
232,120,53550,1,0,0:0:0:0:
184,168,53661,1,0,0:0:0:0:
184,168,53772,1,0,0:0:0:0:
184,168,53883,1,0,0:0:0:0:
184,168,54105,1,8,0:0:0:0:
104,136,54216,1,8,0:0:0:0:
152,152,54327,1,8,0:0:0:0:
184,168,54550,1,0,0:0:0:0:
184,168,54661,1,0,0:0:0:0:
184,168,54772,1,0,0:0:0:0:
184,168,54994,1,8,0:0:0:0:
184,168,55438,1,0,0:0:0:0:
184,168,55550,1,0,0:0:0:0:
152,152,55772,1,8,0:0:0:0:
184,168,55994,1,8,0:0:0:0:
184,168,56216,1,8,0:0:0:0:
184,168,56550,1,0,0:0:0:0:
184,168,56661,1,0,0:0:0:0:
184,168,56772,1,0,0:0:0:0:
184,168,56883,1,0,0:0:0:0:
184,168,56994,1,0,0:0:0:0:
152,152,57216,1,8,0:0:0:0:
184,168,57550,1,0,0:0:0:0:
184,168,57883,1,0,0:0:0:0:
184,168,58105,1,8,0:0:0:0:
184,168,58438,1,0,0:0:0:0:
152,152,58772,1,12,0:0:0:0:
80,112,59438,1,0,0:0:0:0:
168,216,59661,1,12,0:0:0:0:
168,216,60327,1,0,0:0:0:0:
168,216,60438,1,0,0:0:0:0:
168,216,60550,1,0,0:0:0:0:
168,216,60661,1,0,0:0:0:0:
168,216,60772,1,0,0:0:0:0:
168,216,61216,1,0,0:0:0:0:
168,216,61438,1,8,0:0:0:0:
168,216,61661,1,0,0:0:0:0:
168,216,61994,1,0,0:0:0:0:
168,216,62327,1,8,0:0:0:0:
168,216,62550,1,0,0:0:0:0:
168,216,62661,1,0,0:0:0:0:
168,216,62772,1,0,0:0:0:0:
168,216,62994,1,8,0:0:0:0:
168,216,63105,1,8,0:0:0:0:
168,216,63216,1,8,0:0:0:0:
168,216,63438,1,0,0:0:0:0:
168,216,63550,1,0,0:0:0:0:
168,216,63661,1,0,0:0:0:0:
168,216,63883,1,8,0:0:0:0:
168,216,64327,1,8,0:0:0:0:
168,216,64438,1,8,0:0:0:0:
168,216,64550,1,8,0:0:0:0:
168,216,64772,1,0,0:0:0:0:
168,216,64994,1,8,0:0:0:0:
168,216,65216,1,8,0:0:0:0:
168,216,65327,1,8,0:0:0:0:
168,216,65438,1,8,0:0:0:0:
168,216,65661,1,0,0:0:0:0:
168,216,66105,1,0,0:0:0:0:
168,216,66327,1,8,0:0:0:0:
168,216,66772,1,8,0:0:0:0:
168,216,66994,1,0,0:0:0:0:
168,216,67105,1,0,0:0:0:0:
168,216,67216,1,0,0:0:0:0:
168,216,67438,1,8,0:0:0:0:
168,216,67550,1,8,0:0:0:0:
168,216,67661,1,8,0:0:0:0:
168,216,67883,1,0,0:0:0:0:
168,216,68105,1,8,0:0:0:0:
168,216,68327,1,0,0:0:0:0:
168,216,68438,1,8,0:0:0:0:
168,216,68772,1,8,0:0:0:0:
168,216,69327,1,8,0:0:0:0:
168,216,69438,1,8,0:0:0:0:
168,216,69661,1,0,0:0:0:0:
168,216,69883,1,0,0:0:0:0:
168,216,70105,1,8,0:0:0:0:
168,216,70661,1,0,0:0:0:0:
168,216,70772,1,0,0:0:0:0:
168,216,70994,1,0,0:0:0:0:
168,216,71216,1,8,0:0:0:0:
168,216,71438,1,8,0:0:0:0:
168,216,71661,1,0,0:0:0:0:
152,144,71772,1,0,0:0:0:0:
168,216,72550,1,12,0:0:0:0:
168,216,72994,1,0,0:0:0:0:
168,216,73216,1,8,0:0:0:0:
168,216,73438,1,0,0:0:0:0:
168,216,73550,1,0,0:0:0:0:
168,216,73661,1,0,0:0:0:0:
336,168,73883,1,8,0:0:0:0:
336,168,74105,1,0,0:0:0:0:
168,216,74327,1,0,0:0:0:0:
168,216,74550,1,8,0:0:0:0:
168,216,74772,1,8,0:0:0:0:
136,216,74994,1,8,0:0:0:0:
136,216,75105,1,8,0:0:0:0:
136,216,75216,1,8,0:0:0:0:
136,216,75327,1,8,0:0:0:0:
16,200,75883,2,0,L|168:200,1,140
328,112,76772,1,0,0:0:0:0:
328,112,76994,1,12,0:0:0:0:
328,112,77216,1,12,0:0:0:0:
408,56,77661,1,12,0:0:0:0:
408,56,77994,1,12,0:0:0:0:
408,56,78327,1,12,0:0:0:0:
408,56,78772,1,12,0:0:0:0:
408,56,78994,1,12,0:0:0:0:
408,56,79438,1,12,0:0:0:0:
408,56,79772,1,12,0:0:0:0:
408,56,80105,1,12,0:0:0:0:
408,56,80550,1,12,0:0:0:0:
408,56,80772,1,12,0:0:0:0:
408,56,81216,1,12,0:0:0:0:
408,56,81550,1,12,0:0:0:0:
408,56,81883,1,12,0:0:0:0:
408,56,82327,1,12,0:0:0:0:
408,56,82550,1,12,0:0:0:0:
408,56,82994,1,12,0:0:0:0:
408,56,83327,1,12,0:0:0:0:
408,56,83661,1,12,0:0:0:0:
408,56,83883,1,0,0:0:0:0:
408,56,84105,1,12,0:0:0:0:
408,56,84327,1,12,0:0:0:0:
408,56,84772,1,12,0:0:0:0:
408,56,85105,1,12,0:0:0:0:
408,56,85438,1,12,0:0:0:0:
408,56,85661,1,0,0:0:0:0:
408,56,85883,1,12,0:0:0:0:
408,56,86105,1,12,0:0:0:0:
408,56,86550,1,12,0:0:0:0:
408,56,86883,1,12,0:0:0:0:
408,56,87216,1,12,0:0:0:0:
408,56,87438,1,0,0:0:0:0:
408,56,87661,1,12,0:0:0:0:
408,56,87883,1,12,0:0:0:0:
408,56,88327,1,12,0:0:0:0:
408,56,88661,1,12,0:0:0:0:
408,56,88883,1,12,0:0:0:0:
208,176,90105,5,4,0:0:0:0:
160,128,90549,1,0,0:0:0:0:
160,128,90771,1,8,0:0:0:0:
208,176,90993,1,0,0:0:0:0:
208,176,91105,1,0,0:0:0:0:
208,176,91327,1,8,0:0:0:0:
208,176,91549,1,0,0:0:0:0:
208,176,91771,1,0,0:0:0:0:
160,128,91882,1,0,0:0:0:0:
160,128,92327,1,0,0:0:0:0:
160,128,92549,1,8,0:0:0:0:
168,160,92771,1,8,0:0:0:0:
168,160,92882,1,8,0:0:0:0:
168,160,93105,1,0,0:0:0:0:
168,160,93327,1,8,0:0:0:0:
168,160,93549,1,0,0:0:0:0:
160,128,93660,1,0,0:0:0:0:
160,128,94105,1,0,0:0:0:0:
160,128,94327,1,8,0:0:0:0:
168,160,94549,1,8,0:0:0:0:
168,160,94660,1,8,0:0:0:0:
168,160,94882,1,0,0:0:0:0:
168,160,95105,1,0,0:0:0:0:
168,160,95327,1,8,0:0:0:0:
160,128,95438,1,0,0:0:0:0:
168,160,95882,1,0,0:0:0:0:
168,160,96327,1,0,0:0:0:0:
168,160,96771,1,8,0:0:0:0:
168,160,97216,1,12,0:0:0:0:
200,136,97660,1,0,0:0:0:0:
200,136,97882,1,8,0:0:0:0:
168,160,98105,1,0,0:0:0:0:
168,160,98216,1,0,0:0:0:0:
168,160,98438,1,8,0:0:0:0:
168,160,98660,1,0,0:0:0:0:
168,160,98882,1,0,0:0:0:0:
200,136,98993,1,0,0:0:0:0:
200,136,99438,1,0,0:0:0:0:
200,136,99660,1,8,0:0:0:0:
168,160,99882,1,8,0:0:0:0:
168,160,99993,1,8,0:0:0:0:
168,160,100216,1,0,0:0:0:0:
168,160,100438,1,8,0:0:0:0:
168,160,100660,1,0,0:0:0:0:
200,136,100771,1,0,0:0:0:0:
272,200,101216,1,0,0:0:0:0:
272,200,101327,1,0,0:0:0:0:
272,200,101438,1,0,0:0:0:0:
272,200,101660,1,8,0:0:0:0:
272,200,101771,1,8,0:0:0:0:
272,200,101882,1,8,0:0:0:0:
88,144,102104,1,8,0:0:0:0:
88,144,102216,1,8,0:0:0:0:
88,144,102327,1,8,0:0:0:0:
88,144,102549,1,0,0:0:0:0:
88,144,102660,1,0,0:0:0:0:
88,144,102771,1,0,0:0:0:0:
88,144,102993,1,8,0:0:0:0:
88,144,103104,1,8,0:0:0:0:
88,144,103216,1,8,0:0:0:0:
272,200,103438,1,4,0:0:0:0:
408,176,103771,1,4,0:0:0:0:
408,176,104104,1,12,0:0:0:0:
328,80,105438,1,12,0:0:0:0:
328,80,105808,1,12,0:0:0:0:
328,80,105956,1,12,0:0:0:0:
328,80,106104,1,12,0:0:0:0:
