osu file format v12

[General]
AudioFilename: sola.mp3
AudioLeadIn: 0
PreviewTime: 34105
Countdown: 0
SampleSet: Normal
StackLeniency: 0.7
Mode: 1
LetterboxInBreaks: 0
WidescreenStoryboard: 0

[Editor]
DistanceSpacing: 0.8
BeatDivisor: 1
GridSize: 8

[Metadata]
Title:sola
TitleUnicode:sola
Artist:Ono Hideyuki
ArtistUnicode:小野秀幸
Creator:Mapper 31
Version:Kantan
Source:jubeat saucer
Tags:Dance Revolution DDR DDR2013 GITADORA Triple_Journey
BeatmapID:330867
BeatmapSetID:131347

[Difficulty]
HPDrainRate:3
CircleSize:2
OverallDifficulty:3
ApproachRate:0
SliderMultiplier:1.4
SliderTickRate:1

[Events]
//Background and Video events
0,0,"travel-the-globe-12468-hd-wallpapers.jpg",0,0
//Break Periods
//Storyboard Layer 0 (Background)
//Storyboard Layer 1 (Fail)
//Storyboard Layer 2 (Pass)
//Storyboard Layer 3 (Foreground)
//Storyboard Sound Samples
//Background Colour Transformations
3,100,163,162,255

[TimingPoints]
2105.64705882353,444.444444444444,4,1,0,80,1,0
34105,-100,4,1,0,80,0,1
48327,-100,4,1,0,80,0,0
90105,444.444444444444,4,1,0,80,1,1
104327,-100,4,1,0,80,0,0

[HitObjects]
144,144,2105,1,0,0:0:0:0:
144,144,2550,1,0,0:0:0:0:
144,144,2994,1,0,0:0:0:0:
176,128,3883,1,0,0:0:0:0:
176,128,4327,1,0,0:0:0:0:
176,128,4772,1,0,0:0:0:0:
288,280,5661,1,0,0:0:0:0:
32,168,6105,1,4,0:0:0:0:
288,280,6550,1,4,0:0:0:0:
72,136,7438,2,4,L|632:144,1,560
280,168,9661,1,4,0:0:0:0:
144,152,10105,1,4,0:0:0:0:
72,136,10994,2,4,L|632:144,1,560
264,144,13216,1,4,0:0:0:0:
264,144,13661,1,4,0:0:0:0:
72,136,14550,2,4,L|632:144,1,560
144,152,16772,1,4,0:0:0:0:
144,152,17216,1,4,0:0:0:0:
80,128,18105,2,4,L|544:112,1,420
224,240,19883,1,4,0:0:0:0:
224,240,20327,1,8,0:0:0:0:
256,224,20772,1,0,0:0:0:0:
256,224,21216,1,8,0:0:0:0:
256,224,21661,1,0,0:0:0:0:
384,152,22550,1,0,0:0:0:0:
160,168,23438,1,0,0:0:0:0:
160,168,23883,1,8,0:0:0:0:
160,168,24327,1,0,0:0:0:0:
160,168,24772,1,8,0:0:0:0:
160,168,25216,1,0,0:0:0:0:
160,168,26105,1,8,0:0:0:0:
160,168,26994,1,4,0:0:0:0:
160,168,27438,1,8,0:0:0:0:
160,168,27883,1,0,0:0:0:0:
160,168,28327,1,8,0:0:0:0:
160,168,28772,1,0,0:0:0:0:
160,168,29661,1,0,0:0:0:0:
264,192,30550,1,4,0:0:0:0:
160,216,31438,1,12,0:0:0:0:
256,192,32327,12,0,33661,0:0:0:0:
304,152,34105,5,4,0:0:0:0:
368,136,34994,1,0,0:0:0:0:
368,136,35438,1,0,0:0:0:0:
368,136,35883,1,8,0:0:0:0:
368,136,36772,1,0,0:0:0:0:
368,136,37216,1,8,0:0:0:0:
368,136,37661,1,0,0:0:0:0:
368,136,38550,1,0,0:0:0:0:
368,136,38994,1,0,0:0:0:0:
368,136,39438,1,8,0:0:0:0:
176,160,40327,1,0,0:0:0:0:
176,160,41216,1,4,0:0:0:0:
368,136,42105,1,8,0:0:0:0:
368,136,42550,1,8,0:0:0:0:
368,136,42994,1,0,0:0:0:0:
368,136,43883,1,8,0:0:0:0:
368,136,44327,1,0,0:0:0:0:
368,136,44772,1,0,0:0:0:0:
328,176,45661,1,0,0:0:0:0:
328,176,46105,1,0,0:0:0:0:
160,184,46550,1,0,0:0:0:0:
160,184,47438,1,12,0:0:0:0:
136,120,48327,2,0,L|592:104,1,420
272,168,50327,1,8,0:0:0:0:
336,144,50994,1,8,0:0:0:0:
336,144,51438,1,8,0:0:0:0:
88,144,51883,2,0,L|560:112,1,420
200,224,53661,1,0,0:0:0:0:
200,224,54105,1,0,0:0:0:0:
200,224,54550,1,8,0:0:0:0:
200,224,55438,1,0,0:0:0:0:
120,160,55883,1,0,0:0:0:0:
176,192,56327,1,0,0:0:0:0:
296,176,57216,1,0,0:0:0:0:
296,176,57661,1,0,0:0:0:0:
224,192,58105,1,8,0:0:0:0:
224,192,58772,1,8,0:0:0:0:
224,192,59661,1,12,0:0:0:0:
176,112,60327,1,8,0:0:0:0:
176,112,60772,1,0,0:0:0:0:
128,224,61661,1,8,0:0:0:0:
24,232,62550,1,4,0:0:0:0:
320,288,62994,1,0,0:0:0:0:
320,288,63438,1,8,0:0:0:0:
320,288,64327,1,0,0:0:0:0:
320,288,64772,1,0,0:0:0:0:
320,288,65216,1,8,0:0:0:0:
320,288,66105,1,0,0:0:0:0:
272,256,66994,1,0,0:0:0:0:
272,256,67883,1,0,0:0:0:0:
272,256,68327,1,0,0:0:0:0:
272,256,68772,1,8,0:0:0:0:
272,256,69661,1,0,0:0:0:0:
272,256,70105,1,8,0:0:0:0:
376,240,70994,1,0,0:0:0:0:
432,160,71438,1,8,0:0:0:0:
360,160,72550,1,12,0:0:0:0:
360,160,73216,1,0,0:0:0:0:
360,160,73661,1,0,0:0:0:0:
360,160,74105,1,0,0:0:0:0:
360,160,74550,1,8,0:0:0:0:
224,144,74994,2,0,L|536:160,1,280
304,200,76772,1,8,0:0:0:0:
240,160,77661,1,8,0:0:0:0:
288,256,77994,1,8,0:0:0:0:
384,136,78327,1,8,0:0:0:0:
240,160,79438,1,8,0:0:0:0:
288,256,79772,1,8,0:0:0:0:
384,136,80105,1,8,0:0:0:0:
240,160,81216,1,8,0:0:0:0:
288,256,81550,1,8,0:0:0:0:
384,136,81883,1,8,0:0:0:0:
304,200,82550,1,8,0:0:0:0:
304,200,82994,1,8,0:0:0:0:
304,200,83438,1,8,0:0:0:0:
304,200,83883,1,8,0:0:0:0:
240,160,84772,1,8,0:0:0:0:
288,256,85105,1,8,0:0:0:0:
384,136,85438,1,8,0:0:0:0:
240,160,86550,1,8,0:0:0:0:
288,256,86883,1,8,0:0:0:0:
384,136,87216,1,8,0:0:0:0:
304,144,88327,1,8,0:0:0:0:
304,144,88883,1,12,0:0:0:0:
304,152,90105,5,4,0:0:0:0:
368,136,90993,1,0,0:0:0:0:
368,136,91438,1,0,0:0:0:0:
368,136,91882,1,8,0:0:0:0:
368,136,92771,1,0,0:0:0:0:
368,136,93216,1,8,0:0:0:0:
368,136,93660,1,0,0:0:0:0:
368,136,94549,1,0,0:0:0:0:
368,136,95438,1,0,0:0:0:0:
200,136,95882,1,0,0:0:0:0:
368,136,96327,1,8,0:0:0:0:
200,136,96771,1,8,0:0:0:0:
368,136,97216,1,4,0:0:0:0:
368,136,98105,1,8,0:0:0:0:
368,136,98549,1,8,0:0:0:0:
368,136,98993,1,0,0:0:0:0:
368,136,99882,1,8,0:0:0:0:
368,136,100327,1,0,0:0:0:0:
256,192,100771,12,0,104104,0:0:0:0:
360,112,105438,5,12,0:0:0:0:
328,120,106104,1,12,0:0:0:0:
