osu file format v12

[General]
AudioFilename: sola.mp3
AudioLeadIn: 0
PreviewTime: 34105
Countdown: 0
SampleSet: Normal
StackLeniency: 0.7
Mode: 1
LetterboxInBreaks: 0
WidescreenStoryboard: 0

[Editor]
DistanceSpacing: 0.8
BeatDivisor: 4
GridSize: 8

[Metadata]
Title:sola
TitleUnicode:sola
Artist:Ono Hideyuki
ArtistUnicode:小野秀幸
Creator:Mapper 31
Version:Futsuu
Source:jubeat saucer
Tags:Dance Revolution DDR DDR2013 GITADORA Triple_Journey
BeatmapID:330866
BeatmapSetID:131347

[Difficulty]
HPDrainRate:4
CircleSize:2
OverallDifficulty:4
ApproachRate:0
SliderMultiplier:1.4
SliderTickRate:1

[Events]
//Background and Video events
0,0,"travel-the-globe-12468-hd-wallpapers.jpg",0,0
//Break Periods
//Storyboard Layer 0 (Background)
//Storyboard Layer 1 (Fail)
//Storyboard Layer 2 (Pass)
//Storyboard Layer 3 (Foreground)
//Storyboard Sound Samples
//Background Colour Transformations
3,100,163,162,255

[TimingPoints]
2105.64705882353,444.444444444444,4,1,0,80,1,0
34105,-100,4,1,0,80,0,1
48327,-100,4,1,0,80,0,0
90105,444.444444444444,4,1,0,80,1,1
104327,-100,4,1,0,80,0,0

[HitObjects]
264,152,2105,1,0,0:0:0:0:
312,144,2550,1,8,0:0:0:0:
312,144,2994,1,0,0:0:0:0:
336,88,3327,1,0,0:0:0:0:
128,160,3550,1,0,0:0:0:0:
336,88,3883,1,0,0:0:0:0:
336,88,4327,1,8,0:0:0:0:
336,88,4772,1,0,0:0:0:0:
336,88,5105,1,0,0:0:0:0:
104,168,5327,1,0,0:0:0:0:
104,168,5661,1,0,0:0:0:0:
336,88,6105,1,8,0:0:0:0:
336,88,6327,1,8,0:0:0:0:
336,88,6550,1,4,0:0:0:0:
336,88,6883,1,4,0:0:0:0:
336,88,7216,1,12,0:0:0:0:
16,88,7438,2,4,L|456:112,1,420
160,128,9216,1,0,0:0:0:0:
336,88,9661,1,8,0:0:0:0:
336,88,9883,1,8,0:0:0:0:
336,88,10105,1,4,0:0:0:0:
336,88,10438,1,4,0:0:0:0:
336,88,10772,1,12,0:0:0:0:
16,88,10994,2,4,L|456:112,1,420
80,168,12772,1,0,0:0:0:0:
336,88,13216,1,8,0:0:0:0:
336,88,13438,1,8,0:0:0:0:
336,88,13661,1,4,0:0:0:0:
336,88,13994,1,4,0:0:0:0:
336,88,14327,1,12,0:0:0:0:
16,88,14550,2,4,L|456:112,1,420
32,160,16327,1,0,0:0:0:0:
336,88,16772,1,8,0:0:0:0:
336,88,16994,1,8,0:0:0:0:
336,88,17216,1,4,0:0:0:0:
336,88,17550,1,4,0:0:0:0:
336,88,17883,1,12,0:0:0:0:
16,88,18105,2,4,L|456:112,1,420
312,120,19883,1,4,0:0:0:0:
312,120,20327,1,8,0:0:0:0:
312,120,20772,1,0,0:0:0:0:
312,120,21216,1,8,0:0:0:0:
384,120,21661,1,0,0:0:0:0:
384,120,22105,1,0,0:0:0:0:
384,120,22550,1,8,0:0:0:0:
384,120,22994,1,8,0:0:0:0:
384,120,23438,1,0,0:0:0:0:
384,120,23883,1,8,0:0:0:0:
384,120,24327,1,0,0:0:0:0:
384,120,24772,1,8,0:0:0:0:
384,120,25216,1,0,0:0:0:0:
384,120,25661,1,0,0:0:0:0:
384,120,26105,1,8,0:0:0:0:
384,120,26550,1,8,0:0:0:0:
384,120,26994,1,4,0:0:0:0:
384,120,27438,1,8,0:0:0:0:
384,120,27883,1,0,0:0:0:0:
384,120,28327,1,8,0:0:0:0:
384,120,28772,1,0,0:0:0:0:
384,120,29216,1,0,0:0:0:0:
384,120,29661,1,8,0:0:0:0:
384,120,30105,1,8,0:0:0:0:
384,120,30550,1,4,0:0:0:0:
320,128,31438,1,12,0:0:0:0:
256,192,32327,12,0,33661,0:0:0:0:
296,176,34105,5,4,0:0:0:0:
272,144,34994,1,0,0:0:0:0:
272,144,35327,1,8,0:0:0:0:
272,144,35550,1,0,0:0:0:0:
272,144,35772,1,0,0:0:0:0:
272,144,36772,1,8,0:0:0:0:
272,144,37105,1,0,0:0:0:0:
272,144,37327,1,8,0:0:0:0:
272,144,37550,1,0,0:0:0:0:
272,144,38550,1,0,0:0:0:0:
272,144,38883,1,0,0:0:0:0:
272,144,39105,1,0,0:0:0:0:
272,144,39327,1,8,0:0:0:0:
272,144,39883,1,0,0:0:0:0:
272,144,40327,1,0,0:0:0:0:
272,144,40772,1,8,0:0:0:0:
272,144,41216,1,12,0:0:0:0:
272,144,42105,1,0,0:0:0:0:
272,144,42438,1,8,0:0:0:0:
272,144,42661,1,0,0:0:0:0:
272,144,42883,1,0,0:0:0:0:
112,128,43883,1,8,0:0:0:0:
272,144,44216,1,0,0:0:0:0:
272,144,44438,1,8,0:0:0:0:
272,144,44661,1,0,0:0:0:0:
272,144,45661,1,0,0:0:0:0:
272,144,45994,1,0,0:0:0:0:
272,144,46216,1,0,0:0:0:0:
352,104,46661,1,8,0:0:0:0:
352,104,47142,1,8,0:0:0:0:
352,104,47290,1,8,0:0:0:0:
216,88,47438,1,8,0:0:0:0:
264,104,48327,1,0,0:0:0:0:
32,176,48550,2,0,L|512:136,1,420
464,48,50327,1,8,0:0:0:0:
464,48,50661,1,0,0:0:0:0:
464,48,50994,1,8,0:0:0:0:
464,48,51438,1,0,0:0:0:0:
248,176,51661,1,0,0:0:0:0:
464,48,51883,1,0,0:0:0:0:
16,144,52327,2,0,L|312:168,1,280
344,176,53661,1,0,0:0:0:0:
400,96,53883,1,0,0:0:0:0:
344,176,54105,1,0,0:0:0:0:
344,176,54550,1,8,0:0:0:0:
400,96,54772,1,8,0:0:0:0:
400,96,54994,1,8,0:0:0:0:
400,96,55438,1,0,0:0:0:0:
400,96,55883,1,0,0:0:0:0:
400,96,56327,1,8,0:0:0:0:
400,96,56772,1,8,0:0:0:0:
400,96,56994,1,8,0:0:0:0:
400,96,57216,1,0,0:0:0:0:
400,96,57661,1,0,0:0:0:0:
400,96,58105,1,8,0:0:0:0:
80,176,58772,1,8,0:0:0:0:
288,168,59661,1,12,0:0:0:0:
80,176,60327,1,8,0:0:0:0:
80,176,60772,1,0,0:0:0:0:
288,128,61216,1,0,0:0:0:0:
288,128,61438,1,8,0:0:0:0:
288,128,61661,1,0,0:0:0:0:
464,40,62105,1,8,0:0:0:0:
480,112,62550,1,4,0:0:0:0:
480,112,62994,1,8,0:0:0:0:
480,112,63438,1,0,0:0:0:0:
480,112,63661,1,0,0:0:0:0:
480,112,63883,1,8,0:0:0:0:
480,112,64327,1,0,0:0:0:0:
480,112,64772,1,8,0:0:0:0:
480,112,65216,1,0,0:0:0:0:
480,112,65438,1,0,0:0:0:0:
480,112,65661,1,8,0:0:0:0:
480,112,66105,1,0,0:0:0:0:
480,112,66327,1,8,0:0:0:0:
480,112,66994,1,0,0:0:0:0:
480,112,67216,1,0,0:0:0:0:
480,112,67438,1,8,0:0:0:0:
480,112,67883,1,0,0:0:0:0:
480,112,68327,1,0,0:0:0:0:
480,112,68772,1,8,0:0:0:0:
480,112,69661,1,0,0:0:0:0:
480,112,69883,1,0,0:0:0:0:
480,112,70105,1,8,0:0:0:0:
480,112,70772,1,0,0:0:0:0:
480,112,70994,1,8,0:0:0:0:
480,112,71438,1,8,0:0:0:0:
480,112,71661,1,0,0:0:0:0:
480,112,72550,1,12,0:0:0:0:
136,184,72994,1,8,0:0:0:0:
480,112,73216,1,0,0:0:0:0:
480,112,73661,1,8,0:0:0:0:
480,112,74105,1,0,0:0:0:0:
480,112,74327,1,0,0:0:0:0:
480,112,74550,1,8,0:0:0:0:
152,136,74994,2,0,L|472:128,1,280
344,112,76772,1,8,0:0:0:0:
344,112,77661,1,8,0:0:0:0:
344,112,77994,1,8,0:0:0:0:
344,112,78327,1,8,0:0:0:0:
344,112,79438,1,8,0:0:0:0:
344,112,79772,1,8,0:0:0:0:
344,112,80105,1,8,0:0:0:0:
344,112,81216,1,8,0:0:0:0:
344,112,81550,1,8,0:0:0:0:
344,112,81883,1,8,0:0:0:0:
344,112,82994,1,8,0:0:0:0:
344,112,83327,1,8,0:0:0:0:
344,112,83661,1,8,0:0:0:0:
160,112,84105,1,8,0:0:0:0:
160,112,84327,1,8,0:0:0:0:
344,112,84772,1,8,0:0:0:0:
344,112,85105,1,8,0:0:0:0:
344,112,85438,1,8,0:0:0:0:
160,112,85883,1,8,0:0:0:0:
160,112,86105,1,8,0:0:0:0:
344,112,86550,1,8,0:0:0:0:
344,112,86883,1,8,0:0:0:0:
344,112,87216,1,8,0:0:0:0:
160,112,87661,1,8,0:0:0:0:
160,112,87883,1,8,0:0:0:0:
344,112,88327,1,8,0:0:0:0:
160,112,88661,1,12,0:0:0:0:
160,112,88883,1,12,0:0:0:0:
296,176,90105,5,4,0:0:0:0:
168,192,90549,1,8,0:0:0:0:
272,144,90993,1,0,0:0:0:0:
272,144,91327,1,8,0:0:0:0:
272,144,91549,1,0,0:0:0:0:
272,144,91771,1,0,0:0:0:0:
216,192,92327,1,8,0:0:0:0:
272,144,92771,1,8,0:0:0:0:
272,144,93105,1,0,0:0:0:0:
272,144,93327,1,8,0:0:0:0:
272,144,93549,1,0,0:0:0:0:
216,192,94105,1,8,0:0:0:0:
272,144,94549,1,0,0:0:0:0:
272,144,94882,1,0,0:0:0:0:
272,144,95105,1,0,0:0:0:0:
272,144,95327,1,8,0:0:0:0:
272,144,95882,1,0,0:0:0:0:
272,144,96327,1,0,0:0:0:0:
272,144,96771,1,8,0:0:0:0:
272,144,97216,1,12,0:0:0:0:
120,152,97660,1,8,0:0:0:0:
272,144,98105,1,0,0:0:0:0:
272,144,98438,1,8,0:0:0:0:
272,144,98660,1,0,0:0:0:0:
272,144,98882,1,0,0:0:0:0:
120,152,99438,1,8,0:0:0:0:
272,144,99882,1,8,0:0:0:0:
272,144,100216,1,0,0:0:0:0:
272,144,100438,1,8,0:0:0:0:
272,144,100660,1,0,0:0:0:0:
256,192,101216,12,0,102993,0:0:0:0:
192,192,103438,5,4,0:0:0:0:
192,192,103771,1,4,0:0:0:0:
192,192,104104,1,12,0:0:0:0:
368,112,105438,1,12,0:0:0:0:
368,112,105808,1,12,0:0:0:0:
368,112,105956,1,12,0:0:0:0:
368,112,106104,1,12,0:0:0:0:
