osu file format v4

[General]
AudioFilename: 01 - Maggaare Spectacle.mp3
AudioLeadIn: 0
AudioHash: e32f88f6f9250394aba75371599ed7ea
PreviewTime: -1
Countdown: 0
SampleSet: Normal
EditorBookmarks: 17307,95741,122337,164341

[Metadata]
Title:Maggaare Spectacle
Artist:Ono Daisuke
Creator:Terrapin
Version:Easy

[Difficulty]
HPDrainRate:3
CircleSize:5
OverallDifficulty:5
SliderMultiplier: 0.6
SliderTickRate: 1

[Events]
//Background and Video events
0,-100000,"koizumi.jpg"
//Break Periods
2,44941,57141
2,83341,95941
2,149741,165741
//Storyboard Layer 0 (Background)
//Storyboard Layer 1 (Failing)
//Storyboard Layer 2 (Passing)
//Storyboard Layer 3 (Foreground)
//Storyboard Sound Samples
//Background Colour Transformations
3,100,163,162,255

[TimingPoints]
18310,400,4,1,0,100

[HitObjects]
176,48,18710,2,0,B|176:48|176:208,1,150
176,304,20510,1,0
336,304,21510,2,2,B|336:304|336:32,1,240
256,64,25110,5,0
160,192,26110,1,0
160,304,26910,1,0
288,304,27910,2,2,B|288:304|416:304|416:128,1,240
128,240,31110,6,2,B|128:240|256:272|336:160,1,210
384,112,33110,1,0
176,176,34310,6,0,B|176:176|176:240|272:240,1,120
368,240,35710,1,0
368,144,36310,1,0
112,64,37510,6,0,B|112:64|102:158|176:176,1,120
240,208,38910,1,0
432,320,40710,6,0,B|432:320|362:305|368:240,1,90
368,176,42110,2,2,B|368:176|273:20|94:214|32:32,1,390
208,32,58310,5,2
208,144,59110,1,0
208,224,59710,1,0
288,352,60710,2,2,B|288:352|352:320|368:240,1,120
336,144,62310,5,0
272,96,62910,2,2,B|272:96|224:128|176:96,1,90
80,112,64710,5,2
80,176,65110,1,2
80,240,65510,1,2
160,304,66110,1,0
304,304,67110,1,0
384,192,67910,5,2
288,160,68510,1,0
160,128,69310,2,2,B|160:128|64:160|32:240,1,150
96,304,71510,5,0
160,304,71910,1,0
224,304,72310,1,0
288,304,72710,2,2,B|288:304|384:208,1,120
384,112,74310,1,0
160,112,75910,6,2,B|160:112|224:192,1,90
288,288,77910,5,0
336,240,78310,1,0
288,192,78710,1,0
336,144,79110,2,2,B|336:144|288:80|208:80,1,120
128,80,80710,1,0
128,288,82310,1,2
128,288,83110,1,2
112,192,97110,5,0
160,240,97510,1,0
272,240,98110,1,0
336,240,98510,1,0
400,240,98910,1,0
400,128,99510,1,0
400,64,99910,2,2,B|400:64|144:64,1,240
160,144,101910,6,0,B|160:144|96:208,2,60
352,160,103510,5,0
352,224,103910,1,0
272,304,104510,1,0
224,256,104910,1,0
176,304,105310,1,0
80,192,106310,1,2
80,128,106710,1,2
80,128,106910,1,2
256,192,108310,5,0
256,192,108710,1,0
256,192,109110,1,0
256,272,109510,5,0
320,272,109910,1,0
368,224,110310,1,0
368,128,110910,1,0
368,64,111310,1,0
368,64,111510,1,0
224,64,112310,1,0
160,64,112710,1,0
96,64,113110,1,0
96,128,113510,1,0
96,224,114110,1,0
96,288,114510,1,0
96,288,114710,1,0
224,192,115910,6,0,B|224:192|304:192,2,60
208,96,117310,1,0
304,96,117910,1,0
432,272,119110,6,0,B|432:272|432:128|257:128|256:319|64:320|64:160,1,480
112,128,122710,1,0
112,128,123110,1,0
320,32,123910,5,2
256,32,124310,1,2
192,32,124710,1,2
256,128,125310,1,0
288,224,125910,1,0
224,240,126310,1,0
400,288,127510,5,0
352,240,127910,1,2
352,240,128110,1,2
288,176,128510,2,2,B|288:176|208:96,1,90
96,112,130310,5,0
144,64,130710,1,0
192,112,131110,1,0
288,112,131710,1,0
384,112,132310,1,0
384,112,132710,1,0
384,256,133510,1,0
320,256,133910,1,0
256,256,134310,1,0
192,256,134710,1,2
192,256,134910,1,2
352,128,136710,6,2,B|352:128|432:128,2,60
256,128,138110,1,2
160,128,138710,2,2,B|160:128|96:128,1,60
144,272,140310,5,0
208,272,140710,1,0
304,272,141310,1,0
368,272,141710,1,2
368,272,141910,1,2
384,64,143110,5,0
336,112,143510,1,0
352,176,143910,1,0
304,224,144310,1,0
192,192,145110,1,0
192,192,145510,1,0
256,64,146310,5,0
320,64,146710,1,0
384,64,147110,1,0
384,192,147710,2,2,B|384:192|257:237|112:192,1,270
256,96,167110,5,0
320,96,167510,1,0
384,96,167910,1,0
448,192,168510,1,0
352,192,169110,1,0
288,192,169510,1,0
160,240,170710,5,0
112,192,171110,1,2
112,192,171310,1,2
160,128,171710,1,0
112,80,172110,1,2
112,80,172310,1,2
368,144,173510,5,0
416,192,173910,1,0
416,256,174310,1,0
368,304,174710,1,0
304,304,175110,1,0
256,256,175510,1,0
256,192,175910,1,2
144,192,176710,1,0
80,192,177110,1,0
80,128,177510,1,0
176,80,178110,2,2,B|176:80|336:80,1,150
400,192,179910,5,0
368,256,180310,1,0
320,208,180710,1,0
192,256,181310,1,0
128,192,181910,1,0
128,192,182110,1,0
128,192,182310,1,0
256,112,183510,5,0
256,48,183910,1,0
256,48,184110,1,0
336,48,184510,1,0
432,48,185110,2,2,B|432:48|432:128|384:176,1,120
336,192,186310,5,0
272,192,186710,1,0
208,192,187110,1,0
112,192,187710,1,0
160,272,188310,1,0
160,272,188710,1,0
256,272,189510,1,2
320,272,189910,1,0
320,208,190310,1,2
320,144,190710,1,2
320,144,190910,1,2
144,240,192710,5,2
192,192,193110,1,2
256,128,193510,1,2
256,128,193710,1,2
256,128,193910,1,2
256,128,194110,1,2
256,192,195910,12,4,198910
