osu file format v12

[General]
AudioFilename: 01 Lunar Maria.mp3
AudioLeadIn: 0
PreviewTime: 62995
Countdown: 0
SampleSet: Soft
StackLeniency: 0.7
Mode: 0
LetterboxInBreaks: 1
WidescreenStoryboard: 1

[Editor]
Bookmarks: 25936
DistanceSpacing: 0.5
BeatDivisor: 4
GridSize: 8

[Metadata]
Title:Lunar Maria
TitleUnicode:Lunar Maria
Artist:Ono Daisuke
ArtistUnicode:小野大輔
Creator:MizukoAoki
Version:Insane
Source:Kamigami no Asobi
Tags:kamigami no itazura seiyuu otome game broccoli
BeatmapID:342417
BeatmapSetID:136900

[Difficulty]
HPDrainRate:7
CircleSize:4
OverallDifficulty:7
ApproachRate:8
SliderMultiplier:1.7
SliderTickRate:1

[Events]
//Background and Video events
0,0,"OW5yfzH.jpg",0,0
//Break Periods
2,8542,12886
2,59717,60753
2,82658,83473
2,87951,88766
2,96774,97589
//Storyboard Layer 0 (Background)
//Storyboard Layer 1 (Fail)
//Storyboard Layer 2 (Pass)
//Storyboard Layer 3 (Foreground)
//Storyboard Sound Samples
//Background Colour Transformations
3,100,163,162,255

[TimingPoints]
1283.53485498929,441.176470588235,4,2,1,100,1,0
48489,-200,4,2,1,100,0,0
50585,-100,4,2,1,100,0,0
55107,-200,4,2,1,100,0,0
62607,-100,4,2,1,100,0,0
63047,441.176470588235,4,2,1,100,1,1
69995,-100,4,2,1,100,0,0
70105,-100,4,2,1,100,0,1
73083,-100,4,2,1,100,0,0
73194,-100,4,2,1,100,0,1
73524,-100,4,2,1,100,0,0
73635,-100,4,2,1,100,0,1
98339,441.176470588235,4,2,1,100,1,0

[Colours]
Combo1 : 234,181,21
Combo2 : 196,0,5

[HitObjects]
112,144,1283,1,8,0:0:0:0:
176,120,1504,1,8,0:0:0:0:
176,120,1614,1,0,0:0:0:0:
176,120,1724,2,0,P|192:168|240:176,1,85,0|8,0:0|0:0,0:0:0:0:
256,56,3048,6,0,L|256:152,1,85,8|2,0:0|0:0,0:0:0:0:
256,144,3379,1,0,0:0:0:0:
256,144,3489,2,0,L|144:104,1,85,0|2,0:0|0:0,0:0:0:0:
256,144,3820,1,0,0:0:0:0:
256,144,3930,2,0,L|200:227,1,85,0|2,0:0|0:0,0:0:0:0:
256,144,4261,1,0,0:0:0:0:
256,144,4371,2,0,L|336:211,1,85,0|2,0:0|0:0,0:0:0:0:
256,144,4702,1,0,0:0:0:0:
256,144,4812,2,0,L|376:147,1,85,0|10,0:0|0:0,0:0:0:0:
344,144,5143,5,0,0:0:0:0:
344,144,5254,1,0,0:0:0:0:
448,144,5474,1,8,0:0:0:0:
120,280,6577,5,8,0:0:0:0:
120,184,6798,1,0,0:0:0:0:
120,184,6908,1,0,0:0:0:0:
120,184,7018,2,2,P|104:120|192:104,1,170,2|10,0:0|0:0,0:0:0:0:
208,128,7570,1,0,0:0:0:0:
232,152,7680,1,0,0:0:0:0:
256,176,7790,1,0,0:0:0:0:
280,200,7901,1,8,0:0:0:0:
304,224,8011,1,0,0:0:0:0:
328,248,8121,1,0,0:0:0:0:
352,272,8231,1,0,0:0:0:0:
376,296,8342,1,12,0:0:0:0:
152,264,13636,5,14,0:0:0:0:
256,48,14077,1,14,0:0:0:0:
376,256,14518,1,14,0:0:0:0:
112,112,14959,1,14,0:0:0:0:
392,104,15400,1,14,0:0:0:0:
328,144,15621,1,2,0:0:0:0:
264,176,15842,1,2,0:0:0:0:
200,208,16062,1,2,0:0:0:0:
176,144,16283,1,8,0:0:0:0:
144,160,16393,1,0,0:0:0:0:
128,192,16503,1,0,0:0:0:0:
128,224,16614,1,0,0:0:0:0:
144,248,16724,1,8,0:0:0:0:
176,264,16834,1,0,0:0:0:0:
208,264,16945,1,0,0:0:0:0:
240,248,17055,1,0,0:0:0:0:
256,224,17165,1,14,0:0:0:0:
96,120,17386,6,0,L|56:168,2,42.5
128,72,17827,2,0,P|272:80|304:168,1,255,0|8,0:0|0:0,0:0:0:0:
184,168,18930,1,0,0:0:0:0:
184,168,19150,2,0,L|128:216,2,42.5
224,112,19592,2,0,P|376:144|400:224,1,255,0|8,0:0|0:0,0:0:0:0:
400,224,20364,2,0,L|352:232,2,42.5
400,272,20695,5,0,0:0:0:0:
400,224,20915,2,0,L|449:200,2,42.5
360,152,21356,2,0,P|224:144|168:256,1,255,0|8,0:0|0:0,0:0:0:0:
264,224,22459,1,0,0:0:0:0:
264,224,22680,2,0,L|304:272,2,42.5
200,160,23121,2,0,P|88:184|80:320,1,255,0|8,0:0|0:0,0:0:0:0:
408,136,24114,6,0,L|352:96,1,42.5,0|8,0:0|0:0,0:0:0:0:
304,48,24555,1,8,0:0:0:0:
216,72,24886,1,8,0:0:0:0:
272,152,25106,2,0,L|336:224,1,85,0|4,0:0|0:0,0:0:0:0:
232,224,25547,2,0,L|168:288,1,85,0|4,0:0|0:0,0:0:0:0:
256,320,25988,5,14,0:0:0:0:
256,320,26319,1,8,0:0:0:0:
256,320,26650,1,8,0:0:0:0:
256,256,26871,2,0,P|232:144|264:256,1,340,0|14,0:0|0:0,0:0:0:0:
256,56,28635,1,14,0:0:0:0:
120,272,29518,1,14,0:0:0:0:
240,248,29738,2,0,L|296:240,1,42.5
256,184,30069,2,0,L|280:144,1,42.5
320,208,30400,2,0,L|368:224,3,42.5
312,152,30841,2,0,L|352:128,4,42.5,0|0|0|0|12,0:0|0:0|0:0|0:0|0:0,0:0:0:0:
208,104,32165,6,0,P|184:80|160:88,1,42.5
168,112,32385,2,0,P|128:128|112:120,1,42.5
112,88,32606,1,0,0:0:0:0:
112,88,32827,1,0,0:0:0:0:
56,256,33047,1,6,0:0:0:0:
56,256,33930,6,0,L|112:296,1,42.5
144,272,34150,1,0,0:0:0:0:
144,272,34260,1,0,0:0:0:0:
144,216,34371,2,0,L|208:256,1,42.5
240,272,34591,1,0,0:0:0:0:
240,272,34702,1,0,0:0:0:0:
408,112,34812,1,12,0:0:0:0:
408,112,35694,6,0,L|368:96,3,42.5
408,112,36135,2,0,L|384:168,3,42.5
192,288,36577,5,12,0:0:0:0:
192,288,37459,6,0,P|144:256|168:216,1,85
208,184,37900,1,0,0:0:0:0:
248,192,38010,1,0,0:0:0:0:
256,232,38121,1,0,0:0:0:0:
400,72,38341,6,0,L|296:72,1,85,2|0,0:0|0:0,0:0:0:0:
72,120,38782,6,0,L|176:120,1,85,2|0,0:0|0:0,0:0:0:0:
400,184,39224,6,0,L|288:184,1,85,2|0,0:0|0:0,0:0:0:0:
315,184,39554,1,0,0:0:0:0:
315,184,39665,2,0,L|224:184,1,85,2|0,0:0|0:0,0:0:0:0:
104,272,40106,6,0,L|224:272,1,85,2|0,0:0|0:0,0:0:0:0:
392,232,40547,6,0,L|304:232,1,85,2|0,0:0|0:0,0:0:0:0:
104,152,40988,5,12,0:0:0:0:
392,152,41429,1,12,0:0:0:0:
192,72,41871,6,0,P|256:96|272:128,1,85
256,128,42201,1,0,0:0:0:0:
248,144,42312,2,0,P|304:192|328:200,1,85
312,192,42753,6,0,P|248:216|232:248,1,85
248,248,43083,1,0,0:0:0:0:
256,264,43194,2,0,P|200:312|176:320,1,85
256,64,43635,5,2,0:0:0:0:
256,80,43966,1,2,0:0:0:0:
256,96,44297,1,2,0:0:0:0:
256,112,44518,1,2,0:0:0:0:
200,184,44959,5,0,0:0:0:0:
224,216,45069,1,0,0:0:0:0:
264,232,45179,1,0,0:0:0:0:
304,216,45290,1,0,0:0:0:0:
320,184,45400,1,14,0:0:0:0:
256,64,46944,6,0,L|256:112,2,42.5
256,144,48709,5,0,0:0:0:0:
160,176,48929,2,0,P|256:240|360:160,1,255
368,72,50473,1,0,0:0:0:0:
160,288,50694,2,4,P|224:304|328:264,1,170
232,160,51576,2,4,P|312:120|408:144,1,170
80,128,52459,5,14,0:0:0:0:
456,288,54003,5,14,0:0:0:0:
456,288,54223,1,14,0:0:0:0:
256,48,55767,5,14,0:0:0:0:
256,48,55988,2,0,P|224:64|208:96,1,63.75
210,87,56650,1,0,0:0:0:0:
264,104,56870,2,0,P|288:136|288:168,1,63.75
288,160,57532,1,0,0:0:0:0:
232,176,57753,2,0,P|216:216|224:240,1,63.75
224,232,58414,1,0,0:0:0:0:
272,232,58635,2,0,B|296:272|264:296|248:296,1,63.75
272,288,59297,1,0,0:0:0:0:
256,48,59517,1,14,0:0:0:0:
256,192,61503,5,8,0:0:0:0:
256,192,61833,1,8,0:0:0:0:
256,192,62164,1,8,0:0:0:0:
192,128,62385,1,2,0:0:0:0:
160,152,62495,1,2,0:0:0:0:
152,192,62605,1,2,0:0:0:0:
256,192,62826,1,4,0:0:0:0:
256,192,63046,1,14,0:0:0:0:
368,120,63378,1,8,0:0:0:0:
360,256,63708,1,8,0:0:0:0:
120,192,64150,6,0,L|32:192,2,85
192,160,64811,2,0,P|248:152|272:168,1,85
224,216,65142,2,0,P|256:232|320:216,1,85
328,168,65473,1,12,0:0:0:0:
416,208,65804,1,2,0:0:0:0:
440,168,65915,1,2,0:0:0:0:
392,64,66135,1,8,0:0:0:0:
392,64,66356,1,8,0:0:0:0:
248,88,66576,6,0,P|224:96|160:80,1,85
248,88,66907,2,0,P|272:104|376:72,1,127.5
224,168,67458,2,0,B|224:216|224:216|192:272,1,85
288,200,67899,2,0,B|288:256|288:256|320:312,1,85
384,184,68341,1,2,0:0:0:0:
112,80,68672,1,2,0:0:0:0:
416,80,69002,1,2,0:0:0:0:
416,80,69222,1,2,0:0:0:0:
112,80,69554,1,2,0:0:0:0:
252,232,69885,1,2,0:0:0:0:
112,208,70105,6,0,P|176:224|208:216,1,85
200,168,70436,2,0,P|256:176|312:200,1,85
320,200,70767,1,6,0:0:0:0:
424,256,71208,2,0,P|464:208|480:160,2,85
368,288,71870,2,0,P|224:320|96:32,1,510,0|12,0:0|0:0,0:0:0:0:
256,64,73635,6,0,P|216:80|200:128,1,85,0|8,0:0|0:0,0:0:0:0:
248,136,73966,2,0,P|256:184|200:232,1,127.5,8|8,0:0|0:0,0:0:0:0:
144,256,74738,2,4,P|232:288|328:264,1,170
360,224,75399,1,8,0:0:0:0:
336,120,75620,1,0,0:0:0:0:
304,96,75730,1,0,0:0:0:0:
264,96,75841,1,0,0:0:0:0:
240,208,76061,1,0,0:0:0:0:
240,208,76282,1,8,0:0:0:0:
160,280,76502,1,0,0:0:0:0:
192,312,76613,1,0,0:0:0:0:
248,312,76723,1,0,0:0:0:0:
240,208,76943,1,8,0:0:0:0:
240,208,77164,6,0,L|160:144,1,85,8|0,0:0|0:0,0:0:0:0:
192,96,77495,2,0,L|296:136,1,85
336,152,77826,1,14,0:0:0:0:
328,232,78267,2,0,P|312:296|272:296,2,85
416,192,78929,1,12,0:0:0:0:
256,192,79150,1,2,0:0:0:0:
256,192,79260,1,2,0:0:0:0:
120,192,79480,1,2,0:0:0:0:
120,192,79590,1,2,0:0:0:0:
176,72,80032,5,2,0:0:0:0:
224,72,80142,1,2,0:0:0:0:
272,72,80252,1,2,0:0:0:0:
392,72,80473,1,8,0:0:0:0:
256,272,80693,6,0,L|128:272,2,127.5
256,272,81576,1,0,0:0:0:0:
256,272,82017,1,0,0:0:0:0:
256,272,82458,1,14,0:0:0:0:
424,192,84223,5,14,0:0:0:0:
56,192,85105,2,14,L|192:192,2,127.5
456,192,85988,1,14,0:0:0:0:
456,192,86869,2,14,L|320:192,2,127.5
56,192,87751,1,14,0:0:0:0:
256,192,89516,5,4,0:0:0:0:
256,192,89846,1,4,0:0:0:0:
256,192,90177,1,4,0:0:0:0:
256,192,91060,1,2,0:0:0:0:
256,192,91280,1,14,0:0:0:0:
144,216,93707,5,4,0:0:0:0:
208,96,93927,1,4,0:0:0:0:
352,96,94148,1,2,0:0:0:0:
376,128,94258,1,2,0:0:0:0:
208,96,94590,1,2,0:0:0:0:
144,216,94810,1,14,0:0:0:0:
96,168,96133,2,0,P|120:120|184:104,2,85,4|4|4,0:0|0:0|0:0,0:0:0:0:
256,56,98339,5,14,0:0:0:0:
80,296,99221,1,14,0:0:0:0:
416,184,100103,1,14,0:0:0:0:
88,184,100986,1,14,0:0:0:0:
424,304,101427,1,14,0:0:0:0:
256,48,101868,1,14,0:0:0:0:
144,160,102309,1,14,0:0:0:0:
176,136,102530,1,14,0:0:0:0:
368,144,102971,1,14,0:0:0:0:
256,192,103412,12,4,107162,0:0:0:0:
