osu file format v12

[General]
AudioFilename: 01 Lunar Maria.mp3
AudioLeadIn: 0
PreviewTime: 62995
Countdown: 0
SampleSet: Soft
StackLeniency: 0.7
Mode: 0
LetterboxInBreaks: 1
WidescreenStoryboard: 1

[Editor]
Bookmarks: 25936
DistanceSpacing: 1
BeatDivisor: 4
GridSize: 4

[Metadata]
Title:Lunar Maria
TitleUnicode:Lunar Maria
Artist:Ono Daisuke
ArtistUnicode:小野大輔
Creator:MizukoAoki
Version:Hard
Source:Kamigami no Asobi
Tags:kamigami no itazura seiyuu otome game broccoli
BeatmapID:342418
BeatmapSetID:136900

[Difficulty]
HPDrainRate:6
CircleSize:4
OverallDifficulty:6
ApproachRate:7
SliderMultiplier:1.4
SliderTickRate:1

[Events]
//Background and Video events
0,0,"kamigami-cs-vol-02.jpg",0,0
//Break Periods
2,8542,12736
//Storyboard Layer 0 (Background)
//Storyboard Layer 1 (Fail)
//Storyboard Layer 2 (Pass)
//Storyboard Layer 3 (Foreground)
//Storyboard Sound Samples
//Background Colour Transformations
3,100,163,162,255

[TimingPoints]
1283.53485498929,441.176470588235,4,2,1,100,1,0
55107,-200,4,2,1,100,0,0
62607,-100,4,2,1,100,0,0
63047,441.176470588235,4,2,1,100,1,1
69995,-100,4,2,1,100,0,0
70105,-100,4,2,1,100,0,1
73083,-100,4,2,1,100,0,0
73194,-100,4,2,1,100,0,1
73524,-100,4,2,1,100,0,0
73635,-100,4,2,1,100,0,1
98339,441.176470588235,4,2,1,100,1,0

[Colours]
Combo1 : 0,115,255
Combo2 : 158,128,221

[HitObjects]
144,192,1283,1,0,0:0:0:0:
200,192,1504,2,0,L|240:192,2,35
144,192,1945,1,4,0:0:0:0:
256,88,3048,5,0,0:0:0:0:
208,128,3268,2,0,L|176:160,2,35
256,136,3709,2,0,L|256:176,2,35
304,128,4151,2,0,L|336:160,2,35
256,88,4592,2,0,L|256:40,2,35
256,128,5033,6,0,L|256:176,2,35,0|0|0,0:0|0:0|0:0,0:0:0:0:
256,216,5474,1,4,0:0:0:0:
384,192,6577,5,0,0:0:0:0:
346,191,6798,2,0,B|336:160|144:96|24:8|56:352|232:248,1,490,0|4,0:0|0:0,0:0:0:0:
256,112,13636,6,2,P|176:96|120:136,1,140
256,112,14518,2,2,P|240:192|280:248,1,140,2|2,0:0|0:0,0:0:0:0:
256,112,15400,2,2,P|336:128|392:88,1,140,2|6,0:0|0:0,0:0:0:0:
256,112,16283,1,2,0:0:0:0:
256,112,16724,1,2,0:0:0:0:
256,112,17165,1,12,0:0:0:0:
256,264,18489,1,2,0:0:0:0:
256,264,18930,1,12,0:0:0:0:
256,80,20253,1,2,0:0:0:0:
256,80,20694,1,12,0:0:0:0:
120,192,22018,1,2,0:0:0:0:
120,192,22459,1,12,0:0:0:0:
400,192,23341,1,2,0:0:0:0:
400,192,23782,1,12,0:0:0:0:
400,192,24224,5,12,0:0:0:0:
348,152,24555,2,0,P|324:200|356:232,1,105,2|8,0:0|0:0,0:0:0:0:
304,280,25107,2,0,P|256:256|256:240,3,70,0|4|0|4,0:0|0:0|0:0|0:0,0:0:0:0:
240,160,25988,2,0,P|200:176|176:232,1,105,2|8,0:0|0:0,0:0:0:0:
200,296,26651,2,0,P|160:296|120:264,1,70,2|8,0:0|0:0,0:0:0:0:
112,212,27312,2,0,P|112:124|160:100,1,140,2|12,0:0|0:0,0:0:0:0:
408,312,28635,5,12,0:0:0:0:
256,64,29518,5,12,0:0:0:0:
120,272,30400,5,12,0:0:0:0:
120,272,30841,1,4,0:0:0:0:
232,192,31283,6,0,P|256:176|296:200,1,70,2|0,0:0|0:0,0:0:0:0:
291,190,31613,2,0,P|280:248|224:264,1,105
172,256,32165,2,0,P|176:304|236:332,1,105
320,304,32827,1,0,0:0:0:0:
256,112,33047,6,0,P|224:88|152:112,1,105,6|0,0:0|0:0,0:0:0:0:
196,160,33709,2,0,P|236:184|280:184,1,70
432,256,34371,1,12,0:0:0:0:
352,192,34812,5,2,0:0:0:0:
288,168,35032,2,0,P|224:176|200:248,1,140
260,272,35694,2,0,P|212:312|140:272,1,140
232,88,36577,1,10,0:0:0:0:
360,280,36907,1,0,0:0:0:0:
96,272,37238,1,0,0:0:0:0:
344,128,37459,1,0,0:0:0:0:
168,160,37900,2,0,L|128:128,2,35
144,224,38341,6,0,P|192:240|232:224,1,70,2|0,0:0|0:0,0:0:0:0:
209,236,38782,2,0,P|240:184|264:176,1,70,2|4,0:0|0:0,0:0:0:0:
328,120,39224,6,0,P|384:160|384:176,1,70,2|0,0:0|0:0,0:0:0:0:
384,152,39665,2,0,P|408:200|384:216,1,70,2|4,0:0|0:0,0:0:0:0:
256,48,40106,6,0,P|200:56|184:80,1,70,2|0,0:0|0:0,0:0:0:0:
256,120,40547,6,0,P|312:128|328:152,1,70,2|0,0:0|0:0,0:0:0:0:
256,184,40988,6,0,P|200:192|184:216,1,70,2|0,0:0|0:0,0:0:0:0:
256,256,41429,6,0,P|312:264|328:288,1,70,2|0,0:0|0:0,0:0:0:0:
416,160,41871,6,0,P|432:208|416:256,1,70,2|0,0:0|0:0,0:0:0:0:
429,226,42312,1,4,0:0:0:0:
256,192,42532,1,2,0:0:0:0:
96,160,42753,6,0,P|80:208|96:256,1,70,2|0,0:0|0:0,0:0:0:0:
82,226,43194,1,4,0:0:0:0:
256,192,43415,1,2,0:0:0:0:
208,112,43635,6,0,P|256:88|288:104,1,70,2|0,0:0|0:0,0:0:0:0:
269,91,43966,1,0,0:0:0:0:
269,91,44076,1,4,0:0:0:0:
256,192,44297,1,8,0:0:0:0:
256,192,44518,1,4,0:0:0:0:
256,304,44959,2,0,L|296:304,4,35,0|0|0|0|14,0:0|0:0|0:0|0:0|0:0,0:0:0:0:
256,64,46944,6,0,L|216:64,2,35,0|0|14,0:0|0:0|0:0,0:0:0:0:
256,320,48709,6,0,L|292:320,2,35,0|0|14,0:0|0:0|0:0,0:0:0:0:
256,248,49150,1,0,0:0:0:0:
200,108,49370,2,0,P|176:136|184:176,1,70,0|0,0:0|0:0,0:0:0:0:
284,136,49812,2,0,P|297:185|287:198,1,70,0|0,0:0|0:0,0:0:0:0:
232,240,50142,2,0,P|214:241|164:180,1,105,0|0,0:0|0:0,0:0:0:0:
256,56,50694,1,4,0:0:0:0:
328,320,51135,1,4,0:0:0:0:
256,56,51576,1,4,0:0:0:0:
184,312,52017,1,4,0:0:0:0:
256,192,52459,5,6,0:0:0:0:
256,192,54003,2,0,L|208:192,2,35,0|0|6,0:0|0:0|0:0,0:0:0:0:
256,192,55767,2,0,L|280:192,2,17.5,0|0|6,0:0|0:0|0:0,0:0:0:0:
256,128,56430,2,8,P|184:192|256:256,1,210,0|4,0:0|0:0,0:0:0:0:
256,192,59517,1,14,0:0:0:0:
240,192,61503,2,4,P|256:176|288:192,2,52.5
176,192,62385,2,0,L|152:192,2,17.5
312,192,62826,1,0,0:0:0:0:
312,192,62936,1,0,0:0:0:0:
312,192,63047,5,12,0:0:0:0:
176,192,63377,1,10,0:0:0:0:
268,144,63708,2,0,P|316:152|364:248,1,140,12|2,0:0|0:0,0:0:0:0:
432,224,64370,2,0,P|400:272|376:264,1,70,10|0,0:0|0:0,0:0:0:0:
216,28,64811,6,0,B|208:72|224:96|208:96|224:108|208:116|224:116|208:124|224:124|208:132|224:132|208:140|224:140|208:148|224:148|208:156|224:184|208:184|216:264,1,210
280,320,65914,1,0,0:0:0:0:
280,320,66024,1,0,0:0:0:0:
280,320,66135,2,0,P|256:328|216:304,1,70
256,48,66576,5,2,0:0:0:0:
256,88,67458,1,2,0:0:0:0:
256,120,68341,1,4,0:0:0:0:
256,48,68671,1,4,0:0:0:0:
256,120,69002,1,4,0:0:0:0:
256,88,69223,1,4,0:0:0:0:
256,160,69554,1,4,0:0:0:0:
256,120,69885,1,4,0:0:0:0:
216,240,70105,6,0,P|240:280|280:288,1,70,2|4,0:0|0:0,0:0:0:0:
256,288,70436,2,0,P|313:271|320:248,1,70,2|4,0:0|0:0,0:0:0:0:
326,233,70767,1,12,0:0:0:0:
256,72,71207,5,2,0:0:0:0:
256,176,71429,1,10,0:0:0:0:
256,264,71649,1,2,0:0:0:0:
192,80,71870,6,0,P|120:192|224:288,1,280,14|14,0:0|0:0,0:0:0:0:
384,192,73193,1,14,0:0:0:0:
256,264,73635,6,0,B|256:224|256:224|224:184,1,70,10|0,0:0|0:0,0:0:0:0:
304,56,73966,2,0,B|304:120|304:120|264:168,1,105,0|10,0:0|0:0,0:0:0:0:
352,72,74736,2,0,P|376:160|344:224,1,140,0|4,0:0|0:0,0:0:0:0:
240,192,75399,6,0,L|368:192,2,105,4|0|4,0:0|0:0|0:0,0:0:0:0:
216,248,76282,2,0,P|176:184|208:128,1,140,0|12,0:0|0:0,0:0:0:0:
136,288,77163,6,0,B|96:240|160:216|120:208,1,70,8|0,0:0|0:0,0:0:0:0:
128,160,77495,2,0,B|168:208|104:232|144:240,1,70,8|0,0:0|0:0,0:0:0:0:
168,224,77825,2,0,B|205:176|213:176|213:232|253:232|309:184,1,140,4|2,0:0|0:0,0:0:0:0:
320,192,78486,5,0,0:0:0:0:
320,192,78708,1,0,0:0:0:0:
256,72,78928,5,6,0:0:0:0:
192,136,79148,1,0,0:0:0:0:
192,136,79258,1,0,0:0:0:0:
320,144,79479,1,0,0:0:0:0:
320,144,79589,1,0,0:0:0:0:
256,296,80030,5,2,0:0:0:0:
256,296,80141,1,2,0:0:0:0:
256,296,80251,1,2,0:0:0:0:
256,296,80473,1,12,0:0:0:0:
200,304,80694,2,0,P|256:240|320:320,1,210,12|14,0:0|0:0,0:0:0:0:
384,320,81576,2,0,P|264:128|128:336,1,560,14|14,0:0|0:0,0:0:0:0:
124,328,83782,1,14,0:0:0:0:
136,112,84222,6,2,B|160:80|200:120|96:232|144:296|248:192|296:248|224:304,1,280
424,252,85435,1,2,0:0:0:0:
248,96,85766,1,2,0:0:0:0:
376,112,85986,6,2,B|352:80|312:120|416:232|368:296|264:192|216:248|288:304,1,280
108,272,87199,1,2,0:0:0:0:
264,96,87530,1,2,0:0:0:0:
256,192,87751,12,14,89516,0:0:0:0:
256,192,89846,5,14,0:0:0:0:
256,192,90177,5,14,0:0:0:0:
256,320,91282,6,10,P|256:40|272:320,1,840
296,316,94811,6,10,P|251:40|256:320,1,840
256,320,97899,1,10,0:0:0:0:
176,192,98339,6,8,P|136:104|288:24,1,280,8|12,0:0|0:0,0:0:0:0:
176,192,100103,6,8,P|228:309|354:280,1,280,10|12,0:0|0:0,0:0:0:0:
316,216,101427,5,0,0:0:0:0:
256,64,101868,5,6,0:0:0:0:
184,168,102088,1,6,0:0:0:0:
328,168,102309,1,6,0:0:0:0:
208,264,102530,6,0,P|256:304|312:248,1,140
256,192,103412,12,6,107162,0:0:0:0:
