osu file format v12

[General]
AudioFilename: 01 Lunar Maria.mp3
AudioLeadIn: 0
PreviewTime: 62995
Countdown: 0
SampleSet: Soft
StackLeniency: 0.7
Mode: 0
LetterboxInBreaks: 1
WidescreenStoryboard: 1

[Editor]
Bookmarks: 25936
DistanceSpacing: 0.5
BeatDivisor: 4
GridSize: 8

[Metadata]
Title:Lunar Maria
TitleUnicode:Lunar Maria
Artist:Ono Daisuke
ArtistUnicode:小野大輔
Creator:MizukoAoki
Version:Forbidden Love
Source:Kamigami no Asobi
Tags:kamigami no itazura seiyuu otome game broccoli
BeatmapID:342416
BeatmapSetID:136900

[Difficulty]
HPDrainRate:6
CircleSize:3
OverallDifficulty:7
ApproachRate:9
SliderMultiplier:1.6
SliderTickRate:1

[Events]
//Background and Video events
0,0,"0515_W01_1920-1200.jpg",0,0
//Break Periods
2,8542,13036
//Storyboard Layer 0 (Background)
//Storyboard Layer 1 (Fail)
//Storyboard Layer 2 (Pass)
//Storyboard Layer 3 (Foreground)
//Storyboard Sound Samples
//Background Colour Transformations
3,100,163,162,255

[TimingPoints]
1283.53485498929,441.176470588235,4,2,1,100,1,0
43636,-200,4,2,1,100,0,0
52018,-66.6666666666667,4,2,1,100,0,0
55107,-200,4,2,1,100,0,0
61283,-66.6666666666667,4,2,1,100,0,0
62607,-100,4,2,1,100,0,0
63047,441.176470588235,4,2,1,100,1,1
64811,-66.6666666666667,4,2,1,100,0,1
66907,-100,4,2,1,100,0,1
67458,-66.6666666666667,4,2,1,100,0,1
69995,-100,4,2,1,100,0,0
70105,-100,4,2,1,100,0,1
73083,-100,4,2,1,100,0,0
73194,-100,4,2,1,100,0,1
73524,-100,4,2,1,100,0,0
73635,-100,4,2,1,100,0,1
98339,441.176470588235,4,2,1,100,1,0

[Colours]
Combo1 : 0,255,255
Combo2 : 58,31,116
Combo3 : 234,181,21
Combo4 : 226,7,128

[HitObjects]
136,152,1173,2,0,L|168:112,1,45
168,184,1504,2,0,L|264:144,2,80
464,176,3048,6,0,P|424:136|392:128,1,80
370,185,3379,1,0,0:0:0:0:
370,185,3489,2,0,P|320:224|328:256,1,80
319,233,3820,1,0,0:0:0:0:
319,233,3930,2,0,P|320:304|296:304,1,80
330,297,4261,1,0,0:0:0:0:
330,297,4371,2,0,P|272:312|256:304,1,80
257,304,4702,1,0,0:0:0:0:
257,304,4812,2,0,P|224:264|208:272,2,80
336,72,5474,5,12,0:0:0:0:
96,184,6577,6,0,P|120:224|176:240,1,80
148,238,6908,1,0,0:0:0:0:
148,238,7018,1,0,0:0:0:0:
248,240,7239,2,0,P|272:208|272:192,2,40
216,288,7570,2,0,P|200:304|176:296,2,40
272,288,7901,1,0,0:0:0:0:
272,288,8012,1,0,0:0:0:0:
272,288,8122,1,0,0:0:0:0:
272,288,8232,2,0,L|320:296,1,40,0|14,0:0|0:0,0:0:0:0:
256,56,13636,6,0,B|216:48|192:72|168:48,1,80
177,54,13967,1,0,0:0:0:0:
256,112,14077,6,0,B|296:104|320:128|344:104,1,80
334,110,14408,1,0,0:0:0:0:
256,168,14518,6,0,B|216:160|192:184|168:160,1,80
177,166,14849,1,0,0:0:0:0:
256,216,14959,6,0,B|296:208|320:232|344:208,1,80
334,214,15290,1,0,0:0:0:0:
184,208,15400,6,10,P|200:264|240:272,1,80
120,152,15842,2,10,P|152:112|200:112,1,80
288,152,16283,2,0,P|304:168|304:192,1,40
288,208,16503,2,0,P|280:224|256:232,1,40
232,216,16724,2,0,P|208:208|200:192,1,40
200,152,16945,2,0,P|200:136|232:120,1,40
424,120,17165,1,12,0:0:0:0:
424,192,17386,6,0,B|416:240|376:248|360:248,1,80
288,248,17827,1,0,0:0:0:0:
256,248,17937,1,0,0:0:0:0:
224,248,18047,1,0,0:0:0:0:
104,240,18268,2,0,P|72:200|88:160,1,80
40,296,18709,1,0,0:0:0:0:
256,80,18930,6,0,B|280:88|312:72|304:48|336:72,1,80
176,64,19371,2,0,P|152:112|184:120,1,80
216,120,19702,1,0,0:0:0:0:
208,160,19812,1,0,0:0:0:0:
248,200,20033,1,0,0:0:0:0:
296,208,20143,1,0,0:0:0:0:
272,248,20253,1,0,0:0:0:0:
288,304,20474,1,8,0:0:0:0:
344,320,20584,1,0,0:0:0:0:
368,288,20694,6,0,B|368:248|416:264|384:208|432:208,1,80
406,219,21025,1,0,0:0:0:0:
406,219,21136,1,0,0:0:0:0:
240,256,21355,1,0,0:0:0:0:
200,248,21466,2,0,L|144:240,1,40
80,192,21797,2,0,P|72:136|104:128,1,80
312,232,22239,5,8,0:0:0:0:
224,144,22459,6,0,P|264:216|264:224,1,80
160,96,22790,2,0,P|208:88|224:104,1,40
392,160,23121,2,0,L|424:192,2,40
344,120,23452,2,0,L|312:96,2,40
400,96,23783,1,8,0:0:0:0:
336,184,24003,1,8,0:0:0:0:
168,280,24224,6,0,P|120:256|112:232,1,80
112,233,24555,1,0,0:0:0:0:
112,233,24665,1,0,0:0:0:0:
312,256,24886,2,0,P|296:280|240:272,1,80
360,96,25327,2,0,P|408:104|440:152,1,80
315,221,25768,2,0,P|308:203|312:184,2,40
224,96,26319,2,0,B|200:80|176:80|168:88,1,40
304,160,26650,1,0,0:0:0:0:
240,192,26871,2,0,L|80:256,1,160
408,72,27753,5,14,0:0:0:0:
424,168,27974,1,0,0:0:0:0:
448,208,28084,1,0,0:0:0:0:
424,240,28194,1,0,0:0:0:0:
280,296,28415,1,2,0:0:0:0:
408,72,28635,5,14,0:0:0:0:
288,152,28856,1,0,0:0:0:0:
256,192,28966,1,0,0:0:0:0:
208,192,29076,1,0,0:0:0:0:
64,144,29297,1,2,0:0:0:0:
408,72,29518,5,14,0:0:0:0:
248,56,29738,1,8,0:0:0:0:
208,96,29849,1,8,0:0:0:0:
264,232,30069,1,8,0:0:0:0:
208,208,30180,1,8,0:0:0:0:
128,152,30400,2,0,L|80:152,3,40
200,152,30841,2,0,L|248:152,3,40
416,152,31283,5,14,0:0:0:0:
96,208,32165,6,0,L|96:272,1,40
368,112,32385,2,0,L|368:48,1,40
96,136,32606,5,0,0:0:0:0:
368,192,32827,1,0,0:0:0:0:
256,192,33047,5,12,0:0:0:0:
144,112,33930,6,0,P|152:80|176:80,1,40
256,168,34150,2,0,P|280:144|264:112,1,40
224,64,34371,2,0,P|256:64|272:88,1,40
160,184,34591,2,0,P|192:200|216:192,1,40
208,136,34812,1,14,0:0:0:0:
440,264,35694,6,0,L|368:240,1,40
496,232,35915,2,0,L|472:184,1,40
440,208,36135,1,0,0:0:0:0:
400,168,36246,1,0,0:0:0:0:
352,208,36356,1,0,0:0:0:0:
384,248,36466,1,0,0:0:0:0:
256,112,36577,1,14,0:0:0:0:
400,240,37459,6,0,P|368:280|320:264,1,80
342,279,37790,1,0,0:0:0:0:
342,279,37900,2,0,P|304:312|288:312,1,40
256,64,38341,5,14,0:0:0:0:
176,120,38562,1,0,0:0:0:0:
128,144,38672,1,0,0:0:0:0:
88,168,38782,1,0,0:0:0:0:
0,216,39003,1,2,0:0:0:0:
256,64,39224,5,14,0:0:0:0:
256,144,39445,1,0,0:0:0:0:
256,200,39555,1,0,0:0:0:0:
256,256,39665,1,0,0:0:0:0:
256,344,39886,1,2,0:0:0:0:
256,64,40106,5,14,0:0:0:0:
328,128,40327,1,0,0:0:0:0:
368,168,40437,1,0,0:0:0:0:
408,200,40547,1,14,0:0:0:0:
488,248,40768,1,0,0:0:0:0:
440,216,40878,1,0,0:0:0:0:
384,184,40988,1,14,0:0:0:0:
80,192,41429,1,8,0:0:0:0:
264,72,41871,6,0,L|208:136,1,80,4|0,0:0|0:0,0:0:0:0:
264,72,42201,1,0,0:0:0:0:
264,72,42312,2,0,L|320:136,1,80
264,312,42753,6,0,L|208:248,1,80,4|0,0:0|0:0,0:0:0:0:
264,312,43083,1,0,0:0:0:0:
264,312,43194,2,0,L|320:248,1,80
216,184,43636,6,0,B|216:200|216:200|224:184|224:184|224:200|224:200|232:184|232:184|232:200|232:200|240:184|240:184|240:200|240:200|248:184|248:184|248:200|248:200|256:184|256:184|256:200|256:200|264:184|264:184|264:200|264:200|272:184|272:184|272:200|272:200|280:184|280:184|280:200|280:200|288:184|288:184|288:200|288:200|296:184|296:184|296:184|296:184|296:184|296:184|296:184|296:184|296:184,1,320,0|12,0:0|0:0,0:0:0:0:
376,184,46062,1,12,0:0:0:0:
136,192,46944,2,0,L|112:192,2,20,0|0|12,0:0|0:0|0:0,0:0:0:0:
376,184,47826,1,12,0:0:0:0:
256,56,48709,1,12,0:0:0:0:
262,160,48929,2,0,B|264:152|264:152|248:152|248:152|264:160|264:160|248:160|248:160|264:168|264:168|248:168|248:168|264:176|264:176|248:176|248:176|264:184|264:184|248:184|248:184|264:192|264:192|248:192|248:192|264:200|264:200|248:200|248:200|264:208|264:208|248:208|248:208|264:216|264:216|248:216|248:216|264:224|264:224|248:224|248:224|264:232|264:232|264:232|264:232|264:232|264:232|264:232|264:232|248:224,1,320,0|12,0:0|0:0,0:0:0:0:
96,288,51135,1,12,0:0:0:0:
408,64,51576,1,12,0:0:0:0:
96,288,52018,2,0,L|144:232,3,60.0000022888184
216,144,52459,5,14,0:0:0:0:
424,288,54003,2,14,P|448:224|408:200,1,120.000004577637
112,96,55767,5,0,0:0:0:0:
144,136,55988,2,2,B|256:88|256:248|376:184,1,240
360,192,57532,1,2,0:0:0:0:
359,192,57753,2,2,B|256:136|256:296|144:248,1,240
152,248,59297,1,2,0:0:0:0:
256,48,59517,5,14,0:0:0:0:
200,144,61503,2,0,P|256:192|352:104,2,180.000006866455
272,72,62385,1,2,0:0:0:0:
272,72,62495,1,2,0:0:0:0:
272,72,62605,1,2,0:0:0:0:
272,72,62826,1,2,0:0:0:0:
88,184,63047,6,0,P|136:232|208:240,1,120
185,242,63488,2,0,P|232:256|280:232,1,80
256,248,64150,1,0,0:0:0:0:
352,48,64370,1,0,0:0:0:0:
232,120,64591,1,0,0:0:0:0:
72,272,64811,6,0,L|200:272,1,120.000004577637
432,216,65142,2,0,L|296:216,1,120.000004577637
72,152,65473,2,0,L|320:152,1,240.000009155274
312,152,66025,1,0,0:0:0:0:
312,152,66135,1,0,0:0:0:0:
312,152,66355,1,2,0:0:0:0:
208,80,66576,6,0,P|136:96|128:160,1,120.000004577637
237,256,66907,2,0,P|179:262|136:224,1,120.000004577637
306,206,67458,2,0,P|327:153|288:112,1,120.000004577637
393,104,67899,2,0,P|338:83|288:112,1,120.000004577637
288,111,68341,1,10,0:0:0:0:
96,152,68672,1,10,0:0:0:0:
320,304,69002,1,10,0:0:0:0:
320,48,69223,1,10,0:0:0:0:
128,272,69554,1,10,0:0:0:0:
192,88,69885,1,10,0:0:0:0:
88,112,70105,6,8,L|192:192,2,120
288,192,71207,1,0,0:0:0:0:
240,192,71318,1,0,0:0:0:0:
200,192,71428,1,0,0:0:0:0:
416,192,71649,1,8,0:0:0:0:
96,120,71869,6,0,P|272:64|408:96,1,320,0|8,0:0|0:0,0:0:0:0:
184,160,72972,1,0,0:0:0:0:
240,152,73082,1,0,0:0:0:0:
272,192,73193,1,0,0:0:0:0:
344,48,73413,1,12,0:0:0:0:
88,184,73634,6,0,L|160:112,1,80
144,127,73964,1,8,0:0:0:0:
368,152,74295,2,0,P|400:192|328:288,1,160,0|4,0:0|0:0,0:0:0:0:
288,160,75178,2,0,P|272:112|224:96,1,80,0|4,0:0|0:0,0:0:0:0:
192,176,75619,1,0,0:0:0:0:
160,144,75729,1,0,0:0:0:0:
168,96,75839,1,0,0:0:0:0:
328,104,76060,1,12,0:0:0:0:
16,176,76281,5,4,0:0:0:0:
192,176,76501,1,0,0:0:0:0:
224,216,76611,1,0,0:0:0:0:
192,264,76722,1,0,0:0:0:0:
392,208,76942,1,12,0:0:0:0:
408,136,77163,6,0,P|424:80|392:56,1,80
320,168,77494,2,0,P|264:160|232:136,1,80
248,32,77825,2,0,P|304:64|352:152,1,160
360,240,78486,1,8,0:0:0:0:
256,288,78707,1,8,0:0:0:0:
104,144,78928,6,0,L|192:104,1,80
208,168,79258,2,0,L|288:240,1,80
224,256,79589,2,0,P|128:256|80:184,1,160
88,212,80141,1,0,0:0:0:0:
88,212,80251,1,8,0:0:0:0:
312,80,80472,1,8,0:0:0:0:
256,56,80692,5,14,0:0:0:0:
256,64,81575,1,14,0:0:0:0:
256,72,82016,1,0,0:0:0:0:
256,80,82457,1,14,0:0:0:0:
256,96,82788,1,0,0:0:0:0:
256,112,83119,1,0,0:0:0:0:
256,120,83229,1,0,0:0:0:0:
256,128,83339,1,0,0:0:0:0:
256,136,83780,1,14,0:0:0:0:
256,144,84222,5,14,0:0:0:0:
256,152,85104,1,14,0:0:0:0:
120,312,85435,1,14,0:0:0:0:
392,320,85766,1,14,0:0:0:0:
256,160,85986,1,14,0:0:0:0:
256,168,86869,5,14,0:0:0:0:
392,320,87200,1,14,0:0:0:0:
120,312,87531,1,14,0:0:0:0:
256,176,87751,1,14,0:0:0:0:
208,80,87971,5,0,0:0:0:0:
160,88,88082,1,0,0:0:0:0:
160,136,88192,1,0,0:0:0:0:
352,136,88413,1,0,0:0:0:0:
352,88,88523,1,0,0:0:0:0:
304,80,88634,1,0,0:0:0:0:
208,232,88854,1,0,0:0:0:0:
248,272,88965,1,0,0:0:0:0:
288,232,89075,1,0,0:0:0:0:
256,160,89295,1,12,0:0:0:0:
176,192,89516,6,8,L|96:256,1,80
336,192,89846,2,8,L|432:256,1,80
256,96,90177,2,0,L|256:0,1,80,8|12,0:0|0:0,0:0:0:0:
160,80,91280,6,0,P|88:192|224:296,1,320
208,144,92383,1,0,0:0:0:0:
168,192,92493,1,0,0:0:0:0:
200,240,92604,1,0,0:0:0:0:
352,192,92824,2,0,L|264:192,1,80,0|2,0:0|0:0,0:0:0:0:
72,192,93376,1,2,0:0:0:0:
352,192,93707,1,0,0:0:0:0:
352,80,94810,6,0,P|421:209|304:298,1,320
304,144,95913,1,0,0:0:0:0:
344,192,96023,1,0,0:0:0:0:
312,240,96134,1,0,0:0:0:0:
160,192,96354,2,0,L|240:192,1,80,0|2,0:0|0:0,0:0:0:0:
440,192,96906,1,2,0:0:0:0:
160,192,97237,1,0,0:0:0:0:
440,192,97567,1,2,0:0:0:0:
440,192,97898,1,2,0:0:0:0:
440,192,98118,1,2,0:0:0:0:
240,72,98339,2,0,L|336:112,1,80
313,102,98669,1,0,0:0:0:0:
265,217,99001,5,0,0:0:0:0:
265,217,99221,2,0,L|191:247,1,80
192,248,99551,1,0,0:0:0:0:
96,136,99883,5,0,0:0:0:0:
96,136,100103,2,0,L|184:120,1,80,0|8,0:0|0:0,0:0:0:0:
176,120,100434,1,8,0:0:0:0:
265,217,100655,1,8,0:0:0:0:
265,217,100765,5,8,0:0:0:0:
265,217,100985,2,0,L|191:247,1,80
312,280,101427,6,0,L|336:184,1,80
345,161,101868,6,0,L|384:232,1,80
312,96,102309,1,0,0:0:0:0:
456,120,102530,5,14,0:0:0:0:
96,264,102971,5,14,0:0:0:0:
216,48,103412,5,14,0:0:0:0:
