osu file format v12

[General]
AudioFilename: 01 Lunar Maria.mp3
AudioLeadIn: 0
PreviewTime: 62995
Countdown: 0
SampleSet: Soft
StackLeniency: 0.7
Mode: 0
LetterboxInBreaks: 1
WidescreenStoryboard: 1

[Editor]
Bookmarks: 25936
DistanceSpacing: 0.8
BeatDivisor: 4
GridSize: 4

[Metadata]
Title:Lunar Maria
TitleUnicode:Lunar Maria
Artist:Ono Daisuke
ArtistUnicode:小野大輔
Creator:MizukoAoki
Version:Easy
Source:Kamigami no Asobi
Tags:kamigami no itazura seiyuu otome game broccoli
BeatmapID:342415
BeatmapSetID:136900

[Difficulty]
HPDrainRate:3
CircleSize:2
OverallDifficulty:3
ApproachRate:4
SliderMultiplier:0.7
SliderTickRate:1

[Events]
//Background and Video events
0,0,"Kamigami+no+Itazura+Character+Song+4.jpg",0,0
//Break Periods
2,8541,12316
2,17365,29963
//Storyboard Layer 0 (Background)
//Storyboard Layer 1 (Fail)
//Storyboard Layer 2 (Pass)
//Storyboard Layer 3 (Foreground)
//Storyboard Sound Samples
//Background Colour Transformations
3,100,253,165,0

[TimingPoints]
1283.53485498929,441.176470588235,4,2,1,100,1,0
55107,-200,4,2,1,100,0,0
62607,-100,4,2,1,100,0,0
63047,441.176470588235,4,2,1,100,1,1
69995,-100,4,2,1,100,0,0
70105,-100,4,2,1,100,0,1
73083,-100,4,2,1,100,0,0
73194,-100,4,2,1,100,0,1
73524,-100,4,2,1,100,0,0
73635,-100,4,2,1,100,0,1
98339,441.176470588235,4,2,1,100,1,0

[Colours]
Combo1 : 85,240,249
Combo2 : 187,79,6

[HitObjects]
256,80,1283,2,0,L|176:160,1,105,0|12,0:0|0:0,0:0:0:0:
304,224,3048,6,0,L|352:280,4,70,0|0|0|0|4,0:0|0:0|0:0|0:0|0:0,0:0:0:0:
252,156,5474,1,4,0:0:0:0:
144,248,6577,6,8,B|200:296|200:296|256:360|312:296|312:296|368:248,1,280,8|14,0:0|0:0,0:0:0:0:
240,136,13636,6,0,P|200:200|240:240,1,140
336,192,15401,6,0,P|376:256|336:296,1,140,0|8,0:0|0:0,0:0:0:0:
296,284,16724,1,2,0:0:0:0:
264,260,17165,1,2,0:0:0:0:
192,128,31283,6,0,P|104:192|216:280,1,280,0|14,0:0|0:0,0:0:0:0:
280,232,33930,5,0,0:0:0:0:
272,192,34371,1,0,0:0:0:0:
240,168,34812,1,4,0:0:0:0:
168,92,35695,2,0,P|133:92|109:116,2,70,0|0|14,0:0|0:0|0:0,0:0:0:0:
212,152,37460,6,0,B|204:188|204:188|236:224|292:244,1,140
312,144,39224,1,0,0:0:0:0:
352,152,39665,1,0,0:0:0:0:
364,184,40107,5,4,0:0:0:0:
256,204,40989,6,14,B|256:252|256:252|256:260|240:268|240:268|240:276|240:276|256:284|256:292|256:292|256:340,1,140,4|14,0:0|0:0,0:0:0:0:
352,296,42754,6,0,P|408:272|416:200,1,140,2|4,0:0|0:0,0:0:0:0:
384,120,44518,6,0,P|336:72|272:88,1,140,0|14,0:0|0:0,0:0:0:0:
120,192,46945,1,4,0:0:0:0:
336,248,48710,1,4,0:0:0:0:
316,132,50474,2,0,L|292:165,1,35,0|8,0:0|0:0,0:0:0:0:
236,184,51136,2,0,L|164:140,1,70
148,108,52018,1,8,0:0:0:0:
104,128,52460,1,4,0:0:0:0:
152,256,54224,5,4,0:0:0:0:
416,120,55989,6,0,P|404:148|372:172,1,70
316,164,57754,6,0,P|286:179|264:216,1,70
248,264,59518,1,14,0:0:0:0:
256,156,61504,2,0,L|224:156,2,26.25
160,192,63047,6,0,L|96:192,2,52.5
192,144,64149,1,0,0:0:0:0:
216,128,64370,1,0,0:0:0:0:
240,112,64591,1,0,0:0:0:0:
264,96,64811,2,0,P|312:72|368:80,1,105,0|12,0:0|0:0,0:0:0:0:
248,240,66576,6,0,P|216:224|200:200,2,52.5
280,256,67458,1,0,0:0:0:0:
328,268,67899,1,0,0:0:0:0:
372,256,68341,1,12,0:0:0:0:
312,120,70105,6,0,B|368:192|256:288|144:192|216:112,1,280,0|14,0:0|0:0,0:0:0:0:
256,112,73634,6,0,B|416:216|112:224|256:320,1,280,0|12,0:0|0:0,0:0:0:0:
224,328,77163,6,0,B|252:306|252:306|252:202,1,140,0|4,0:0|0:0,0:0:0:0:
352,152,78928,6,0,B|374:181|374:181|478:181,1,140,0|4,0:0|0:0,0:0:0:0:
416,88,80692,5,2,0:0:0:0:
304,72,81575,1,2,0:0:0:0:
248,88,82016,1,0,0:0:0:0:
208,128,82457,1,12,0:0:0:0:
319,241,84222,6,0,P|267:280|216:240,1,140,0|12,0:0|0:0,0:0:0:0:
216,145,85986,6,0,P|267:105|320:144,1,140,0|12,0:0|0:0,0:0:0:0:
280,212,87751,1,0,0:0:0:0:
224,212,88192,1,0,0:0:0:0:
192,164,88633,1,0,0:0:0:0:
220,116,89075,1,0,0:0:0:0:
276,104,89516,2,0,P|300:88|324:88,2,52.5,0|0|6,0:0|0:0|0:0,0:0:0:0:
256,192,91280,12,14,93045,0:0:0:0:
256,192,94810,12,14,96574,0:0:0:0:
256,40,98339,5,8,0:0:0:0:
168,112,99221,1,8,0:0:0:0:
200,216,100103,1,8,0:0:0:0:
312,216,100986,1,8,0:0:0:0:
344,168,101427,1,8,0:0:0:0:
336,112,101868,1,8,0:0:0:0:
272,164,102530,1,0,0:0:0:0:
224,196,102971,1,0,0:0:0:0:
248,244,103412,1,14,0:0:0:0:
