osu file format v12

[General]
AudioFilename: This Silence Is Mine.mp3
AudioLeadIn: 0
PreviewTime: 68312
Countdown: 0
SampleSet: Soft
StackLeniency: 0.7
Mode: 0
LetterboxInBreaks: 0
WidescreenStoryboard: 1

[Editor]
Bookmarks: 20232,142159,221777,296001
DistanceSpacing: 1.2
BeatDivisor: 4
GridSize: 4

[Metadata]
Title:This Silence Is Mine
TitleUnicode:あなたとSciencE
Artist:Onitsuka Chihiro
ArtistUnicode:鬼束ちひろ
Creator:wantuole
Version:Silence
Source:Drag-on Dragoon3
Tags:Access Games Square-enix
BeatmapID:348080
BeatmapSetID:138574

[Difficulty]
HPDrainRate:6
CircleSize:4
OverallDifficulty:7
ApproachRate:8
SliderMultiplier:1.4
SliderTickRate:1

[Events]
//Background and Video events
0,0,"bg (2).jpg",0,0
//Break Periods
2,97355,147559
2,155432,295251
//Storyboard Layer 0 (Background)
//Storyboard Layer 1 (Fail)
//Storyboard Layer 2 (Pass)
//Storyboard Layer 3 (Foreground)
//Storyboard Sound Samples
//Background Colour Transformations
3,100,163,162,255

[TimingPoints]
6771,384.615384615385,4,2,0,20,1,0
8309,-100,4,2,0,15,0,0
9848,-100,4,2,0,10,0,0
11386,-100,4,2,0,5,0,0
12925,-100,4,2,0,20,0,0
14463,-133.333333333333,4,2,0,15,0,0
16002,-200,4,2,0,10,0,0
17540,-200,4,2,0,5,0,0
19079,-200,4,2,0,20,0,0
63694,-200,4,2,0,5,0,0
68309,-133.333333333333,4,2,0,20,0,0
296001,-100,4,1,0,40,0,0
363694,-100,4,1,0,40,0,1
419078,-100,4,1,0,40,0,0

[Colours]
Combo1 : 255,207,64
Combo2 : 255,128,64
Combo3 : 128,128,191
Combo4 : 64,159,255

[HitObjects]
72,208,6771,1,0,0:0:0:0:
72,208,7156,1,0,0:0:0:0:
224,160,7540,1,0,0:0:0:0:
200,80,7925,1,0,0:0:0:0:
323,226,8310,5,0,0:0:0:0:
323,226,8694,1,0,0:0:0:0:
420,54,9079,1,0,0:0:0:0:
438,134,9463,1,0,0:0:0:0:
171,204,9848,5,0,0:0:0:0:
171,204,10232,1,0,0:0:0:0:
91,140,10617,1,0,0:0:0:0:
33,203,11001,1,0,0:0:0:0:
305,290,11386,5,0,0:0:0:0:
305,290,11770,1,0,0:0:0:0:
409,235,12155,1,0,0:0:0:0:
441,275,12539,1,0,0:0:0:0:
232,343,12925,6,0,P|176:351|88:311,1,140
137,155,13694,1,0,0:0:0:0:
216,161,14078,1,0,0:0:0:0:
327,39,14463,6,0,B|382:38|382:38|396:45|396:45|444:45,1,105.000004005432
483,144,15232,1,0,0:0:0:0:
434,142,15617,1,0,0:0:0:0:
117,224,16002,6,0,L|128:297,1,70
312,236,16771,1,0,0:0:0:0:
303,277,17155,1,0,0:0:0:0:
206,337,17540,5,0,0:0:0:0:
206,337,17925,1,0,0:0:0:0:
400,288,18309,1,0,0:0:0:0:
407,306,18694,1,0,0:0:0:0:
78,127,19079,6,0,L|71:202,1,70
246,110,19848,1,0,0:0:0:0:
335,114,20232,1,0,0:0:0:0:
159,131,20617,2,0,L|161:47,1,70
247,144,21386,1,0,0:0:0:0:
335,134,21770,1,0,0:0:0:0:
458,137,22156,6,0,L|454:209,1,70
399,333,22925,2,0,P|363:295|359:201,2,140
487,330,24848,1,0,0:0:0:0:
396,88,25233,6,0,L|317:80,1,70
171,225,26002,1,0,0:0:0:0:
173,305,26387,1,0,0:0:0:0:
256,123,26771,2,0,L|251:198,1,70
74,220,27540,1,0,0:0:0:0:
64,144,27925,1,0,0:0:0:0:
220,36,28310,6,0,L|296:21,1,70,0|0,0:0|0:0,0:0:0:0:
148,112,29079,2,0,L|224:97,1,70,0|0,0:0|0:0,0:0:0:0:
224,280,29848,2,0,P|248:224|244:172,1,105
402,162,30617,2,0,L|323:184,1,70
476,116,31387,6,0,P|488:173|482:195,1,70
306,320,32156,1,0,0:0:0:0:
352,200,32541,1,0,0:0:0:0:
451,341,32925,2,0,P|439:284|445:262,1,70
365,153,33694,1,0,0:0:0:0:
252,260,34079,1,0,0:0:0:0:
84,219,34463,6,0,P|135:195|235:195,1,157.5
343,155,35618,1,0,0:0:0:0:
343,155,35810,1,0,0:0:0:0:
343,155,36002,2,0,P|353:104|331:9,1,140
236,26,37156,1,0,0:0:0:0:
165,84,37541,6,0,P|164:112|175:165,1,70,0|0,0:0|0:0,0:0:0:0:
251,198,38310,2,0,P|260:247|256:273,1,70
254,276,38791,1,0,0:0:0:0:
248,284,38887,1,0,0:0:0:0:
170,332,39079,2,0,L|88:342,1,70
304,255,39848,2,0,L|377:264,1,70
235,168,40618,6,0,P|275:171|349:179,1,105
375,210,41387,1,0,0:0:0:0:
389,87,41772,1,0,0:0:0:0:
240,211,42156,2,0,L|246:133,1,70
172,30,42924,2,0,L|179:111,1,70
99,163,43695,6,0,P|88:232|107:315,1,140
195,315,44847,1,0,0:0:0:0:
195,315,45040,1,0,0:0:0:0:
195,315,45232,6,0,B|273:307|273:307|305:323,1,105
330,254,46001,2,0,L|403:287,1,70
456,136,46771,6,0,P|469:68|454:25,1,105
380,96,47541,2,0,B|292:53|276:128|169:77,1,210
40,176,48982,2,0,L|131:155,1,87.5
488,36,51001,5,0,0:0:0:0:
364,179,51386,2,0,P|362:216|381:281,1,105
424,88,52636,6,0,L|389:80,1,35
316,98,52924,2,0,P|289:120|272:169,1,87.5
285,255,53694,1,0,0:0:0:0:
266,339,54078,1,0,0:0:0:0:
174,349,54463,1,0,0:0:0:0:
175,349,54944,2,0,P|152:292|168:196,1,157.5
47,94,56001,6,0,L|48:164,1,70
20,56,56771,1,0,0:0:0:0:
180,160,57155,1,0,0:0:0:0:
279,117,57347,1,0,0:0:0:0:
279,117,57540,6,0,L|393:121,1,105
432,56,58309,1,0,0:0:0:0:
512,201,58694,1,0,0:0:0:0:
388,308,58886,1,0,0:0:0:0:
389,309,59078,6,0,P|350:315|313:312,1,70
221,217,59655,2,0,L|147:222,1,70
224,304,60424,1,0,0:0:0:0:
80,272,60617,6,0,P|72:210|88:169,1,105
120,56,61578,2,0,L|168:40,1,35
264,72,61963,1,0,0:0:0:0:
264,72,62155,6,0,P|306:75|338:68,1,70
387,153,62924,2,0,P|433:133|448:113,1,70
196,123,63694,2,0,P|221:146|268:154,1,70
389,153,64463,2,0,P|435:153|462:164,1,70
420,327,65232,5,0,0:0:0:0:
502,334,65617,1,0,0:0:0:0:
383,241,66001,2,0,L|305:248,1,70
256,192,66771,12,0,68309,0:0:0:0:
256,192,68694,5,0,0:0:0:0:
256,192,68886,1,0,0:0:0:0:
480,72,69463,2,0,L|488:144,1,52.5000020027161
396,84,69847,6,0,L|412:208,1,105.000004005432
356,260,70424,1,0,0:0:0:0:
356,260,70617,2,0,L|368:332,1,52.5000020027161
284,312,71001,2,0,L|296:380,1,52.5000020027161
276,228,71386,1,0,0:0:0:0:
52,80,72540,2,0,L|48:152,1,52.5000020027161
132,104,72924,6,0,P|188:108|252:104,1,105.000004005432
148,196,73694,1,0,0:0:0:0:
380,56,74463,2,0,P|432:48|500:64,1,105.000004005432
420,168,75232,1,0,0:0:0:0:
272,56,75617,1,0,0:0:0:0:
256,116,75809,1,0,0:0:0:0:
236,176,76001,6,0,L|256:284,1,105.000004005432
128,176,76771,2,0,L|136:64,1,105.000004005432
140,48,77540,5,0,0:0:0:0:
52,212,77924,1,0,0:0:0:0:
84,292,78117,1,0,0:0:0:0:
168,336,78309,2,0,P|176:280|124:208,1,131.25000500679
164,96,79174,1,0,0:0:0:0:
304,136,79559,1,0,0:0:0:0:
320,144,79751,2,0,P|384:152|448:136,1,131.25000500679
352,56,80617,6,0,L|248:68,1,105.000004005432
60,184,81386,1,0,0:0:0:0:
40,80,81771,1,0,0:0:0:0:
40,80,81963,1,0,0:0:0:0:
40,80,82155,6,0,L|168:92,1,105.000004005432
308,136,82924,2,0,P|240:124|192:148,1,105.000004005432
396,108,83694,1,0,0:0:0:0:
356,356,84463,1,0,0:0:0:0:
216,272,84847,2,0,L|292:284,1,52.5000020027161
144,316,85232,5,0,0:0:0:0:
144,316,85617,2,0,P|88:312|16:280,1,131.25000500679
28,156,86482,1,0,0:0:0:0:
116,120,86771,6,0,L|220:128,1,105.000004005432
384,60,87540,2,0,L|280:68,1,105.000004005432
440,224,88309,2,0,L|452:120,1,105.000004005432
412,232,89078,2,0,L|424:340,1,105.000004005432
296,152,89847,5,0,0:0:0:0:
304,244,90232,1,0,0:0:0:0:
200,344,90617,1,0,0:0:0:0:
200,344,91001,1,0,0:0:0:0:
100,180,91386,1,0,0:0:0:0:
196,180,91771,1,0,0:0:0:0:
52,264,92155,1,0,0:0:0:0:
52,264,92540,1,0,0:0:0:0:
73,78,92924,6,0,P|64:120|100:180,1,105.000004005432
152,28,93694,1,0,0:0:0:0:
240,68,94078,1,0,0:0:0:0:
424,140,94463,6,0,P|432:88|396:40,1,105.000004005432
364,200,95232,1,0,0:0:0:0:
284,160,95617,1,0,0:0:0:0:
52,156,96001,2,0,L|160:148,1,105.000004005432
88,256,96771,2,0,L|200:248,1,105.000004005432
316,296,148309,5,0,0:0:0:0:
400,200,148694,2,0,L|460:180,1,52.5000020027161
412,304,149271,2,0,L|480:284,1,52.5000020027161
252,92,149847,2,0,L|196:100,1,52.5000020027161
104,40,150232,1,0,0:0:0:0:
128,108,150424,1,0,0:0:0:0:
56,160,150617,1,0,0:0:0:0:
80,228,150809,1,0,0:0:0:0:
12,316,151001,6,0,L|88:320,1,52.5000020027161
12,316,151578,1,0,0:0:0:0:
128,336,151771,2,0,L|200:320,1,52.5000020027161
128,336,152155,1,0,0:0:0:0:
248,304,152540,2,0,L|308:324,1,52.5000020027161
236,208,152924,6,0,L|304:228,1,52.5000020027161,0|0,0:0|0:0,0:0:0:0:
380,256,153309,1,0,0:0:0:0:
396,124,153501,1,0,0:0:0:0:
396,124,153694,2,0,B|400:104|400:104|380:148|416:196,1,105.000004005432
476,132,154174,1,0,0:0:0:0:
476,132,154271,1,0,0:0:0:0:
476,132,154367,1,0,0:0:0:0:
476,132,154463,6,0,L|488:80,1,52.5000020027161
396,124,154847,1,0,0:0:0:0:
304,40,155040,2,0,L|360:52,1,52.5000020027161
80,344,296001,6,0,P|72:256|96:196,1,140
144,88,296578,2,0,P|168:120|172:164,1,70
44,68,296963,1,0,0:0:0:0:
244,64,297155,2,0,L|333:48,1,70
216,356,297540,6,0,P|186:293|188:220,1,140
292,320,298117,1,0,0:0:0:0:
316,192,298309,2,0,L|404:232,1,70
244,84,298694,2,0,L|168:80,1,70
128,116,298982,1,0,0:0:0:0:
128,116,299078,6,0,L|116:8,1,105
40,16,299463,2,0,L|48:96,1,70
12,204,299847,2,0,P|4:260|44:320,1,105
56,332,300232,6,0,L|148:340,1,70
216,288,300617,1,0,0:0:0:0:
140,232,300809,2,0,L|56:224,1,70
256,204,301194,2,0,L|348:212,1,70
180,148,301578,1,0,0:0:0:0:
212,64,301771,1,0,0:0:0:0:
284,116,301963,1,0,0:0:0:0:
228,248,302155,6,0,B|124:244|124:244|84:220,1,140
144,60,302732,2,0,L|228:64,1,70
80,116,303117,1,0,0:0:0:0:
92,248,303309,1,0,0:0:0:0:
228,248,303501,1,0,0:0:0:0:
216,112,303694,5,0,0:0:0:0:
360,96,303982,1,0,0:0:0:0:
372,96,304078,2,0,P|432:100|460:124,1,70
336,184,304367,1,0,0:0:0:0:
328,188,304463,2,0,P|292:192|252:184,1,70
384,96,304847,2,0,P|440:96|488:112,1,105
468,232,305232,6,0,B|404:240|360:220,1,105
292,176,305617,2,0,L|284:92,1,70
208,76,306001,1,0,0:0:0:0:
416,352,306386,1,0,0:0:0:0:
416,352,306578,1,0,0:0:0:0:
272,300,306771,6,0,P|216:304|120:256,1,140
112,276,307347,1,0,0:0:0:0:
20,108,307540,1,0,0:0:0:0:
20,108,307924,1,0,0:0:0:0:
24,332,308117,1,0,0:0:0:0:
112,276,308309,6,0,P|128:228|100:116,1,140
20,108,308886,1,0,0:0:0:0:
144,52,309078,2,0,L|232:36,1,70
352,120,309367,1,0,0:0:0:0:
352,120,309463,2,0,L|264:136,1,70
436,36,309847,5,0,0:0:0:0:
436,36,310232,2,0,L|456:124,1,70
392,256,310521,1,0,0:0:0:0:
392,256,310617,2,0,L|372:188,1,70
500,264,311001,1,0,0:0:0:0:
392,256,311194,1,0,0:0:0:0:
324,164,311386,6,0,P|252:160|184:192,1,140
388,224,311963,1,0,0:0:0:0:
152,328,312155,2,0,L|284:344,1,105
352,288,312540,2,0,L|260:296,1,70
76,268,312828,1,0,0:0:0:0:
76,268,312924,6,0,L|196:256,1,105
301,213,313309,2,0,L|232:204,1,70
132,136,313694,2,0,L|40:152,1,70
144,140,314078,1,0,0:0:0:0:
216,204,314271,1,0,0:0:0:0:
396,180,314463,6,0,P|424:120|404:44,1,140
216,204,315232,1,0,0:0:0:0:
296,184,315424,1,0,0:0:0:0:
372,224,315617,2,0,P|396:284|380:348,1,105
368,356,316001,5,0,0:0:0:0:
224,336,316194,2,0,L|308:328,1,70
148,296,316578,1,0,0:0:0:0:
216,204,316771,1,0,0:0:0:0:
224,336,317155,1,0,0:0:0:0:
216,204,317347,1,0,0:0:0:0:
368,252,317540,6,0,P|316:264|280:264,1,70
388,128,317828,1,0,0:0:0:0:
388,128,317924,2,0,P|324:136|236:128,1,140
144,48,318501,1,0,0:0:0:0:
232,64,318694,2,0,P|248:100|236:160,1,70
56,188,319078,6,0,B|120:192|120:192|124:132|184:116,1,140
208,192,319655,1,0,0:0:0:0:
92,324,319847,5,0,0:0:0:0:
256,260,320040,1,0,0:0:0:0:
260,276,320232,1,0,0:0:0:0:
416,328,320424,1,0,0:0:0:0:
356,212,320617,6,0,L|388:56,1,140
460,36,321194,1,0,0:0:0:0:
456,164,321386,2,0,L|360:148,1,70
284,72,321771,2,0,L|376:80,1,70
220,136,322059,1,0,0:0:0:0:
220,136,322155,6,0,L|88:128,1,105
92,164,322540,2,0,P|76:212|80:260,1,70
292,140,322924,2,0,P|289:82|269:54,1,70
212,316,323213,1,0,0:0:0:0:
212,316,323309,2,0,P|264:332|300:320,1,70
148,248,323694,5,0,0:0:0:0:
460,120,323886,2,0,P|408:108|376:112,1,70
304,116,324271,1,0,0:0:0:0:
420,288,324463,2,0,L|414:358,1,70
464,204,324847,2,0,P|396:191|341:231,1,140
264,136,325424,2,0,L|212:140,2,35
284,32,325809,1,0,0:0:0:0:
160,84,326001,6,0,P|124:92|84:92,1,70
8,88,326386,1,0,0:0:0:0:
48,16,326578,1,0,0:0:0:0:
160,84,326771,6,0,P|172:160|136:220,1,140
32,244,327347,2,0,P|24:192|40:156,1,70
68,320,327732,1,0,0:0:0:0:
184,276,327924,1,0,0:0:0:0:
284,356,328117,1,0,0:0:0:0:
260,204,328309,6,0,P|300:196|348:204,1,70
488,308,328694,2,0,P|456:324|412:324,1,70
380,148,329078,2,0,P|430:161|454:180,1,70
304,320,329463,2,0,P|264:308|240:280,1,70
204,136,329847,5,0,0:0:0:0:
329,163,330040,2,0,P|272:191|239:192,1,70
92,176,330424,2,0,P|132:188|172:220,1,70
184,348,330809,1,0,0:0:0:0:
16,324,331001,2,0,P|24:276|48:248,1,70
36,176,331386,6,0,P|72:136|92:40,1,140
164,148,331963,2,0,L|252:140,1,70
264,68,332347,1,0,0:0:0:0:
456,216,332540,2,0,L|464:112,1,105
356,108,332924,6,0,L|348:196,1,70
280,224,333309,1,0,0:0:0:0:
188,348,333501,1,0,0:0:0:0:
188,348,333597,1,0,0:0:0:0:
188,348,333694,2,0,L|172:256,1,70
360,192,334078,2,0,L|368:92,1,70
352,280,334463,5,0,0:0:0:0:
280,224,334655,1,0,0:0:0:0:
180,208,334847,1,0,0:0:0:0:
88,256,335040,1,0,0:0:0:0:
280,224,335232,2,0,L|296:132,1,70
188,100,335521,1,0,0:0:0:0:
188,100,335616,2,0,L|180:0,1,70
136,172,336001,6,0,P|204:184|228:176,1,70
336,108,336386,1,0,0:0:0:0:
432,56,336578,1,0,0:0:0:0:
448,216,336771,2,0,P|396:228|328:220,1,105
304,212,337155,1,0,0:0:0:0:
148,208,337347,1,0,0:0:0:0:
264,280,337540,6,0,L|272:352,1,70
148,208,337924,2,0,L|144:112,1,70
204,276,338309,1,0,0:0:0:0:
44,264,338501,2,0,L|44:348,1,70
0,188,338886,1,0,0:0:0:0:
104,68,339078,6,0,P|196:44|228:56,1,105
256,116,339463,2,0,L|348:128,1,70
176,256,339847,1,0,0:0:0:0:
320,96,340040,2,0,P|380:96|408:112,1,70
436,168,340424,1,0,0:0:0:0:
376,296,340617,6,0,L|316:304,2,35
504,200,341001,1,0,0:0:0:0:
480,288,341194,1,0,0:0:0:0:
372,200,341386,1,0,0:0:0:0:
372,104,341578,1,0,0:0:0:0:
452,52,341771,2,0,L|496:60,2,35
368,16,342059,1,0,0:0:0:0:
368,16,342155,6,0,L|268:32,1,70
96,44,342540,2,0,L|188:60,1,70
348,104,342924,2,0,L|216:120,1,105
80,156,343309,2,0,L|164:148,1,70
368,196,343597,1,0,0:0:0:0:
368,196,343694,6,0,P|332:184|256:172,1,105
224,172,344078,1,0,0:0:0:0:
144,256,344271,1,0,0:0:0:0:
204,364,344463,2,0,L|300:388,2,70
28,256,345040,1,0,0:0:0:0:
80,188,345232,6,0,L|72:68,1,105
76,40,345617,1,0,0:0:0:0:
232,40,345809,1,0,0:0:0:0:
192,176,346001,2,0,L|184:96,1,70
344,148,346290,1,0,0:0:0:0:
344,148,346386,2,0,L|340:228,1,70
320,48,346771,5,0,0:0:0:0:
320,48,347155,2,0,L|416:40,1,70
284,148,347540,2,0,L|196:128,1,70
424,124,347924,1,0,0:0:0:0:
432,208,348117,1,0,0:0:0:0:
436,292,348309,6,0,L|352:292,2,70
152,256,348886,2,0,L|232:248,2,70
272,312,349463,1,0,0:0:0:0:
28,312,349655,1,0,0:0:0:0:
156,220,349847,6,0,P|180:160|152:68,1,140
72,252,350617,1,0,0:0:0:0:
200,224,350809,1,0,0:0:0:0:
312,260,351001,1,0,0:0:0:0:
312,260,351194,1,0,0:0:0:0:
388,224,351386,6,0,P|412:144|408:84,1,140
240,60,351963,2,0,L|152:72,2,70
320,180,352540,1,0,0:0:0:0:
320,96,352732,1,0,0:0:0:0:
244,232,352924,6,0,P|180:240|96:208,1,140
48,160,353501,2,0,L|72:80,1,70
36,16,353886,1,0,0:0:0:0:
152,112,354078,2,0,P|196:120|272:104,1,105
292,88,354463,6,0,L|368:48,1,70
416,160,354751,1,0,0:0:0:0:
416,160,354847,2,0,L|500:148,1,70
324,308,355232,1,0,0:0:0:0:
436,260,355424,1,0,0:0:0:0:
404,336,355617,1,0,0:0:0:0:
356,232,355809,1,0,0:0:0:0:
180,172,356001,6,0,P|176:104|212:40,1,140
292,28,356578,1,0,0:0:0:0:
360,196,356771,2,0,P|380:144|364:56,1,140
292,28,357347,1,0,0:0:0:0:
160,100,357540,6,0,L|92:88,2,70
332,168,358117,2,0,L|432:160,1,70
460,100,358501,1,0,0:0:0:0:
396,272,358694,2,0,L|308:244,1,70
98,330,359078,6,0,P|97:274|147:193,1,140
196,136,359655,1,0,0:0:0:0:
300,56,359847,2,0,L|284:132,1,70
452,252,360232,2,0,L|468:336,1,70
316,344,360617,6,0,L|324:200,1,140
232,304,361194,1,0,0:0:0:0:
168,160,361386,2,0,P|224:160|272:140,1,105
300,112,361771,1,0,0:0:0:0:
128,32,361963,1,0,0:0:0:0:
72,168,362155,6,0,P|76:236|120:292,1,140
436,340,362924,2,0,L|366:343,1,70
304,256,363309,2,0,L|392:248,1,70
188,188,363694,6,0,P|252:176|344:176,1,140
136,272,364271,1,0,0:0:0:0:
276,200,364463,2,0,P|288:136|276:56,1,140
236,292,365040,1,0,0:0:0:0:
240,116,365232,6,0,P|296:112|396:128,1,140
164,168,365809,1,0,0:0:0:0:
336,124,366001,2,0,P|348:56|328:-12,1,140
296,208,366578,1,0,0:0:0:0:
132,88,366771,6,0,P|192:84|280:104,1,140,0|0,0:0|0:0,0:0:0:0:
60,136,367347,1,0,0:0:0:0:
236,260,367540,2,0,P|160:268|96:252,1,140
284,196,368117,1,0,0:0:0:0:
136,300,368309,6,0,P|136:224|168:152,1,140
208,348,368886,2,0,L|304:360,1,70
344,304,369271,1,0,0:0:0:0:
216,252,369463,2,0,L|308:240,1,70
480,184,369847,6,0,L|340:176,1,140
436,272,370424,2,0,L|520:284,1,70
344,304,370809,1,0,0:0:0:0:
360,152,371001,2,0,L|356:240,1,70
264,328,371386,6,0,L|272:184,1,140
176,312,371963,1,0,0:0:0:0:
240,244,372155,2,0,P|304:236|336:248,1,70
432,304,372540,2,0,P|404:316|364:324,1,70
372,172,372924,6,0,L|384:96,2,70,0|0|0,0:0|0:0|0:0,0:0:0:0:
188,92,373501,2,0,L|180:16,2,70
100,248,374078,2,0,L|72:168,1,70
272,112,374463,6,0,P|324:96|432:100,1,140
224,192,375040,1,0,0:0:0:0:
360,252,375232,2,0,P|356:220|320:176,1,70
336,332,375617,2,0,L|432:320,1,70
224,192,376001,6,0,P|156:188|84:216,1,140
36,276,376578,2,0,L|20:364,1,70
12,204,376963,1,0,0:0:0:0:
100,124,377155,2,0,L|112:208,1,70
44,56,377540,6,0,P|96:36|192:48,1,140
240,100,378117,1,0,0:0:0:0:
128,184,378309,2,0,L|204:172,1,70
248,240,378694,2,0,L|216:316,1,70
332,176,379078,6,0,L|352:304,1,105
360,320,379463,1,0,0:0:0:0:
432,184,379655,1,0,0:0:0:0:
280,104,379847,2,0,P|332:92|368:104,2,70
220,160,380424,1,0,0:0:0:0:
188,320,380617,6,0,P|128:328|72:304,1,105
48,296,381001,2,0,P|36:244|44:208,1,70
128,88,381386,2,0,P|136:124|128:184,1,70
40,60,381771,1,0,0:0:0:0:
76,176,381963,1,0,0:0:0:0:
176,20,382155,6,0,L|304:12,1,105
272,84,382540,2,0,L|368:76,1,70
476,96,382924,2,0,P|492:128|488:180,1,70,0|0,0:0|0:0,0:0:0:0:
228,212,383309,2,0,P|212:180|216:128,1,70,0|0,0:0|0:0,0:0:0:0:
392,220,383694,6,0,L|468:232,2,70
332,164,384271,1,0,0:0:0:0:
212,292,384463,2,0,L|128:304,2,70
284,336,385040,1,0,0:0:0:0:
228,196,385232,6,0,P|152:168|80:184,1,140
44,248,385809,1,0,0:0:0:0:
112,324,386001,2,0,P|132:284|120:236,1,70
128,96,386386,2,0,P|152:68|212:56,1,70
248,192,386771,6,0,P|311:231|384:242,1,140
472,160,387347,1,0,0:0:0:0:
284,72,387540,2,0,L|196:84,1,70
408,144,387924,2,0,L|484:160,1,70
428,300,388309,6,0,L|268:264,1,140
168,328,388886,2,0,L|244:344,1,70
320,360,389271,1,0,0:0:0:0:
196,248,389463,2,0,L|104:260,1,70
60,128,389847,6,0,P|36:200|40:276,2,140
204,76,390809,1,0,0:0:0:0:
100,28,391001,1,0,0:0:0:0:
228,20,391194,1,0,0:0:0:0:
260,140,391386,6,0,P|312:160|400:152,2,140
188,56,392347,1,0,0:0:0:0:
300,28,392540,2,0,L|400:36,1,70
408,176,392924,6,0,L|400:324,1,140
260,216,393501,2,0,L|344:192,1,70
296,120,393886,1,0,0:0:0:0:
324,280,394078,2,0,L|320:352,1,70
260,216,394463,6,0,P|204:204|132:224,1,105
120,152,394847,2,0,L|112:72,1,70
8,200,395232,2,0,L|14:269,1,70
8,112,395617,1,0,0:0:0:0:
108,240,395809,1,0,0:0:0:0:
24,348,396001,6,0,P|76:347|128:355,1,105
16,236,396386,2,0,L|4:152,1,70
100,52,396771,1,0,0:0:0:0:
132,160,396963,1,0,0:0:0:0:
276,56,397155,2,0,L|192:64,1,70
236,312,397540,6,0,P|292:316|372:284,1,140
392,40,398117,1,0,0:0:0:0:
316,100,398309,2,0,P|287:132|280:229,1,140
448,304,398886,1,0,0:0:0:0:
382,155,399078,6,0,L|376:260,1,105
452,80,399463,2,0,L|448:164,1,70
448,304,399847,1,0,0:0:0:0:
448,304,400232,2,0,L|364:320,1,70
192,268,400617,6,0,L|320:248,1,105
440,200,401001,2,0,L|352:192,1,70
180,168,401386,1,0,0:0:0:0:
264,140,401578,2,0,L|360:124,1,70
472,64,401963,1,0,0:0:0:0:
276,40,402155,6,0,P|324:32|412:40,1,105
212,92,402540,2,0,P|176:96|128:88,1,70
40,132,402924,1,0,0:0:0:0:
68,52,403117,1,0,0:0:0:0:
100,208,403309,2,0,L|184:232,1,70
232,168,403694,6,0,P|292:168|384:208,1,140
384,280,404271,1,0,0:0:0:0:
272,244,404463,2,0,P|280:200|356:128,1,140
440,140,405040,1,0,0:0:0:0:
384,280,405232,6,0,L|400:168,2,105
288,36,406001,2,0,L|309:138,2,105
48,176,406771,6,0,P|120:200|192:184,1,140
252,144,407347,1,0,0:0:0:0:
0,80,407540,2,0,P|76:56|156:68,1,140
296,232,408117,1,0,0:0:0:0:
148,340,408309,6,0,P|104:316|32:320,2,105
356,184,409078,2,0,P|412:164|472:172,2,105
292,240,409847,5,0,0:0:0:0:
168,80,410232,2,0,L|132:152,1,70
248,124,410617,2,0,L|332:124,1,70
244,40,411001,2,0,L|208:-36,1,70
92,156,411386,6,0,P|88:200|156:280,2,140
348,60,412540,2,0,L|388:56,1,35
352,84,412732,2,0,L|400:88,1,35
352,120,412924,6,0,P|376:180|456:204,2,140
208,68,413886,2,0,P|168:128|88:140,1,140
28,136,414463,6,0,P|104:124|184:152,1,140
248,252,415040,1,0,0:0:0:0:
152,340,415232,2,0,P|136:284|152:220,1,105
104,168,415617,2,0,P|176:136|208:136,1,105
276,176,416001,6,0,L|392:160,2,105
112,244,416771,2,0,L|0:232,2,105
284,248,417540,5,0,0:0:0:0:
276,328,417732,1,0,0:0:0:0:
376,332,417924,1,0,0:0:0:0:
376,248,418117,1,0,0:0:0:0:
412,124,418309,1,0,0:0:0:0:
488,140,418501,1,0,0:0:0:0:
488,36,418694,1,0,0:0:0:0:
416,36,418886,1,0,0:0:0:0:
