osu file format v5

[General]
AudioFilename: One Republic - Dreaming Out Loud - 03 - Stop And Stare.mp3
AudioLeadIn: 0
PreviewTime: 54156
Countdown: 1
SampleSet: Soft
StackLeniency: 0.7
Mode: 0
LetterboxInBreaks: 1

[Metadata]
Title:Stop And Stare
Artist:OneRepublic
Creator:Larto
Version:Beginner
Source:
Tags:

[Difficulty]
HPDrainRate:1
CircleSize:4
OverallDifficulty:2
SliderMultiplier:0.8
SliderTickRate:1

[Events]
//Background and Video events
0,0,"OneRepublic-onerepublic-771422_1024_768.jpg"
//Break Periods
2,96193,100307
//Storyboard Layer 0 (Background)
//Storyboard Layer 1 (Failing)
//Storyboard Layer 2 (Passing)
//Storyboard Layer 3 (Foreground)
//Storyboard Sound Samples
//Background Colour Transformations
3,100,163,162,255

[TimingPoints]
13615.4806455176,648.648648648649,4,2,0,60,1,0
33227,-100,4,2,0,39,0,0
33713,-100,4,1,0,60,0,0
54318,-100,4,1,1,39,0,0
54488,-100,4,1,1,58,0,1
75176,-100,4,1,1,60,0,0
75216,-100,4,1,1,60,0,1
84146,-100,4,1,1,39,0,1
84510,-100,4,1,1,39,0,1
84794,-100,4,1,1,59,0,0
93074,-100,4,1,0,39,0,0
132146,-100,4,1,1,39,0,0
132318,-100,4,1,1,39,0,1
133767,-100,4,1,1,39,0,1
134131,-100,4,1,1,39,0,1
152010,-100,4,1,1,39,0,1
152172,-100,4,1,1,39,0,1
152334,-100,4,1,1,39,0,1
152496,-100,4,1,1,39,0,1
152658,-100,4,1,1,39,0,1
152820,-100,4,1,1,59,0,0
153054,-100,4,1,1,60,0,1
194578,-100,4,2,0,39,0,0
215821,-100,4,2,0,0,0,0

[Colours]
Combo1 : 255,255,255
Combo2 : 192,192,192
Combo3 : 83,83,83

[HitObjects]
216,192,13291,1,0
216,192,13615,2,2,B|240:264|304:264,2,120
296,192,15885,5,0
296,192,16210,2,2,B|272:120|208:120,2,120
352,248,18480,6,0,B|352:304|264:320|160:304|160:248,1,240,0|2
160,136,21074,2,0,B|160:80|248:64|352:80|352:136,1,240,0|2
351,131,23345,1,0
464,192,23993,5,0
384,192,24642,1,2
304,192,25291,1,0
48,192,26588,5,0
128,192,27237,1,2
208,192,27885,1,0
312,312,29183,5,0
200,312,29831,1,0
240,240,30480,2,2,B|264:224|288:248,1,40
200,72,31777,5,8
312,72,32426,1,8
272,144,33074,2,8,B|248:160|224:136,6,40,8|0|8|0|8|0|8
320,136,35345,5,0
416,136,35993,2,0,B|416:192|360:192,1,80
320,192,36966,1,0
192,192,37615,5,0
88,192,38264,1,0
32,192,38588,2,8,B|32:136|88:136,2,80
120,248,40534,6,0,B|160:192|120:120,1,120
256,192,42156,1,0
392,248,42804,2,8,B|352:192|392:120,2,120
256,48,45723,5,0
256,48,46047,1,0
256,48,46372,1,0
200,192,47345,5,0
312,192,47993,1,0
312,296,48642,1,8
312,296,48966,2,8,B|255:337|192:288,1,120
88,192,50912,5,0
88,192,51237,1,0
88,192,51561,1,0
256,192,52534,1,4
424,192,53507,1,4
256,240,54480,5,0
256,160,55128,1,2
224,88,55777,2,0,B|256:48|296:96,2,80,4|0|0
144,112,57723,5,0
184,184,58372,1,8
256,216,59020,1,0
328,184,59669,2,0,B|368:160|368:104,4,80,2|2|2|2|2
336,264,62912,5,0
336,264,63237,1,0
336,264,63561,2,8,B|248:264,1,80
176,328,64858,2,0,B|264:328,1,80,2|2
256,248,66156,5,0
200,192,66804,1,0
256,136,67453,1,0
312,192,68101,1,0
256,248,68750,2,8,B|256:336,2,80,8|0|8
256,192,70696,12,0,73291
256,296,75237,5,0
256,216,75885,1,0
192,176,76534,2,4,B|216:120|312:128|328:192,1,160,4|0
328,256,78480,5,0
256,296,79128,1,2
184,256,79777,1,8
124,197,80426,2,0,B|148:157|253:50|356:149|391:209,1,320,2|2
376,280,83669,5,0
304,320,84318,1,8
256,320,84642,1,0
208,320,84966,1,8
136,280,85615,2,0,B|136:224|184:224,3,80,2|2|2|2
256,72,88534,5,0
256,112,88858,1,2
256,152,89183,1,0
256,192,89507,1,8
256,232,89831,1,0
256,272,90156,1,2
256,312,90480,1,0
256,192,91128,12,4,95993
176,264,101183,5,0
256,264,101831,2,0,B|296:264|296:232,2,40,8|0|8
368,264,103128,1,4
336,120,104426,5,0
256,120,105074,2,0,B|216:120|216:152,2,40,8|0|8
144,120,106372,1,0
72,192,107020,5,8
136,232,107669,1,0
200,192,108318,1,8
200,192,108642,1,8
200,192,108966,1,8
312,192,109615,5,0
376,232,110264,1,0
440,192,110912,1,8
440,192,111237,1,8
440,192,111561,6,8,B|440:256|440:296|336:304,1,160
256,312,113507,1,4
156,301,114156,2,8,B|72:296|72:256|72:192,1,160
160,192,116101,1,4
184,120,116750,6,8,B|256:48|336:128,1,160
360,192,118696,1,4
325,265,119345,2,8,B|256:336|184:264,1,160
152,192,121291,1,4
64,192,121939,6,8,B|96:128|160:104|216:136|264:200,1,240,8|4
448,192,124534,2,8,B|417:256|352:284|297:248|250:181,1,240,8|4
256,192,127128,12,4,130696
216,140,132318,6,0,B|256:100|296:148,1,80,8|0
360,104,133615,2,0,B|324:69|266:6|156:73|144:117,1,240,4|0
256,152,136210,5,8
256,152,136534,1,0
256,152,136858,1,8
296,244,137507,2,2,B|256:284|216:236,1,80
152,280,138804,2,0,B|188:315|246:378|356:311|368:267,1,240,2|8
256,232,141399,5,2
256,232,141723,1,0
256,232,142047,1,8
329,215,142696,6,0,B|326:164|268:161,1,80
216,176,143993,2,0,B|183:205|154:254|231:357|323:276,1,240,2|2
256,232,146588,1,8
256,232,146912,1,0
256,232,147237,1,2
256,192,148534,12,0,151777
223,200,153074,6,0,B|257:249|301:187,1,80
321,129,154372,2,4,B|316:113|297:78|203:78|190:139,1,160,4|2
136,192,156318,5,0
136,192,156642,1,0
136,192,156966,1,8
256,264,157615,5,0
256,264,157939,1,0
256,264,158264,1,8
376,192,158912,5,0
376,192,159237,1,0
376,192,159561,1,8
256,120,160210,5,0
256,120,160534,1,0
256,120,160858,1,8
336,320,161507,6,2,B|168:320,3,160
296,256,166696,2,2,B|200:256,2,80
240,192,168642,2,2,B|288:192,2,40
280,144,169939,2,2,B|224:144,2,40
248,96,171237,2,2,B|288:96,14,20,6|2|2|2|6|2|2|2|6|2|6|2|6|6|6
256,192,173831,12,8,178372
