osu file format v4

[General]
AudioFilename: Apologize.mp3
AudioLeadIn: 0
AudioHash: 5268c9d7bd464220bd0a0f0dcfc7514c
PreviewTime: 102731
Countdown: 0
SampleSet: Normal
EditorBookmarks: 16291,48833,65104,73240,105782,138325,140358,172901

[Metadata]
Title:Apologize
Artist:One Republic
Creator:Slezak
Version:Normal

[Difficulty]
HPDrainRate:6
CircleSize:5
OverallDifficulty:6
SliderMultiplier: 1.5
SliderTickRate: 1

[Events]
//Background and Video events
//Break Periods
2,64790,72039
2,121744,139158
//Storyboard Layer 0 (Background)
//Storyboard Layer 1 (Failing)
//Storyboard Layer 2 (Passing)
//Storyboard Layer 3 (Foreground)
//Storyboard Sound Samples
//Background Colour Transformations
3,100,0,0,0

[TimingPoints]
20,508.474576271186,4,2,0,100
48833,508.474576271186,4,1,1,100

[HitObjects]
128,96,16291,1,2
192,96,16799,1,0
256,96,17308,1,0
320,96,17816,1,0
384,96,18325,5,2
384,160,18833,1,0
384,224,19342,1,0
320,224,19850,1,0
288,224,20104,6,0,B|288:224|96:224|96:32,4,300
320,160,24426,5,2
320,96,24935,1,0
256,96,25443,1,0
192,96,25952,1,0
128,96,26460,5,2
128,160,26969,1,0
128,224,27477,1,0
192,224,27986,1,0
224,224,28240,6,0,B|224:224|414:226|416:32,4,300
192,224,32562,5,2
160,224,32816,1,0
128,224,33070,1,0
128,160,33579,1,0
192,160,34087,1,0
256,160,34596,5,2
288,160,34850,1,0
320,160,35104,1,0
352,160,35358,1,0
352,192,35613,1,0
320,224,36121,1,0
288,224,36375,6,2,B|288:224|256:224|224:224|192:224|160:224|128:224|96:224|64:192|64:160|64:128|96:96|128:96|160:96|192:96|224:96|352:96,1,525
368,96,38409,2,2,B|368:96|400:96|432:96|464:96|496:128|496:160|496:192|464:224|432:224|400:224|368:224|336:224|304:224|272:224|240:224|112:224,1,525
128,160,40697,5,2
160,160,40952,1,0
192,160,41206,1,0
224,160,41460,1,0
256,160,41714,2,2,B|256:160|416:160,1,150
464,160,42731,5,2
464,192,42986,1,0
464,224,43240,1,0
432,224,43494,1,0
400,224,43748,2,0,B|400:224|240:224,1,150
224,224,44511,6,2,L|224:224|46:224|47:112|304:112,1,525
304,112,46545,2,2,L|304:112|467:112|466:224|208:224,1,525
256,192,48833,5,4
256,192,49340,1,4
256,192,49847,1,4
288,192,50101,1,0
320,192,50355,1,2
320,192,50866,5,2
256,192,51375,1,0
192,192,51883,1,2
128,192,52392,1,0
64,192,52895,6,0,B|64:192|116:297|184:350|264:366|374:348|452:292|468:192|468:176|448:163|406:145|371:134|315:130|272:115|222:93|146:65|32:32,1,900
192,192,56460,5,2
224,192,56714,1,0
256,192,56963,1,4
256,192,57470,1,4
256,192,57977,1,4
288,192,58231,1,0
320,192,58485,1,2
256,192,59002,5,2
320,192,59510,1,0
320,128,60019,1,2
384,144,60527,1,0
448,160,61036,6,0,B|448:160|468:324|423:362|264:388|86:378|8:313|1:213|16:179|30:170|106:145|141:134|197:130|240:115|290:93|366:65|480:32,1,1050
256,160,73239,5,2
320,160,73748,1,0
384,160,74256,1,0
320,160,74765,1,0
256,160,75273,5,2
192,160,75782,1,0
128,160,76290,1,0
192,160,76799,1,0
224,160,77053,6,0,C|224:160|258:160|287:160|320:160|399:160|432:175|449:208|449:240|432:272|402:288|320:288|288:288|256:288|224:288|192:288|160:288|128:272|112:240|108:192|112:144|130:112|160:96|191:96|464:96,1,1125
448,160,81375,5,2
416,136,81629,1,0
384,112,81883,1,0
360,136,82138,1,0
320,160,82392,1,0
256,112,82900,1,0
224,112,83155,1,0
192,112,83409,5,2
160,224,84171,1,0
192,224,84426,1,0
256,224,84934,1,0
288,224,85188,6,0,C|288:224|254:224|225:224|192:224|113:224|80:209|63:176|63:144|80:112|110:96|192:96|224:96|256:96|288:96|320:96|352:96|384:112|400:144|404:192|400:240|382:272|352:288|321:288|48:288,1,1125
64,256,89256,1,0
64,224,89510,5,2
64,192,89765,1,0
64,160,90019,1,0
96,160,90273,1,0
128,160,90527,1,0
192,160,91036,1,0
256,160,91544,5,2
352,160,92307,1,0
384,160,92561,1,0
416,160,92816,1,0
416,192,93070,1,0
416,256,93578,6,0,C|416:256|112:256,4,300
416,224,97900,1,0
416,192,98155,1,0
352,192,98663,1,0
288,192,99171,1,0
224,192,99680,5,2
192,192,99934,1,0
160,192,100188,1,0
128,192,100443,1,0
96,192,100697,1,0
96,128,101205,1,0
96,96,101460,6,2,C|96:96|400:96,4,300
112,192,105782,5,4
176,192,106290,1,4
240,192,106799,1,4
272,192,107053,1,0
304,192,107307,1,2
368,192,107816,6,0,C|368:192|112:192,2,225
400,176,109595,1,0
448,160,109849,6,0,B|448:160|468:324|423:362|264:388|86:378|8:313|1:213|16:179|30:170|106:145|141:134|197:130|240:115|290:93|366:65|480:32,1,1050
400,192,113917,5,4
336,192,114425,1,4
272,192,114934,1,4
240,192,115188,1,0
208,192,115442,1,2
144,192,115951,6,0,C|144:192|384:192,2,225
112,176,117731,1,0
64,160,117985,6,2,B|64:160|44:324|89:362|248:388|426:378|504:313|511:213|496:179|482:170|406:145|371:134|315:130|272:115|222:93|146:65|32:32,1,1050
256,192,140358,5,4
256,192,140612,1,4
256,192,140866,1,4
320,192,141375,1,4
352,192,141629,1,0
384,192,141883,1,2
384,160,142138,1,0
384,128,142392,6,2,C|384:128|256:128,4,112.5
416,144,144171,1,0
448,160,144426,6,2,B|448:160|468:324|423:362|264:388|86:378|8:313|1:213|16:179|30:170|106:145|141:134|197:130|240:115|290:93|366:65|480:32,1,1050
256,192,148494,5,4
256,192,148748,1,4
256,192,149002,1,4
192,192,149511,1,4
160,192,149765,1,0
128,192,150019,1,2
128,160,150273,1,0
128,128,150528,6,2,C|128:128|256:128,4,112.5
96,144,152307,1,0
64,160,152561,6,2,B|64:160|44:324|89:362|248:388|426:378|504:313|511:213|496:179|482:170|406:145|371:134|315:130|272:115|222:93|146:65|32:32,1,1050
256,192,156629,5,4
256,192,156883,1,4
256,192,157138,1,4
256,192,157646,1,4
256,160,157900,1,0
256,128,158155,1,2
256,96,158409,1,0
256,64,158663,6,2,C|256:64|192:64,4,37.5
288,64,159426,1,0
320,64,159680,2,2,C|320:64|384:64,4,37.5
288,64,160443,1,0
288,32,160697,6,2,B|288:32|176:48|128:64|96:96|80:144|80:192|80:240|96:288|128:320|176:336|256:336|336:336|384:320|416:288|432:240|432:192|432:144|404:108|356:90|288:91|254:106|162:102|140:158|148:197|199:234|244:232|272:208,1,1050
288,208,164510,1,0
256,192,164765,12,2,172900
