osu file format v4

[General]
AudioFilename: Apologize.mp3
AudioLeadIn: 0
AudioHash: 5268c9d7bd464220bd0a0f0dcfc7514c
PreviewTime: 102731
Countdown: 0
SampleSet: Soft
EditorBookmarks: 16291,48833,65104,73240,105782,138325,140358,172901

[Metadata]
Title:Apologize
Artist:One Republic
Creator:Slezak
Version:Hard

[Difficulty]
HPDrainRate:6
CircleSize:5
OverallDifficulty:7
SliderMultiplier: 1.8
SliderTickRate: 1

[Events]
//Background and Video events
//Break Periods
2,64790,72039
2,121744,139158
//Storyboard Layer 0 (Background)
//Storyboard Layer 1 (Failing)
//Storyboard Layer 2 (Passing)
//Storyboard Layer 3 (Foreground)
//Storyboard Sound Samples
//Background Colour Transformations
3,100,0,0,0

[TimingPoints]
20,508.474576271186,4,2,0,100
48833,508.474576271186,4,1,1,100

[HitObjects]
128,96,16291,1,2
160,96,16545,1,0
192,96,16799,1,0
224,96,17053,1,0
256,96,17308,1,0
320,96,17816,1,0
352,96,18070,1,0
384,96,18325,5,2
384,160,18833,1,0
384,224,19342,1,0
320,224,19850,1,0
288,224,20104,6,0,B|288:224|104:224|104:48|304:48,4,360
320,160,24426,5,2
320,128,24681,1,0
320,96,24935,1,0
288,96,25189,1,0
256,96,25443,1,0
192,96,25952,1,0
160,96,26206,1,0
128,96,26460,5,2
128,160,26969,1,0
128,224,27477,1,0
192,224,27986,1,0
224,224,28240,6,0,B|224:224|408:224|408:48|208:48,4,360
192,224,32562,5,2
160,224,32816,1,0
128,224,33070,1,0
128,192,33325,1,0
128,160,33579,1,0
192,160,34087,1,0
256,160,34596,5,2
288,160,34850,1,0
320,160,35104,1,0
352,160,35358,1,0
352,192,35613,1,0
320,224,36121,1,0
288,224,36375,6,2,B|288:224|256:224|224:224|192:224|160:224|128:224|96:224|64:192|64:143|64:96|98:64|130:64|164:64|191:64|227:64|352:64,1,540
368,64,38155,1,2
400,64,38409,2,2,B|400:64|464:64|496:96|496:143|496:192|464:224|432:224|400:224|368:224|336:224|304:224|272:224|240:224|80:224,1,540
112,192,40189,1,2
112,128,40697,5,2
144,128,40952,1,0
176,128,41206,1,0
208,128,41460,1,0
240,128,41714,2,2,B|240:128|448:128,1,180
480,128,42731,5,2
480,160,42986,1,0
480,192,43240,1,0
480,224,43494,1,0
448,224,43748,2,0,B|448:224|256:224,1,180
240,224,44511,6,2,L|240:224|46:224|47:112|384:112,1,630
400,112,46545,2,2,L|400:112|467:112|466:224|160:224,1,450
192,160,48325,1,2
224,176,48579,1,2
256,192,48833,5,4
256,192,49340,1,4
256,192,49847,1,4
288,192,50101,1,0
320,192,50355,1,2
320,192,50866,5,2
256,192,51375,1,0
224,192,51629,1,0
192,192,51883,1,2
128,192,52392,1,0
96,192,52646,1,0
64,192,52895,6,0,B|64:192|62:364|188:381|254:386|405:369|521:364|516:181|520:143|514:120|475:59|423:24|333:28|285:43|228:76|156:124|128:208,1,1080
160,192,56205,5,0
192,192,56460,1,2
224,192,56714,1,0
256,192,56963,1,4
256,192,57470,1,4
256,192,57977,1,4
288,192,58231,1,0
320,192,58485,1,2
256,192,59002,5,2
320,192,59510,1,0
320,160,59765,1,0
320,128,60019,1,2
384,128,60527,1,0
416,128,60782,1,0
448,128,61036,6,0,B|448:128|528:155|508:353|470:382|450:385|290:310|141:383|28:381|12:376|-14:212|-8:133|32:116|64:108|73:104|92:97|116:96|134:96|168:90|512:32,1,1260
256,160,73239,5,2
288,160,73494,1,0
320,160,73748,1,0
352,160,74002,1,0
384,160,74256,1,0
384,224,74765,1,0
352,224,75019,1,0
320,224,75273,5,2
256,224,75782,1,0
224,224,76036,1,0
192,224,76290,1,0
192,160,76799,1,0
224,160,77053,6,0,C|224:160|258:160|287:160|320:160|399:160|432:175|449:208|449:240|432:272|402:288|320:288|288:288|256:288|224:288|192:288|128:288|97:272|80:240|77:168|80:96|97:64|127:47|194:47|400:47|432:47|464:64|480:96|480:160,1,1350
480,184,81121,1,0
448,160,81375,5,2
416,136,81629,1,0
384,112,81883,1,0
360,136,82138,1,0
336,160,82392,2,0,B|336:160|240:160,1,90
240,128,82900,1,0
208,128,83155,1,0
176,128,83409,5,2
160,224,84171,1,0
192,224,84426,1,0
256,224,84934,1,0
288,224,85188,6,0,C|288:224|254:224|225:224|192:224|113:224|80:209|63:176|63:144|80:112|110:96|192:96|224:96|256:96|288:96|320:96|384:96|415:112|432:144|435:216|432:288|415:320|385:337|318:337|112:337|80:337|48:320|32:288|32:224,1,1350
32,192,89256,1,0
32,160,89510,5,2
40,128,89765,1,0
64,104,90019,1,0
96,96,90273,1,0
128,96,90527,1,0
192,96,91036,1,0
256,96,91544,5,2
352,96,92307,1,0
384,96,92561,1,0
416,96,92816,1,0
416,120,93070,2,0,B|416:120|416:272,1,135
416,256,93578,6,0,C|416:256|48:256,4,360
416,224,97900,1,0
416,192,98155,1,0
384,192,98409,1,0
352,192,98663,1,0
288,192,99171,1,0
224,192,99680,5,2
192,192,99934,1,0
160,192,100188,1,0
128,192,100443,1,0
96,192,100697,1,0
96,128,101205,1,0
96,96,101460,6,2,C|96:96|464:96,4,360
96,128,105782,5,4
96,160,106036,1,0
96,192,106290,1,4
128,192,106544,1,0
160,192,106799,1,4
192,192,107053,1,0
224,192,107307,1,2
288,192,107816,6,0,C|288:192|80:192,3,180
88,160,109595,1,0
64,128,109849,6,0,B|64:128|-16:155|4:353|42:382|62:385|222:310|371:383|484:381|500:376|526:212|520:133|480:116|448:108|439:104|420:97|396:96|378:96|344:90|0:32,1,1260
416,128,113917,5,4
416,160,114171,1,0
416,192,114425,1,4
384,192,114680,1,0
352,192,114934,1,4
320,192,115188,1,0
288,192,115442,1,2
224,192,115951,6,0,C|224:192|440:192,3,180
432,152,117731,1,0
448,128,117985,6,2,B|448:128|528:155|508:353|470:382|450:385|290:310|141:383|28:381|12:376|-14:212|-8:133|32:116|64:108|73:104|92:97|116:96|134:96|168:90|512:32,1,1260
256,192,140358,5,6
256,192,140612,1,4
256,192,140866,1,4
288,192,141121,1,2
320,192,141375,1,4
352,192,141629,1,0
384,192,141883,1,2
384,160,142138,1,0
384,128,142392,6,2,C|384:128|272:128,6,90
416,128,144171,1,0
448,128,144426,6,2,B|448:128|528:155|508:353|470:382|450:385|290:310|141:383|28:381|12:376|-14:212|-8:133|32:116|64:108|73:104|92:97|116:96|134:96|168:90|512:32,1,1260
256,192,148494,5,6
256,192,148748,1,4
256,192,149002,1,4
224,192,149256,1,2
192,192,149511,1,4
160,192,149765,1,0
128,192,150019,1,2
128,160,150273,1,0
128,128,150528,6,2,C|128:128|240:128,6,90
96,128,152307,1,0
64,128,152561,6,2,B|64:128|-16:155|4:353|42:382|62:385|222:310|371:383|484:381|500:376|526:212|520:133|480:116|448:108|439:104|420:97|396:96|378:96|344:90|0:32,1,1260
72,40,156629,5,6
96,56,156883,1,4
120,72,157138,1,4
144,88,157392,1,2
168,104,157646,1,4
192,120,157900,1,0
216,104,158155,1,2
240,88,158409,1,0
264,72,158663,6,2,C|264:72|192:72,4,45
296,72,159426,1,0
328,72,159680,2,2,C|328:72|400:72,4,45
296,72,160443,1,0
296,40,160697,6,2,B|296:40|184:40|108:60|36:88|0:121|-2:221|11:342|81:374|210:371|397:371|501:354|512:293|510:224|503:180|439:103|337:121|286:105|142:117|64:179|160:224|240:224,1,1260
256,224,164510,1,0
256,192,164765,12,2,172900
