osu file format v12

[General]
AudioFilename: 01 One Way or Another (Teenage Kicks).mp3
AudioLeadIn: 0
PreviewTime: 44775
Countdown: 0
SampleSet: Soft
StackLeniency: 0.7
Mode: 0
LetterboxInBreaks: 0
WidescreenStoryboard: 0

[Editor]
Bookmarks: 3293,80330
DistanceSpacing: 1.1
BeatDivisor: 4
GridSize: 4

[Metadata]
Title:One Way or Another (Teenage Kicks)
TitleUnicode:One Way or Another (Teenage Kicks)
Artist:One Direction
ArtistUnicode:One Direction
Creator:Kyshiro
Version:Fine
Source:
Tags:blondie cover
BeatmapID:264141
BeatmapSetID:99274

[Difficulty]
HPDrainRate:2
CircleSize:2
OverallDifficulty:2
ApproachRate:3
SliderMultiplier:0.8
SliderTickRate:2

[Events]
//Background and Video events
0,0,"palm_trees_beach-wallpaper-1366x768.jpg",0,0
//Break Periods
2,68685,78896
//Storyboard Layer 0 (Background)
//Storyboard Layer 1 (Fail)
//Storyboard Layer 2 (Pass)
//Storyboard Layer 3 (Foreground)
//Storyboard Sound Samples
//Background Colour Transformations
3,100,163,162,255

[TimingPoints]
337,370.37037037037,4,2,0,50,1,0
27003,-100,4,2,0,75,0,0
44781,-100,4,1,0,65,0,1
45151,-100,4,1,1,65,0,1
45244,-100,4,1,0,65,0,1
46633,-100,4,1,1,65,0,1
46725,-100,4,1,0,65,0,1
54040,-100,4,1,1,65,0,1
54133,-100,4,1,0,65,0,1
54781,-100,4,1,1,65,0,1
54874,-100,4,1,0,65,0,1
68485,-100,4,2,0,75,0,0
89225,-100,4,1,0,65,0,0
118855,-100,4,1,0,65,0,1
122188,-100,4,1,1,65,0,1
122281,-100,4,1,0,65,0,1
129596,-100,4,1,1,65,0,1
129688,-100,4,1,0,65,0,1
130336,-100,4,1,1,65,0,1
130429,-100,4,1,0,65,0,1
135522,-100,4,1,1,65,0,1
135614,-100,4,1,0,65,0,1
136262,-100,4,1,1,65,0,1
136355,-100,4,1,0,65,0,1
154411,-100,4,2,0,50,0,0

[HitObjects]
52,192,3299,2,0,P|93:233|199:228,1,160
274,258,4411,1,2,0:0:0:0:
254,173,4781,2,0,P|351:173|392:214,1,160
401,301,5892,1,2,0:0:0:0:
401,301,6262,6,0,L|461:147,1,160,0|0,0:0|0:0,0:0:0:0:
493,70,7374,1,0,0:0:0:0:
404,82,7744,2,0,B|320:18|256:82|192:146|104:82,1,320,2|0,0:0|0:0,0:0:0:0:
65,161,9596,6,0,P|137:191|224:188,1,160,2|0,0:0|0:0,0:0:0:0:
237,103,10707,1,0,0:0:0:0:
302,166,11077,2,0,P|382:164|454:194,1,160,2|0,0:0|0:0,0:0:0:0:
490,275,12188,1,2,0:0:0:0:
402,265,12559,1,0,0:0:0:0:
248,350,13299,5,0,0:0:0:0:
212,269,13670,2,0,P|157:201|76:176,2,160,2|0|2,0:0|0:0|0:0,0:0:0:0:
138,317,15522,1,0,0:0:0:0:
286,222,16262,5,0,0:0:0:0:
321,302,16633,2,0,P|372:329|471:297,1,160,2|0,0:0|0:0,0:0:0:0:
491,219,17744,1,0,0:0:0:0:
466,134,18114,2,0,P|414:106|315:138,1,160,2|0,0:0|0:0,0:0:0:0:
236,156,19225,1,0,0:0:0:0:
158,114,19596,6,0,P|126:102|77:112,1,80,2|0,0:0|0:0,0:0:0:0:
39,186,20336,2,0,P|71:198|120:188,1,80,2|0,0:0|0:0,0:0:0:0:
203,190,21077,1,0,0:0:0:0:
203,190,21448,2,0,P|295:119|404:182,1,240,2|0,0:0|0:0,0:0:0:0:
406,254,22929,6,0,P|314:325|205:262,1,240,2|0,0:0|0:0,0:0:0:0:
283,223,24411,1,2,0:0:0:0:
199,74,25151,5,0,0:0:0:0:
121,115,25522,1,2,0:0:0:0:
256,228,26262,1,2,0:0:0:0:
388,112,27003,6,0,B|435:174|388:222|340:270|388:336,1,240,4|8,1:0|0:0,0:0:0:0:
306,370,28485,2,0,P|274:338|150:342,1,160
88,376,29596,1,8,0:0:0:0:
88,288,29966,6,0,L|57:169,2,120,0|0|8,0:0|0:0|0:0,0:0:0:0:
168,251,31448,2,0,P|188:187|248:159,2,120,8|8|8,3:0|3:0|3:0,0:0:0:0:
255,246,32929,6,0,P|300:217|239:73,1,240,4|8,3:0|0:0,0:0:0:0:
166,35,34411,2,0,P|228:70|385:16,1,240,0|8,0:0|0:0,0:0:0:0:
461,54,35892,6,0,L|492:173,2,120,0|0|8,0:0|0:0|0:0,0:0:0:0:
381,91,37374,2,0,P|361:155|301:183,2,120,8|8|8,3:0|3:0|3:0,0:0:0:0:
293,95,38855,6,0,B|253:111|221:79|173:95,1,120,4|0,3:0|0:0,0:0:0:0:
77,183,39966,1,8,0:0:0:0:
120,259,40336,1,8,0:3:0:0:
256,192,40429,12,0,43670,0:0:0:0:
59,257,44781,6,0,P|112:238|212:283,1,160,4|0,0:0|0:0,0:0:0:0:
281,231,45892,1,8,0:0:0:0:
281,231,46262,2,0,P|373:267|426:248,1,160
484,180,47374,6,0,P|464:132|489:27,2,160,8|8|8,0:0|0:0|0:0,0:0:0:0:
426,248,49225,1,2,0:0:0:0:
296,128,49966,1,2,0:0:0:0:
168,248,50707,5,4,0:0:0:0:
168,248,51077,2,0,P|105:224|88:128,1,160,8|8,0:0|0:0,0:0:0:0:
168,161,52188,1,0,0:0:0:0:
167,74,52559,2,0,P|230:98|247:194,1,160,8|8,0:0|0:0,0:0:0:0:
250,269,53670,6,0,P|266:298|396:317,2,160,0|0|0,0:0|0:0|0:0,0:0:0:0:
255,93,55892,1,0,0:0:0:0:
388,205,56633,5,4,0:0:0:0:
388,205,57003,2,0,B|346:236|314:205|282:172|238:205,1,160,8|8,0:0|0:0,0:0:0:0:
200,284,58114,1,0,0:0:0:0:
125,237,58485,2,0,P|88:160|102:78,1,160,8|8,0:0|0:0,0:0:0:0:
167,33,59596,5,0,0:0:0:0:
210,109,59966,2,0,B|268:151|268:151|292:168|328:176|359:159,1,160,8|8,0:0|0:0,0:0:0:0:
321,78,61077,2,0,L|250:27,3,80,2|10|2|10,0:0|0:0|0:0|0:0,0:0:0:0:
167,33,62559,5,4,0:0:0:0:
167,33,62929,2,0,P|122:78|142:176,1,160,8|8,0:0|0:0,0:0:0:0:
208,214,64040,1,0,0:0:0:0:
208,214,64411,2,0,P|220:303|175:348,1,160,8|8,0:0|0:0,0:0:0:0:
86,341,65522,5,0,0:0:0:0:
136,268,65892,2,0,L|301:308,1,160,8|8,0:0|0:0,0:0:0:0:
369,265,67003,5,0,0:0:0:0:
256,129,67744,1,8,0:0:0:0:
143,265,68485,1,4,0:0:0:0:
128,128,80336,6,0,P|256:44|384:128,1,320,2|2,0:0|0:0,0:0:0:0:
256,192,82003,12,0,84781,0:0:0:0:
116,152,86262,6,0,L|104:244,1,80,2|0,0:0|0:0,0:0:0:0:
188,260,87003,2,0,L|200:168,1,80,2|0,0:0|0:0,0:0:0:0:
254,112,87744,5,2,0:0:0:0:
338,87,88114,1,8,0:0:0:0:
409,138,88485,1,2,0:0:0:0:
407,225,88855,1,8,0:0:0:0:
334,275,89225,6,0,P|262:264|221:191,2,160,4|8|0,0:0|0:0|0:0,0:0:0:0:
419,297,91077,1,0,0:0:0:0:
396,213,91448,2,0,L|426:124,1,80,8|0,0:0|0:0,0:0:0:0:
367,67,92188,6,0,P|302:102|214:92,1,160,4|8,0:0|0:0,0:0:0:0:
132,73,93299,1,0,0:0:0:0:
50,105,93670,2,0,P|32:157|71:255,1,160,0|8,0:0|0:0,0:0:0:0:
125,317,94781,1,0,0:0:0:0:
192,260,95151,6,0,P|233:246|339:288,2,160,4|8|0,0:0|0:0|0:0,0:0:0:0:
109,291,97003,1,0,0:0:0:0:
123,204,97374,2,0,L|103:115,1,80,8|0,0:0|0:0,0:0:0:0:
42,64,98114,6,0,P|73:88|195:84,1,160,4|8,0:0|0:0,0:0:0:0:
260,138,99225,1,0,0:0:0:0:
268,51,99596,2,0,P|383:50|414:74,1,160,0|8,0:0|0:0,0:0:0:0:
471,142,100707,1,0,0:0:0:0:
471,142,101077,6,0,P|431:201|450:300,1,160,4|8,0:0|0:0,0:0:0:0:
432,373,102188,1,0,0:0:0:0:
360,321,102559,2,0,L|276:295,1,80
289,209,103299,2,0,L|205:183,1,80,8|0,0:0|0:0,0:0:0:0:
127,208,104040,6,0,P|160:112|212:96,2,160,4|8|0,0:0|0:0|0:0,0:0:0:0:
190,269,105892,1,0,0:0:0:0:
212,185,106262,2,0,P|255:174|288:139,1,80,8|0,0:0|0:0,0:0:0:0:
318,70,107003,6,0,P|330:135|414:195,1,160,4|8,0:0|0:0,0:0:0:0:
483,221,108114,1,0,0:0:0:0:
483,221,108485,2,0,P|423:216|337:275,1,160,0|8,0:0|0:0,0:0:0:0:
286,337,109596,1,0,0:0:0:0:
286,337,109966,6,0,L|202:308,1,80,4|0,0:0|0:0,0:0:0:0:
130,273,110707,2,0,P|105:229|139:126,1,160,8|0,0:0|0:0,0:0:0:0:
219,105,111818,1,0,0:0:0:0:
219,105,112188,2,0,P|247:81|262:28,1,80,8|0,0:0|0:0,0:0:0:0:
349,38,112929,6,0,P|336:104|277:174,1,160,4|8,0:0|0:0,0:0:0:0:
199,214,114040,1,0,0:0:0:0:
199,214,114411,2,0,P|244:204|352:254,1,160,0|8,0:0|0:0,0:0:0:0:
411,304,115522,1,0,0:0:0:0:
447,223,115892,6,0,L|453:131,2,80,4|0|0,0:0|0:0|1:0,0:0:0:0:
411,304,117003,1,0,2:0:0:0:
331,341,117374,2,0,B|266:389|217:341|169:292|101:341,1,240,2|8,2:0|0:0,0:0:0:0:
54,267,118855,5,4,0:0:0:0:
112,201,119225,2,0,P|188:200|257:155,1,160,8|8,0:0|0:0,0:0:0:0:
270,68,120336,1,0,0:0:0:0:
270,68,120707,2,0,L|328:229,1,160,8|8,0:0|0:0,0:0:0:0:
389,278,121818,6,0,P|330:307|245:256,1,160
216,186,122929,1,8,0:0:0:0:
186,103,123299,2,0,L|104:65,1,80,2|10,0:0|0:0,0:0:0:0:
57,138,124040,2,0,L|139:176,1,80,2|10,0:0|0:0,0:0:0:0:
159,254,124781,1,4,0:0:0:0:
217,187,125151,6,0,P|252:166|365:206,1,160,8|8,0:0|0:0,0:0:0:0:
410,269,126262,1,0,0:0:0:0:
410,269,126633,2,0,L|404:99,1,160,8|8,0:0|0:0,0:0:0:0:
338,50,127744,5,0,0:0:0:0:
338,50,128114,2,0,P|299:91|193:97,1,160,8|8,0:0|0:0,0:0:0:0:
135,40,129225,2,0,P|111:101|169:183,2,160,2|2|6,0:0|0:0|0:0,0:0:0:0:
200,100,131077,6,0,L|192:269,1,160,8|8,0:0|0:0,0:0:0:0:
254,322,132188,1,0,0:0:0:0:
312,255,132559,2,0,P|365:198|454:182,1,160,8|8,0:0|0:0,0:0:0:0:
496,250,133670,2,0,L|487:333,2,80,0|8|0,0:0|0:0|0:0,0:0:0:0:
442,180,134781,5,8,0:0:0:0:
364,141,135151,2,0,P|274:164|238:222,2,160,2|2|4,0:0|0:0|0:0,0:0:0:0:
450,123,137003,6,0,L|306:51,1,160,8|8,0:0|0:0,0:0:0:0:
218,50,138114,1,0,0:0:0:0:
147,103,138485,2,0,P|129:163|200:234,1,160,8|8,0:0|0:0,0:0:0:0:
275,225,139596,5,0,0:0:0:0:
275,225,139966,2,0,P|333:293|320:355,1,160,8|8,0:0|0:0,0:0:0:0:
245,308,141077,1,2,0:0:0:0:
167,266,141448,1,10,0:0:0:0:
150,179,141818,2,0,P|155:142|183:104,1,80,2|10,0:0|0:0,0:0:0:0:
254,63,142559,5,4,0:0:0:0:
254,63,142929,2,0,P|214:83|103:48,1,160,8|8,0:0|0:0,0:0:0:0:
22,32,144040,1,0,0:0:0:0:
5,118,144411,2,0,L|35:276,1,160,8|8,0:0|0:0,0:0:0:0:
119,301,145522,5,0,0:0:0:0:
184,241,145892,2,0,P|239:226|326:280,1,160,8|8,0:0|0:0,0:0:0:0:
399,319,147003,2,0,L|438:231,1,80,2|10,0:0|0:0,0:0:0:0:
371,180,147744,2,0,L|410:92,1,80,2|10,0:0|0:0,0:0:0:0:
344,40,148485,5,4,0:0:0:0:
287,107,148855,2,0,P|240:134|123:113,1,160,8|8,0:0|0:0,0:0:0:0:
71,65,149966,1,0,0:0:0:0:
71,65,150336,2,0,L|116:235,1,160,8|8,0:0|0:0,0:0:0:0:
173,283,151448,5,0,0:0:0:0:
259,297,151818,2,0,P|334:282|383:214,1,160,8|8,0:0|0:0,0:0:0:0:
348,136,152929,2,0,L|258:103,1,80,2|10,0:0|0:0,0:0:0:0:
201,159,153670,2,0,L|111:126,1,80,2|10,0:0|0:0,0:0:0:0:
108,45,154411,5,0,0:0:0:0:
39,100,154781,1,2,0:0:0:0:
108,244,155522,1,0,0:0:0:0:
194,225,155892,1,2,0:0:0:0:
233,145,156262,1,0,0:0:0:0:
