osu file format v9

[General]
AudioFilename: one thing.mp3
AudioLeadIn: 0
PreviewTime: 19073
Countdown: 0
SampleSet: Soft
StackLeniency: 0.7
Mode: 0
LetterboxInBreaks: 0

[Editor]
Bookmarks: 30411,43167
DistanceSpacing: 1
BeatDivisor: 4
GridSize: 4

[Metadata]
Title:One Thing
Artist:One Direction
Creator:Kiddo-Kun
Version:Easy
Source:
Tags:Death_the_Kid Beuchi-chan

[Difficulty]
HPDrainRate:3
CircleSize:3
OverallDifficulty:3
ApproachRate:3
SliderMultiplier:1
SliderTickRate:1

[Events]
//Background and Video events
0,0,"blackandwhite.jpg"
//Break Periods
2,68507,70846
2,136538,150216
//Storyboard Layer 0 (Background)
Sprite,Background,Centre,"blackandwhite.jpg",320,240 S,0,0,,0.625 F,0,19073,,1
Sprite,Background,Centre,"SB\1.jpg",320,240 F,2,3782,4255,0,0.5 F,0,19373,19374,0.5,0 F,0,45829,,1 F,0,48664,,0 F,0,68034,,1 F,0,72286,,0 F,0,98743,,1 F,0,101577,,0 F,0,136538,,0.5 F,0,147877,151656,0.5,1 F,0,155436,,0 F,0,192286,,1
Sprite,Background,Centre,"SB\2.jpg",320,240 F,0,19136,19373,0,1 F,0,34491,,0 F,0,151656,155436,0,1 F,0,157325,,0
Sprite,Background,Centre,"SB\4.jpg",320,240 F,0,34491,,1 F,0,45829,46066,1,0 F,0,54333,,1 F,0,55278,,0 F,0,65436,,1 F,0,68034,,0 F,0,72286,,1 F,0,98743,99215,1,0 F,0,107247,,1 F,0,108192,,0 F,0,122365,,1 F,0,123310,,0 F,0,133467,,1 F,0,136538,138428,1,0 F,0,155436,157325,0,1 F,0,158270,,0 F,0,190160,,1 F,0,192286,192759,1,0
Sprite,Background,Centre,"SB\5.jpg",320,240 F,0,49609,,1 F,0,54333,54806,1,0 F,0,54806,55278,1,0 F,0,55278,,1 F,0,65436,66144,1,0 F,0,66144,66617,1,0 F,0,102522,,1 F,0,107247,107719,1,0 F,0,107719,108192,1,0 F,0,108192,,1 F,0,116696,,0 F,0,117640,,1 F,0,122365,122837,1,0 F,0,122837,123310,1,0 F,0,123310,,1 F,0,133467,134176,1,0 F,0,134176,134648,1,0 F,0,159215,,1 F,0,173388,,0 F,0,174333,,1 F,0,190160,190869,1,0 F,0,190869,191341,1,0
Sprite,Background,Centre,"SB\3.jpg",320,240 L,37562,1 S,0,0,,1 F,2,0,236,0,1 F,1,236,472,1,0 S,1,236,472,1,1.02 L,41341,1 S,0,0,,1 F,2,0,236,0,1 F,1,236,472,1,0 S,1,236,472,1,1.02 L,45121,1 S,0,0,,1 F,2,0,236,0,1 F,1,236,472,1,0 S,1,236,472,1,1.02 L,75357,1 S,0,0,,1 F,2,0,236,0,1 F,1,236,472,1,0 S,1,236,472,1,1.02 L,79136,1 S,0,0,,1 F,2,0,236,0,1 F,1,236,472,1,0 S,1,236,472,1,1.02 L,82916,1 S,0,0,,1 F,2,0,236,0,1 F,1,236,472,1,0 S,1,236,472,1,1.02 L,86696,1 S,0,0,,1 F,2,0,236,0,1 F,1,236,472,1,0 S,1,236,472,1,1.02 L,90475,1 S,0,0,,1 F,2,0,236,0,1 F,1,236,472,1,0 S,1,236,472,1,1.02 L,94255,1 S,0,0,,1 F,2,0,236,0,1 F,1,236,472,1,0 S,1,236,472,1,1.02 L,98034,1 S,0,0,,1 F,2,0,236,0,1 F,1,236,472,1,0 S,1,236,472,1,1.02 F,2,34255,34491,0,1 F,0,34491,34963,1,0 S,0,34491,34963,1,1.02 S,0,47719,,1 F,0,47719,48664,0,1 F,1,49609,49845,1,0 S,1,49609,49845,1,1.02 S,0,100633,,1 F,0,100633,101577,0,1 F,0,102522,102995,1,0 S,0,102522,102995,1,1.02 S,0,157325,,1 F,0,157325,158270,0,1 F,0,159215,159688,1,0 S,0,159215,159688,1,1.02
Sprite,Background,Centre,"SB\6.jpg",320,240 L,56696,1 S,0,0,,1 F,2,0,472,0,1 F,1,472,944,1,0 S,1,472,944,1,1.02 L,67562,1 S,0,0,,1 F,2,0,472,0,1 F,1,472,1180,1,0 S,1,472,1180,1,1.02 L,72050,1 S,0,0,,1 F,2,0,236,0,1 F,1,236,708,1,0 S,1,236,708,1,1.02 L,109609,1 S,0,0,,1 F,2,0,472,0,1 F,1,472,944,1,0 S,1,472,944,1,1.02 L,124727,1 S,0,0,,1 F,2,0,472,0,1 F,1,472,944,1,0 S,1,472,944,1,1.02 L,135593,1 S,0,0,,1 F,2,0,472,0,1 F,1,472,1180,1,0 S,1,472,1180,1,1.02 L,166302,1 S,0,0,,1 F,2,0,472,0,1 F,1,472,944,1,0 S,1,472,944,1,1.02 L,181420,1 S,0,0,,1 F,2,0,472,0,1 F,1,472,944,1,0 S,1,472,944,1,1.02 S,0,115751,,1 F,0,115751,116696,0,1 F,0,117640,118113,1,0 S,0,117640,118113,1,1.02 S,0,172444,,1 F,0,172444,173388,0,1 F,0,174333,174806,1,0 S,0,174333,174806,1,1.02
//Storyboard Layer 1 (Fail)
//Storyboard Layer 2 (Pass)
//Storyboard Layer 3 (Foreground)
Sprite,Foreground,Centre,"SB\7.png",320,240 F,0,48664,49136,1,0 F,0,49136,49609,1,0 F,0,101577,102050,1,0 F,0,102050,102522,1,0 F,0,116696,117168,1,0 F,0,117168,117640,1,0 F,0,158270,158743,1,0 F,0,158743,159215,1,0 F,0,173388,173861,1,0 F,0,173861,174333,1,0 F,0,191577,192286,1,0 F,0,192286,192759,1,0
//Storyboard Sound Samples
//Background Colour Transformations
3,100,163,162,255

[TimingPoints]
475.579852579853,472.44094488189,4,2,1,40,1,0
15593,-100,4,2,0,5,0,0
16066,-100,4,2,0,13,0,0
16538,-100,4,2,0,20,0,0
17011,-100,4,2,0,30,0,0
17483,-100,4,2,0,40,0,0
19373,-100,4,2,2,50,0,0
19491,-100,4,2,2,65,0,0
34255,-100,4,2,2,50,0,0
34727,-100,4,2,2,70,0,0
45829,-100,4,2,2,40,0,0
49609,-100,4,2,2,75,0,1
56577,-100,4,1,2,75,0,1
56814,-100,4,2,2,75,0,1
64136,-100,4,1,2,75,0,1
64373,-100,4,2,2,75,0,1
68034,-100,4,2,2,75,0,0
102522,-100,4,2,2,85,0,1
117168,-100,4,2,2,85,0,0
117640,-100,4,2,2,85,0,1
124609,-100,4,1,2,85,0,1
124845,-100,4,2,2,85,0,1
136066,-100,4,2,2,85,0,0
151656,-100,4,2,2,30,0,0
158152,-100,4,1,2,70,0,0
159215,-100,4,2,2,85,0,1
166184,-100,4,1,2,85,0,1
166420,-100,4,2,2,85,0,1
173861,-100,4,2,2,85,0,0
174333,-100,4,2,2,95,0,1
181302,-100,4,1,2,95,0,1
181538,-100,4,2,2,95,0,1
192759,-100,4,2,2,85,0,0

[Colours]
Combo1 : 117,255,117
Combo2 : 255,128,64
Combo3 : 255,72,108
SliderBorder : 63,63,63

[HitObjects]
176,72,4255,2,0,B|144:176,1,100,0|2
76,240,5199,2,0,B|52:312|148:368|212:304,2,200,0|2|0
124,44,8034,6,0,B|180:44|212:92,1,100,0|2
302,88,8979,2,0,B|332:44|388:44,1,100,0|2
472,100,9924,2,0,B|424:188|300:188,1,200
164,326,11814,6,0,B|111:325|71:289,1,100,0|2
64,192,12759,2,0,B|117:191|155:156,1,100,0|2
188,60,13703,2,0,B|256:24|332:60,2,150,0|2|2
256,192,15593,12,2,18192
108,76,19373,6,0,B|208:56,1,100,4|2
305,56,20318,2,0,B|404:76,1,100,0|2
416,176,21262,2,0,B|440:228|388:264|388:264|400:324|324:332,1,200,0|2
134,330,23152,5,0
80,248,23625,1,2
128,160,24097,2,0,B|188:160|212:212,1,100,0|2
268,288,25042,2,0,B|384:296|440:184,1,200,0|2
304,44,26932,6,0,B|256:24|200:44,1,100,0|2
132,108,27877,1,0
52,164,28349,1,2
48,264,28822,2,0,B|24:336|120:392|184:328,1,200,0|2
256,268,30239,5,2
334,333,30711,2,0,B|392:392|488:336|464:264,1,200,0|2
464,168,32129,1,2
400,92,32601,2,0,B|344:104|296:56,1,100,0|2
204,66,33546,2,0,B|168:104|112:92,1,100,0|2
124,192,34491,5,4
188,272,34963,1,8
256,344,35436,1,0
328,272,35908,2,0,B|380:244|384:192,1,100,8|0
436,112,36853,1,8
348,64,37325,1,0
256,24,37798,5,8
164,64,38270,1,0
84,124,38743,2,0,B|56:224,2,100,8|0|8
164,64,40160,2,0,B|212:44|256:88|256:88|296:48|356:68,1,200,0|2
436,128,41577,5,8
432,224,42050,2,0,B|455:293|359:349|301:291,1,200,0|2
210,291,43467,2,8,B|152:349|56:293|80:224,2,200
256,192,45829,12,2,48664
156,72,49609,5,4
256,88,50081,1,8
356,72,50554,2,0,B|396:104|396:164,1,100,2|8
395,260,51499,2,0,B|368:356|259:320,2,150,0|2|8
395,160,53388,5,0
308,112,53861,1,8
208,112,54333,1,2
117,160,54806,1,8
117,260,55278,2,0,B|144:356|253:320,2,150,4|2|0
140,164,57168,6,0,B|152:108|212:92,1,100,4|8
307,94,58113,2,0,B|360:108|372:164,1,100,0|8
340,260,59058,2,2,B|288:260|256:308|256:308|236:260|168:260,1,200,2|0
256,76,60948,5,2
352,108,61420,1,8
444,148,61892,2,0,B|408:252,1,100,0|8
328,296,62837,2,0,B|256:336|184:296,2,150,2|0|0
336,192,64727,5,4
256,128,65199,1,8
176,192,65672,2,0,B|124:184|104:128,2,100,0|8|2
256,252,67089,1,8
336,192,67562,2,0,B|388:184|408:128,1,100,2|4
408,312,72286,5,4
433,215,72759,1,8
448,116,73231,2,0,B|448:64|404:32,1,100,2|8
312,76,74176,2,0,B|352:136|284:224|204:168,1,200,2|0
184,60,75593,1,8
84,72,76066,6,0,B|40:104|40:168,1,100,2|8
140,176,77011,2,0,B|184:208|184:272,1,100,0|8
256,332,77955,1,2
356,320,78428,1,8
432,248,78900,1,2
400,56,79845,6,0,B|304:20,1,100,2|8
207,17,80790,2,0,B|116:56,1,100,0|8
168,140,81735,2,0,B|200:192|308:192|344:140,1,200,2|0
436,100,83152,5,8
452,200,83625,2,0,B|432:320|292:304,1,200,2|0
256,220,85042,1,8
203,305,85514,2,0,B|80:320|60:200,1,200,2|0
60,102,86932,1,8
144,48,87404,6,0,B|196:64|212:124,1,100,4|8
304,116,88349,2,0,B|318:62|370:46,1,100,0|8
444,116,89294,2,0,B|430:170|378:186,1,100,2|8
308,256,90239,1,2
204,256,90711,5,8
140,180,91184,2,0,B|100:212|100:268,1,100,2|8
156,352,92129,2,0,B|368:352,1,200,0|2
412,268,93546,2,0,B|412:212|372:180,1,100,8|0
312,100,94491,5,8
216,120,94963,2,0,B|168:132|120:96,1,100,2|8
76,188,95908,2,0,B|128:208|126:270,1,100,0|8
184,352,96853,2,0,B|292:352|292:352|352:272,1,200,2|0
347,178,98270,1,2
256,192,98743,12,2,101577
368,80,102522,6,0,B|424:96|444:148,1,100,4|8
441,241,103467,2,0,B|424:288|368:304,1,100,0|8
256,324,104412,1,0
144,304,104885,2,0,B|88:288|70:241,2,100,8|0|8
256,324,106302,6,0,B|300:212,1,100,0|8
360,156,107247,2,0,B|328:56,1,100,0|8
232,44,108192,2,0,B|216:96|160:104|160:104|144:152|76:164,1,200
132,356,110081,6,0,B|184:348|208:292,1,100,4|8
305,295,111026,2,0,B|328:348|380:356,1,100,0|8
420,264,111971,1,0
412,164,112444,1,8
328,108,112916,1,0
128,108,113861,6,0,B|28:136,1,100,0|8
32,236,114806,2,0,B|44:296|132:320|180:280|192:236,1,200
256,176,116223,1,8
324,248,116696,2,0,B|332:280|380:320|468:296|480:236,1,200,2|4
404,184,118113,6,0,B|424:132|400:84,1,100,8|0
312,28,119058,1,8
232,88,119530,2,0,B|209:133|229:185,2,100,0|8|0
312,148,120948,1,8
368,220,121420,6,0,B|304:296,1,100,0|8
208,296,122365,2,0,B|144:220,1,100,0|8
192,132,123310,2,0,B|220:84|288:84|320:128,2,150,0|0|0
160,228,125199,6,0,B|200:260|208:316,1,100,4|8
308,312,126144,2,0,B|316:259|356:227,1,100,0|8
396,136,127089,2,0,B|448:136,2,50,0|0|8
328,64,128034,2,0,B|360:16,2,50,0|0|8
227,64,128979,6,0,B|176:24|156:60|135:96|84:64,2,150,0|0|8
297,134,130869,2,0,B|342:106|363:142|383:178|434:138,2,150,0|0|8
256,192,132759,12,4,136066
156,48,151656,22,0,B|107:62|88:115,2,100
256,32,153074,1,0
352,64,153546,2,0,B|400:84|420:144|400:204|352:228,1,200
164,284,155436,6,0,B|112:268|92:212,1,100
140,128,156381,2,0,B|192:112|212:56,1,100,0|0
304,60,157325,2,0,B|321:110|373:126,1,100,0|0
417,217,158270,2,0,B|400:268|348:284,1,100
256,320,159215,5,4
180,252,159688,1,8
120,172,160160,2,0,B|147:123|200:121|200:121|174:78|212:28,1,200,0|2
299,27,161577,2,0,B|338:78|312:121|312:121|365:123|392:172,1,200,8|8
336,252,162995,6,0,B|308:320|212:320|172:252,1,200
256,196,164412,1,8
312,112,164885,2,0,B|300:60|208:60|196:112,2,150
356,208,166774,6,0,B|388:244|388:244|388:304,1,100,4|8
308,352,167719,1,0
207,352,168192,1,8
136,280,168664,2,0,B|84:296,2,50,0|0|8
124,180,169609,2,0,B|60:180,2,50,0|0|8
256,192,170554,12,0,173388
356,312,174333,5,4
256,296,174805,1,8
156,312,175278,2,0,B|116:280|116:220,1,100,2|8
117,124,176223,2,0,B|153:48|253:64,2,150,0|2|8
117,224,178112,5,0
204,272,178585,1,8
304,272,179057,1,2
395,224,179530,1,8
395,124,180002,2,0,B|359:48|259:64,2,150,2|2|0
372,220,181892,6,0,B|360:276|300:292,1,100,4|8
205,290,182837,2,0,B|152:276|140:220,1,100,0|8
172,124,183782,2,2,B|232:124|256:76|256:76|276:124|344:124,1,200,2|0
256,308,185672,5,2
160,276,186144,1,8
68,236,186616,2,0,B|104:132,1,100,0|8
188,92,187561,2,0,B|256:52|340:92,2,150,2|0|8
176,192,189451,5,4
256,256,189923,1,8
336,192,190396,2,0,B|388:200|408:256,2,100,0|8|2
256,132,191813,1,8
176,192,192286,2,0,B|124:200|104:256,1,100,2|4
