osu file format v14

[General]
AudioFilename: One Direction - I Would.mp3
AudioLeadIn: 0
PreviewTime: 53440
Countdown: 0
SampleSet: Soft
StackLeniency: 0.3
Mode: 0
LetterboxInBreaks: 0
WidescreenStoryboard: 1

[Editor]
DistanceSpacing: 1.1
BeatDivisor: 4
GridSize: 4
TimelineZoom: 1

[Metadata]
Title:I Would
TitleUnicode:I Would
Artist:One Direction
ArtistUnicode:One Direction
Creator:Gero
Version:Normal?
Source:One Direction: This Is Us
Tags:Take Me Home Boy Band Irish Columbia Records Syco Music Sony Music Zayn Malik Harry Styles Louis Tomlinson Niall Horan Liam Payne Folk Rock Indie Inyuschan
BeatmapID:565526
BeatmapSetID:241206

[Difficulty]
HPDrainRate:4
CircleSize:3.5
OverallDifficulty:4
ApproachRate:5
SliderMultiplier:1.2
SliderTickRate:2

[Events]
//Background and Video events
0,0,"BG.jpg",0,0
Video,-965,"Video.flv"
//Break Periods
2,38581,44770
2,99292,105482
2,148621,160501
//Storyboard Layer 0 (Background)
//Storyboard Layer 1 (Fail)
//Storyboard Layer 2 (Pass)
//Storyboard Layer 3 (Foreground)
//Storyboard Sound Samples

[TimingPoints]
437,474.308300395257,4,2,0,60,1,0
53559,-100,4,1,0,60,0,1
61029,-100,4,1,0,60,0,0
61148,-100,4,1,0,60,0,1
66840,-100,4,1,0,60,0,0
68737,-100,4,2,0,60,0,0
114270,-100,4,1,0,60,0,1
121741,-100,4,1,0,60,0,0
121859,-100,4,1,0,60,0,1
129448,-100,4,1,0,60,0,0
133243,-100,4,2,0,60,0,0
165496,-100,4,1,0,60,0,1
172966,-100,4,1,0,60,0,0
173085,-100,4,1,0,60,0,1
180555,-100,4,1,0,60,0,0
180674,-100,4,1,0,60,0,1
188144,-100,4,1,0,60,0,0
188263,-100,4,1,0,60,0,1
193954,-100,4,1,0,60,0,0

[Colours]
Combo1 : 187,187,187
Combo2 : 255,0,0

[HitObjects]
156,52,8025,6,0,P|216:52|268:84,1,120,0|0,0:0|0:0,0:0:0:0:
304,136,8737,1,0,0:0:0:0:
304,136,8974,2,0,L|372:28,1,120
500,48,9923,2,0,L|369:262,1,240,0|0,0:0|0:0,0:0:0:0:
256,312,11346,1,0,0:0:0:0:
132,360,11820,6,0,P|88:360|28:304,1,120,0|0,0:0|0:0,0:0:0:0:
52,248,12531,1,0,0:0:0:0:
52,248,12769,2,0,L|124:144,1,120
24,60,13717,2,0,B|68:16|132:16|132:16|256:16,1,240
360,96,15140,1,0,0:0:0:0:
452,192,15614,6,0,P|480:276|452:360,2,180,0|0|0,0:0|0:0|0:0,0:0:0:0:
347,276,17512,2,0,B|288:280|256:345|256:345|224:280|165:276,1,240,0|0,0:0|0:0,0:0:0:0:
256,180,18935,1,0,0:0:0:0:
176,76,19409,6,0,P|256:41|336:76,2,180,0|0|0,0:0|0:0|0:0,0:0:0:0:
176,208,21306,2,0,P|256:243|336:208,2,180,0|0|0,0:0|0:0|0:0,0:0:0:0:
68,136,23203,6,0,B|46:192|46:192|68:248,1,120
176,320,24152,2,0,B|198:264|198:264|176:208,1,120,0|0,0:0|0:0,0:0:0:0:
116,236,24863,1,0,0:0:0:0:
56,264,25101,2,0,L|296:264,1,240,0|0,0:0|0:0,0:0:0:0:
389,357,26523,1,0,0:0:0:0:
482,263,26998,6,0,P|500:207|482:151,1,120
435,103,27709,1,0,0:0:0:0:
388,56,27946,2,0,B|336:56|336:56|300:56|272:84,1,120
160,20,28895,6,0,L|52:240,1,240
60,368,30318,1,0,0:0:0:0:
180,312,30792,2,0,P|256:353|332:312,2,180,0|0|0,0:0|0:0|0:0,0:0:0:0:
180,180,32689,2,0,P|256:139|332:180,2,180,0|0|0,0:0|0:0|0:0,0:0:0:0:
86,273,34587,5,0,0:0:0:0:
192,352,35061,1,0,0:0:0:0:
256,372,35298,1,0,0:0:0:0:
320,352,35535,1,0,0:0:0:0:
426,273,36010,1,0,0:0:0:0:
324,191,36484,2,0,P|256:61|188:191,1,360,0|0,0:0|0:0,0:0:0:0:
256,304,38381,5,0,0:0:0:0:
60,24,45970,6,0,B|92:144,1,120
52,192,46682,1,0,0:0:0:0:
22,244,46919,2,0,B|52:360,1,120
180,332,47867,2,0,B|224:336|256:375|256:375|288:336|332:332,2,180,0|0|0,0:0|0:0|0:0,0:0:0:0:
180,200,49765,2,0,B|224:196|256:157|256:157|288:196|332:200,2,180,0|0|0,0:0|0:0|0:0,0:0:0:0:
256,308,51662,5,0,0:0:0:0:
256,308,53085,1,0,0:0:0:0:
332,200,53559,5,0,0:0:0:0:
400,88,54033,2,0,B|332:56|268:88|268:88|156:88,1,240
84,192,55456,2,0,P|84:252|120:300,1,120
88,356,56168,2,0,L|216:356,1,120
264,324,56879,1,0,0:0:0:0:
380,260,57353,6,0,B|420:260|420:260|460:260|488:224,1,120
488,160,58065,2,0,B|460:124|420:124|420:124|380:124,1,120
320,96,58776,1,0,0:0:0:0:
208,28,59251,2,0,L|88:56,1,120,0|0,0:0|0:0,0:0:0:0:
184,148,60199,2,0,L|64:176,1,120,0|0,0:0|0:0,0:0:0:0:
156,276,61148,6,0,B|216:296|256:340|256:340|296:296|356:276,1,240
444,175,62571,1,0,0:0:0:0:
476,116,62808,1,0,0:0:0:0:
444,60,63045,2,0,B|388:36|388:36|328:36,1,120
268,12,63757,2,0,L|312:132,1,120
256,164,64468,1,0,0:0:0:0:
180,272,64942,6,0,P|168:332|192:384,1,120
256,364,65654,1,0,0:0:0:0:
320,383,65891,2,0,P|344:329|332:272,1,120
440,192,66840,5,0,0:0:0:0:
256,116,67551,1,0,0:0:0:0:
72,192,68263,1,0,0:0:0:0:
156,292,68737,6,0,P|256:348|356:292,1,240
440,192,70160,1,0,0:0:0:0:
384,156,70397,1,0,0:0:0:0:
328,120,70634,2,0,P|309:64|328:8,1,120,0|0,0:0|0:0,0:0:0:0:
384,44,71346,1,0,0:0:0:0:
440,80,71583,2,0,P|459:136|440:192,1,120,0|0,0:0|0:0,0:0:0:0:
404,248,72294,1,0,0:0:0:0:
360,296,72531,6,0,L|480:296,2,120,0|0|0,0:0|0:0|0:0,0:0:0:0:
256,376,73954,1,0,0:0:0:0:
204,336,74191,1,0,0:0:0:0:
152,296,74429,2,0,L|32:296,2,120,0|0|0,0:0|0:0|0:0,0:0:0:0:
256,216,75852,1,0,0:0:0:0:
360,136,76326,5,0,0:0:0:0:
256,52,76800,1,0,0:0:0:0:
152,136,77274,1,0,0:0:0:0:
256,216,77749,1,0,0:0:0:0:
308,256,77986,1,0,0:0:0:0:
360,296,78223,6,0,L|480:296,1,120,0|0,0:0|0:0,0:0:0:0:
488,232,78935,2,0,B|499:204|499:204|488:176,1,60,0|0,0:0|0:0,0:0:0:0:
452,120,79409,2,0,B|441:92|441:92|452:64,1,60,0|0,0:0|0:0,0:0:0:0:
328,24,80120,6,0,B|208:24|208:24|156:24|103:77,1,240,0|0,0:0|0:0,0:0:0:0:
44,192,81543,1,0,0:0:0:0:
103,307,82018,2,0,B|156:360|208:360|208:360|328:360,1,240,0|0,0:0|0:0,0:0:0:0:
368,308,83203,1,0,0:0:0:0:
368,308,83440,1,0,0:0:0:0:
432,188,83915,6,0,P|450:132|432:76,1,120,0|0,0:0|0:0,0:0:0:0:
312,20,84863,2,0,P|294:76|312:132,1,120,0|0,0:0|0:0,0:0:0:0:
376,108,85575,1,0,0:0:0:0:
432,76,85812,2,0,L|192:76,1,240,0|0,0:0|0:0,0:0:0:0:
148,128,86998,1,0,0:0:0:0:
148,128,87235,1,0,0:0:0:0:
43,212,87709,6,0,P|79:317|190:309,1,240,0|0,0:0|0:0,0:0:0:0:
256,196,89132,1,0,0:0:0:0:
321,309,89606,2,0,P|432:317|468:212,1,240,0|0,0:0|0:0,0:0:0:0:
364,128,91029,1,0,0:0:0:0:
364,128,91267,1,0,0:0:0:0:
364,128,91504,6,0,L|260:64,1,120
153,133,92452,2,0,L|256:196,1,120,0|0,0:0|0:0,0:0:0:0:
356,280,93401,2,0,P|256:336|156:280,1,240,0|0,0:0|0:0,0:0:0:0:
104,236,94587,1,0,0:0:0:0:
56,192,94824,1,0,0:0:0:0:
92,64,95298,6,0,B|137:24|137:24|196:24,1,120,0|0,0:0|0:0,0:0:0:0:
256,52,96010,1,0,0:0:0:0:
316,24,96247,2,0,B|375:24|375:24|420:64,1,120,0|0,0:0|0:0,0:0:0:0:
456,192,97195,2,0,P|256:305|56:192,1,480
304,188,106682,6,0,P|322:244|304:300,1,120
256,348,107394,1,0,0:0:0:0:
212,300,107630,2,0,P|193:243|211:187,1,120,0|0,0:0|0:0,0:0:0:0:
180,60,108579,2,0,B|224:56|256:17|256:17|288:56|332:60,2,180,0|0|0,0:0|0:0|0:0,0:0:0:0:
180,192,110477,2,0,B|224:196|256:235|256:235|288:196|332:192,2,180,0|0|0,0:0|0:0|0:0,0:0:0:0:
80,108,112374,5,0,0:0:0:0:
188,32,112848,1,0,0:0:0:0:
324,32,113322,1,0,0:0:0:0:
432,108,113796,1,0,0:0:0:0:
332,191,114270,6,0,P|256:151|180:192,2,180,0|0|0,0:0|0:0|0:0,0:0:0:0:
312,324,116168,2,0,B|256:302|256:302|200:324,1,120
148,364,116880,2,0,L|76:256,1,120
28,224,117591,1,0,0:0:0:0:
84,100,118065,6,0,B|144:84|144:116|204:100,1,120
252,56,118776,2,0,L|212:176,1,120
256,220,119488,1,0,0:0:0:0:
344,316,119963,2,0,P|404:316|452:280,1,120,0|0,0:0|0:0,0:0:0:0:
362,185,120911,2,0,P|303:185|256:220,1,120,0|0,0:0|0:0,0:0:0:0:
344,316,121859,6,0,L|460:96,1,240,0|0,0:0|0:0,0:0:0:0:
336,48,123283,1,0,0:0:0:0:
336,48,123520,1,0,0:0:0:0:
336,48,123757,2,0,B|276:48|276:48|228:12,1,120
180,56,124468,2,0,B|132:20|132:20|72:20,1,120
48,80,125180,1,0,0:0:0:0:
116,192,125654,6,0,P|134:248|116:304,1,120
84,360,126365,2,0,B|144:360|144:360|200:384,1,120
256,348,127077,1,0,0:0:0:0:
372,284,127551,6,0,L|464:316,2,90,0|0|0,0:0|0:0|0:0,0:0:0:0:
316,248,128500,2,0,B|294:192|294:192|316:136,1,120,0|0,0:0|0:0,0:0:0:0:
428,64,129449,6,0,B|388:8|308:8|308:8|200:8,1,240
108,96,130872,1,0,0:0:0:0:
32,204,131346,2,0,P|13:259|32:315,1,120,0|0,0:0|0:0,0:0:0:0:
56,376,132058,1,0,0:0:0:0:
56,376,132295,2,0,L|192:364,1,120,0|0,0:0|0:0,0:0:0:0:
308,352,133243,6,0,B|308:252|204:252|204:144,1,240,0|0,0:0|0:0,0:0:0:0:
256,24,134666,1,0,0:0:0:0:
308,144,135140,2,0,B|308:252|204:252|204:352,1,240,0|0,0:0|0:0,0:0:0:0:
108,260,136564,1,0,0:0:0:0:
8,176,137037,6,0,L|96:88,1,120,0|0,0:0|0:0,0:0:0:0:
92,24,137749,2,0,B|140:60|140:60|204:60,1,120
256,96,138461,1,0,0:0:0:0:
324,208,138935,2,0,P|360:288|324:368,2,180,0|0|0,0:0|0:0|0:0,0:0:0:0:
188,208,140832,6,0,P|152:288|188:368,2,180,0|0|0,0:0|0:0|0:0,0:0:0:0:
256,96,142729,2,0,L|380:96,1,120
416,44,143440,2,0,P|434:100|416:156,1,120,0|0,0:0|0:0,0:0:0:0:
360,192,144152,1,0,0:0:0:0:
268,288,144626,6,0,L|144:288,1,120
108,340,145337,2,0,P|90:284|108:228,1,120,0|0,0:0|0:0,0:0:0:0:
164,192,146049,1,0,0:0:0:0:
256,96,146523,2,0,L|64:48,2,180,0|0|0,0:0|0:0|0:0,0:0:0:0:
348,192,148421,5,0,0:0:0:0:
256,192,161701,12,0,165021,0:0:0:0:
256,76,165496,6,0,P|316:76|360:120,1,120
416,80,166207,2,0,L|356:200,1,120
372,252,166919,1,0,0:0:0:0:
256,308,167393,2,0,P|196:308|152:264,1,120
96,304,168104,2,0,L|156:184,1,120
140,132,168816,1,0,0:0:0:0:
256,68,169290,6,0,B|344:68|344:68|352:64|352:64|444:64,2,180,0|0|0,0:0|0:0|0:0,0:0:0:0:
140,132,171188,2,0,B|80:132|80:132|24:172,1,120,0|0,0:0|0:0,0:0:0:0:
28,232,171899,2,0,P|9:288|27:344,1,120
92,364,172610,1,0,0:0:0:0:
204,296,173085,6,0,L|380:348,2,180,0|0|0,0:0|0:0|0:0,0:0:0:0:
312,224,174982,2,0,L|136:172,2,180,0|0|0,0:0|0:0|0:0,0:0:0:0:
428,164,176879,2,0,P|446:107|428:51,1,120
488,24,177591,2,0,L|360:8,1,120
316,48,178302,1,0,0:0:0:0:
208,120,178776,2,0,P|128:120|80:40,2,180,0|0|0,0:0|0:0|0:0,0:0:0:0:
316,48,180674,6,0,B|264:144|264:144|248:156|248:156|192:256,1,240,0|0,0:0|0:0,0:0:0:0:
256,368,182097,1,0,0:0:0:0:
318,252,182571,2,0,B|264:156|264:156|248:144|248:144|196:48,1,240,0|0,0:0|0:0,0:0:0:0:
124,160,183994,1,0,0:0:0:0:
72,280,184468,6,0,P|120:316|148:368,1,120
200,328,185180,2,0,B|256:307|256:307|312:328,1,120
363,368,185891,1,0,0:0:0:0:
440,280,186365,6,0,P|458:224|440:168,1,120
320,108,187314,2,0,P|301:164|319:220,1,120,0|0,0:0|0:0,0:0:0:0:
380,192,188025,1,0,0:0:0:0:
440,168,188263,6,0,L|188:168,1,240
84,104,189686,1,0,0:0:0:0:
196,36,190160,2,0,B|256:44|256:44|316:36,1,120,0|0,0:0|0:0,0:0:0:0:
380,28,190871,2,0,L|300:136,1,120
256,168,191583,1,0,0:0:0:0:
176,272,192057,2,0,P|256:307|336:272,2,180,0|0|0,0:0|0:0|0:0,0:0:0:0:
176,140,193954,6,0,P|256:105|336:140,2,180,0|0|0,0:0|0:0|0:0,0:0:0:0:
176,272,195852,2,0,P|256:307|336:272,2,180,0|0|0,0:0|0:0|0:0,0:0:0:0:
100,164,197749,2,0,B|256:39|256:39|412:164,1,400,0|0,0:0|0:0,0:0:0:0:
