osu file format v13

[General]
AudioFilename: One Direction - Diana.mp3
AudioLeadIn: 0
PreviewTime: 36434
Countdown: 0
SampleSet: Soft
StackLeniency: 0.3
Mode: 0
LetterboxInBreaks: 0
EpilepsyWarning: 1
WidescreenStoryboard: 0

[Editor]
Bookmarks: 8963,109428,125997
DistanceSpacing: 1.2
BeatDivisor: 4
GridSize: 4
TimelineZoom: 1

[Metadata]
Title:Diana
TitleUnicode:Diana
Artist:One Direction
ArtistUnicode:One Direction
Creator:Gero
Version:Relaxing
Source:
Tags:Boy Band Irish Columbia Records Syco Music Sony Music Zayn Malik Harry Styles Louis Tomlinson Niall Horan Liam Payne Folk Rock Indie -Bakari-
BeatmapID:427113
BeatmapSetID:156698

[Difficulty]
HPDrainRate:1.5
CircleSize:3
OverallDifficulty:1.5
ApproachRate:3.5
SliderMultiplier:1
SliderTickRate:2

[Events]
//Background and Video events
0,0,"BG.jpg",0,0
//Break Periods
2,59395,63048
2,109627,124792
//Storyboard Layer 0 (Background)
//Storyboard Layer 1 (Fail)
//Storyboard Layer 2 (Pass)
//Storyboard Layer 3 (Foreground)
Sprite,Foreground,Centre,"SB\Info\Mapped by Gero.png",320,240 S,0,111521,,0.4346666 M,0,111521,111870,427,444,451,444 F,0,111521,111870,0,1 F,0,111870,115358,1 F,0,115358,116056,1,0
//Storyboard Sound Samples
//Background Colour Transformations
3,100,163,162,255

[TimingPoints]
591,348.837209302326,4,2,1,70,1,0
11608,-100,4,2,2,70,0,0
11753,-100,4,2,2,60,0,0
12102,-100,4,2,2,50,0,0
12451,-100,4,2,2,40,0,0
12800,-100,4,2,2,30,0,0
13149,-100,4,2,2,20,0,0
13497,-100,4,2,2,10,0,0
13846,-100,4,2,2,20,0,0
14195,-100,4,2,2,70,0,0
36870,-100,4,1,1,70,0,1
47945,-100,4,1,1,70,0,0
48032,-100,4,1,1,70,0,1
59195,-100,4,2,1,70,0,0
64428,-100,4,2,2,70,0,0
64777,-100,4,2,2,70,0,0
73323,-100,4,2,2,40,0,0
73410,-100,4,2,2,70,0,0
73672,-100,4,2,2,40,0,0
73759,-100,4,2,2,70,0,0
74021,-100,4,2,2,40,0,0
74108,-100,4,2,2,70,0,0
74370,-100,4,2,2,40,0,0
74457,-100,4,2,2,70,0,0
74544,-100,4,2,2,40,0,0
74631,-100,4,2,2,70,0,0
75067,-100,4,2,2,40,0,0
75154,-100,4,2,2,70,0,0
87102,-100,4,1,1,70,0,1
98178,-100,4,1,1,70,0,0
98265,-100,4,1,1,70,0,1
109428,-100,4,2,1,70,0,0
125997,-100,4,2,2,70,0,0
126172,-100,4,2,3,70,0,0
129311,-100,4,2,2,70,0,0
131724,-100,4,2,2,70,0,0
132451,-100,4,2,4,70,0,0
132538,-100,4,2,2,70,0,0
133149,-100,4,2,4,70,0,0
133236,-100,4,2,2,70,0,0
133846,-100,4,2,4,70,0,0
133934,-100,4,2,2,70,0,0
134195,-100,4,2,1,70,0,0
134282,-100,4,2,2,70,0,0
135242,-100,4,2,4,70,0,0
135329,-100,4,2,2,70,0,0
135939,-100,4,2,4,70,0,0
136027,-100,4,2,2,70,0,0
136637,-100,4,2,4,70,0,0
136724,-100,4,2,2,70,0,0
136986,-100,4,2,1,70,0,0
137335,-100,4,1,1,70,0,1
142829,-100,4,1,1,70,0,0
142916,-100,4,1,1,70,0,1
154079,-100,4,1,1,70,0,0
176375,-100,4,2,1,70,0,0
179195,-100,4,2,4,70,0,0
179544,-100,4,2,4,60,0,0
179893,-100,4,2,4,50,0,0
180242,-100,4,2,4,40,0,0
180591,-100,4,2,4,30,0,0
180939,-100,4,2,4,20,0,0
181288,-100,4,2,4,15,0,0
181637,-100,4,2,4,10,0,0
181986,-100,4,2,4,5,0,0

[Colours]
Combo1 : 182,182,182
Combo2 : 154,196,226
Combo3 : 220,201,175
Combo4 : 199,190,201
Combo5 : 88,174,245
SliderBorder : 63,63,63

[HitObjects]
336,64,3381,6,0,P|256:13|176:64,1,200,4|2,1:0|0:0,0:0:0:0:
176,320,4777,2,0,P|256:371|336:320,1,200,2|4,0:0|1:0,0:0:0:0:
468,188,5997,2,0,B|416:192|384:152|384:152|352:168|332:212|332:212|304:172|256:164|256:164|196:140|160:60|256:-16|352:60|316:140|256:164|256:164|208:172|180:212|180:212|160:168|128:152|128:152|96:192|44:188,1,850,4|4,1:0|1:0,0:0:0:0:
176,320,9660,6,0,P|256:371|336:320,2,200,2|2|4,0:0|0:0|1:0,0:0:0:0:
256,152,11579,1,4,1:0:0:0:
256,192,11753,12,8,14195,0:0:0:0:
72,124,14893,6,0,P|60:172|72:220,1,100,8|0,0:0|0:0,0:0:0:0:
104,336,15591,1,8,0:0:0:0:
192,256,15939,2,0,B|232:260|256:290|256:290|280:260|320:256,2,150,2|2|8,0:0|0:0|0:0,0:0:0:0:
192,136,17335,6,0,B|232:132|256:102|256:102|280:132|320:136,2,150,2|2|8,0:0|0:0|0:0,0:0:0:0:
96,64,18730,1,2,0:0:0:0:
208,20,19079,2,0,P|256:8|304:20,1,100,8|0,0:0|0:0,0:0:0:0:
416,64,19777,1,8,0:0:0:0:
496,148,20125,6,0,B|512:188|496:216|476:248|496:296,2,150,2|2|8,0:0|0:0|0:0,0:0:0:0:
416,64,21521,2,0,P|456:40|508:36,2,100,2|8|0,0:0|0:0|0:0,0:0:0:0:
328,144,22567,1,8,0:0:0:0:
256,240,22916,6,0,B|208:240|208:240|148:240|116:296,2,150,2|2|8,0:0|0:0|0:0,0:0:0:0:
340,324,24311,2,0,B|388:324|388:324|448:324|480:268,2,150,2|2|8,0:0|0:0|0:0,0:0:0:0:
256,240,25707,5,2,0:0:0:0:
172,152,26056,2,0,P|256:106|340:152,1,200,8|8,0:0|0:0,0:0:0:0:
376,268,27102,2,0,P|336:300|316:344,1,100,2|8,0:0|0:0,0:0:0:0:
195,343,27800,2,0,P|174:298|136:268,1,100,0|8,0:0|0:0,0:0:0:0:
44,192,28497,5,2,0:0:0:0:
136,116,28846,2,0,B|188:84|232:112|272:136|332:112,1,200,8|8,0:0|0:0,0:0:0:0:
412,200,29893,2,0,L|434:51,2,150,2|2|8,0:0|0:0|0:0,0:0:0:0:
296,228,31288,6,0,L|273:376,2,150,2|2|8,0:0|0:0|0:0,0:0:0:0:
216,136,32684,1,2,0:0:0:0:
104,92,33032,2,0,P|132:48|176:20,2,100,8|0|8,0:0|0:0|0:0,0:0:0:0:
36,192,34079,5,2,0:0:0:0:
104,292,34428,2,0,P|132:336|176:364,2,100,8|0|8,0:0|0:0|0:0,0:0:0:0:
216,248,35474,2,0,B|232:212|295:192|295:192|232:172|216:136,1,200,2|0,0:0|0:0,0:0:0:0:
452,100,36870,6,0,P|485:192|452:284,1,200,4|2,0:0|0:0,0:0:0:0:
360,360,37916,1,8,0:0:0:0:
240,340,38265,2,0,L|132:352,1,100,2|8,0:0|0:0,0:0:0:0:
176,236,38963,2,0,L|284:224,1,100,2|8,0:0|0:0,0:0:0:0:
380,168,39660,5,4,0:0:0:0:
480,104,40009,2,0,P|492:55|480:7,2,100,8|2|8,0:0|0:0|0:0,0:0:0:0:
380,168,41056,2,0,P|346:260|380:352,1,200,2|2,0:0|0:0,0:0:0:0:
500,364,42102,1,8,0:0:0:0:
380,352,42451,6,0,L|180:372,1,200,4|2,0:0|0:0,0:0:0:0:
84,300,43497,1,8,0:0:0:0:
128,188,43846,2,0,P|140:139|128:91,1,100,2|8,0:0|0:0,0:0:0:0:
20,40,44544,2,0,P|7:88|19:136,1,100,2|8,0:0|0:0,0:0:0:0:
128,188,45242,5,4,0:0:0:0:
192,288,45591,2,0,B|240:316|256:362|256:362|272:316|320:288,2,200,8|8|8,0:0|0:0|0:0,0:0:0:0:
256,188,47335,1,2,0:0:0:0:
320,96,47684,1,8,0:0:0:0:
320,96,48032,6,0,L|520:76,2,200,4|2|2,0:0|0:0|0:0,0:0:0:0:
220,32,49777,2,0,L|112:44,1,100,8|2,0:0|0:0,0:0:0:0:
56,144,50474,1,8,0:0:0:0:
16,256,50823,6,0,P|84:324|184:324,1,200,4|2,0:0|0:0,0:0:0:0:
256,228,51870,1,8,0:0:0:0:
336,140,52218,2,0,B|300:97|300:97|212:97|212:97|176:140,1,200,2|2,0:0|0:0,0:0:0:0:
256,228,53265,1,8,0:0:0:0:
329,324,53615,6,0,P|426:324|496:256,1,200,4|2,0:0|0:0,0:0:0:0:
456,144,54660,1,8,0:0:0:0:
391,43,55009,2,0,B|324:12|324:12|248:12,2,150,2|2|8,0:0|0:0|0:0,0:0:0:0:
292,112,56404,6,0,P|216:116|152:64,2,150,4|2|8,0:0|0:0|0:0,0:0:0:0:
392,44,57800,2,0,L|348:248,2,200,4|2|4,0:0|0:0|1:0,0:0:0:0:
32,324,64428,5,8,0:0:0:0:
144,364,64777,2,0,P|232:364|304:280,1,200,2|0,0:0|0:0,0:0:0:0:
336,172,65823,1,8,0:0:0:0:
372,56,66172,2,0,L|212:28,2,150,2|2|8,0:0|0:0|0:0,0:0:0:0:
336,172,67567,6,0,L|496:200,2,150,2|2|8,0:0|0:0|0:0,0:0:0:0:
300,288,68963,2,0,L|140:260,2,150,2|2|8,0:0|0:0|0:0,0:0:0:0:
400,352,70358,5,2,0:0:0:0:
400,352,70707,2,0,B|432:296|408:240|408:240|472:184,1,200,8|8,0:0|0:0,0:0:0:0:
304,12,72102,2,0,B|272:68|296:124|296:124|232:180,1,200,8|8,0:0|0:0,0:0:0:0:
124,228,73149,6,0,P|256:353|388:228,2,400,2|2|2,0:0|0:3|0:0,0:0:0:0:
40,144,76288,5,8,0:0:0:0:
256,36,76986,1,8,0:0:0:0:
472,144,77684,1,8,0:0:0:0:
256,248,78381,1,8,0:0:0:0:
188,344,78730,6,0,P|256:372|324:344,2,150,2|2|8,0:0|0:0|0:0,0:0:0:0:
120,247,80125,2,0,P|188:220|256:248,2,150,2|2|8,0:0|0:0|0:0,0:0:0:0:
56,348,81521,5,2,0:0:0:0:
56,348,81870,2,0,L|56:136,1,200,8|8,0:0|0:0,0:0:0:0:
108,40,82916,2,0,P|152:16|204:16,1,100,2|8,0:0|0:0,0:0:0:0:
311,15,83614,2,0,P|360:16|404:40,1,100,0|8,0:0|0:0,0:0:0:0:
328,136,84311,6,0,P|256:194|184:136,1,200,2|0,0:0|0:0,0:0:0:0:
88,204,85358,1,8,0:0:0:0:
160,300,85707,2,0,P|256:324|352:300,1,200,2|0,0:0|0:0,0:0:0:0:
496,96,87102,6,0,B|424:24|424:24|324:24,2,200,4|2|2,0:0|0:0|0:0,0:0:0:0:
460,212,88846,1,8,0:0:0:0:
384,304,89195,2,0,P|426:328|476:328,1,100,2|8,0:0|0:0,0:0:0:0:
460,212,89893,6,0,P|417:187|367:187,2,100,4|8|2,0:0|0:0|0:0,0:0:0:0:
384,304,90939,1,8,0:0:0:0:
272,260,91288,2,0,L|368:72,1,200,2|2,0:0|0:0,0:0:0:0:
472,28,92334,1,8,0:0:0:0:
460,148,92684,5,4,0:0:0:0:
363,82,93032,2,0,L|156:64,1,200,8|8,0:0|0:0,0:0:0:0:
72,144,94079,2,0,P|59:191|70:239,1,100,2|8,0:0|0:0,0:0:0:0:
152,328,94776,2,0,B|204:328|204:328|248:356,1,100,2|8,0:0|0:0,0:0:0:0:
348,288,95474,5,4,0:0:0:0:
448,352,95823,2,0,B|472:300|456:240|456:240|432:152,2,200,8|8|8,0:0|0:0|0:0,0:0:0:0:
348,288,97567,1,2,0:0:0:0:
256,212,97916,1,8,0:0:0:0:
256,212,98265,6,0,P|160:212|96:136,1,200,4|2,0:0|0:0,0:0:0:0:
208,96,99311,1,8,0:0:0:0:
312,40,99660,2,0,L|416:52,2,100,2|8|10,0:0|0:0|0:0,0:0:0:0:
208,96,100707,1,8,0:0:0:0:
208,96,101055,6,0,L|9:72,2,200,4|2|2,0:0|0:0|0:0,0:0:0:0:
280,192,102800,1,8,0:0:0:0:
204,288,103149,2,0,B|156:288|156:288|116:328,1,100,2|8,0:0|0:0,0:0:0:0:
8,276,103847,6,0,L|152:132,1,200,4|2,0:0|0:0,0:0:0:0:
256,76,104892,1,8,0:0:0:0:
368,120,105242,2,0,P|386:192|368:264,2,150,2|2|8,0:0|0:0|0:0,0:0:0:0:
272,192,106637,6,0,P|253:264|271:336,2,150,4|2|8,0:0|0:0|0:0,0:0:0:0:
368,120,108032,2,0,L|164:120,2,200,4|2|6,0:0|0:0|0:0,0:0:0:0:
254,330,126172,6,0,P|254:242|162:242,1,200,2|2,0:0|0:0,0:0:0:0:
76,156,127218,1,8,0:0:0:0:
160,72,127567,2,0,L|362:46,2,200,4|2|4,0:3|0:0|0:3,0:0:0:0:
76,156,129311,6,0,P|43:248|76:340,2,200,8|8|8,1:2|1:2|1:2,0:0:0:0:
160,72,131056,1,8,1:2:0:0:
300,136,131753,6,0,B|372:20|536:52|596:192|536:332|372:364|304:252|304:252|324:300|304:346,1,700,4|2,1:0|0:0,0:0:0:0:
207,346,134544,2,0,B|188:300|208:252|208:252|140:364|-24:332|-84:192|-24:52|140:20|212:136,1,700,4|2,1:0|0:0,0:0:0:0:
112,192,137335,5,4,0:0:0:0:
212,136,137684,2,0,P|256:65|300:137,1,200,8|8,0:0|0:0,0:0:0:0:
400,192,138730,1,2,0:0:0:0:
304,264,139079,2,0,B|256:278|256:278|208:264,1,100,8|2,0:0|0:0,0:0:0:0:
112,192,139777,1,8,0:0:0:0:
8,132,140125,6,0,B|48:72|116:72|116:72|192:72,1,200,4|2,0:0|0:0,0:0:0:0:
256,172,141172,1,8,0:0:0:0:
325,72,141521,2,0,B|396:72|396:72|464:72|504:132,1,200,4|2,0:0|0:0,0:0:0:0:
400,192,142567,1,8,0:0:0:0:
304,264,142916,6,0,B|352:360,1,100,4|8,0:0|0:0,0:0:0:0:
444,281,143614,2,0,B|400:192,1,100,2|8,0:0|0:0,0:0:0:0:
344,92,144311,2,0,P|416:156|516:136,1,200,2|2,0:0|0:0,0:0:0:0:
452,36,145358,1,8,0:0:0:0:
344,92,145707,5,4,0:0:0:0:
236,144,146056,2,0,B|156:144|156:144|116:112|116:112|44:112,2,200,8|8|8,0:0|0:0|0:0,0:0:0:0:
344,92,147800,2,0,P|356:140|344:188,1,100,2|8,0:0|0:0,0:0:0:0:
244,252,148497,6,0,P|340:228|436:252,1,200,4|2,0:0|0:0,0:0:0:0:
492,360,149544,1,8,0:0:0:0:
436,252,149893,2,0,L|456:92,2,150,2|2|8,0:0|0:0|0:0,0:0:0:0:
336,184,151288,6,0,L|317:332,2,150,4|2|8,0:0|0:0|0:0,0:0:0:0:
388,76,152684,2,0,B|256:147|256:147|124:76,1,300,4|8,0:0|0:0,0:0:0:0:
38,160,154079,5,4,0:0:0:0:
122,244,154428,2,0,P|156:320|68:320,1,200,8|8,0:0|0:0,0:0:0:0:
239,152,155823,2,0,P|205:76|293:76,1,200,8|8,0:0|0:0,0:0:0:0:
408,48,156870,6,0,B|420:104|384:148|384:148|452:216,1,200,4|2,0:0|0:0,0:0:0:0:
500,324,157916,1,8,0:0:0:0:
384,360,158265,6,0,P|312:352|260:296,2,150,2|2|8,0:0|0:0|0:0,0:0:0:0:
372,240,159660,2,0,B|424:188|424:188|424:112,2,150,4|2|8,0:0|0:0|0:0,0:0:0:0:
304,140,161056,2,0,P|256:128|208:140,2,100,2|8|2,0:0|0:0|0:0,0:0:0:0:
372,240,162102,1,8,0:0:0:0:
372,240,162451,6,0,B|356:308|200:368|156:224|256:157|356:224|312:368|156:308|140:240,2,400,4|2|4,0:0|0:0|0:0,0:0:0:0:
456,152,165591,5,8,0:0:0:0:
256,20,166288,1,8,0:0:0:0:
56,152,166986,1,8,0:0:0:0:
256,288,167684,1,8,0:0:0:0:
320,188,168032,6,0,B|272:168|256:116|256:116|240:168|192:188,1,200,4|2,0:0|0:0,0:0:0:0:
92,236,169079,1,8,0:0:0:0:
8,148,169428,6,0,P|35:80|8:12,2,150,2|2|8,0:0|0:0|0:0,0:0:0:0:
92,236,170823,2,0,P|65:304|92:372,2,150,2|2|8,0:0|0:0|0:0,0:0:0:0:
156,136,172218,2,0,L|356:136,1,200,2|2,0:0|0:0,0:0:0:0:
420,236,173265,1,8,0:0:0:0:
420,236,173614,6,0,P|448:304|421:372,2,150,4|2|8,0:0|0:0|0:0,0:0:0:0:
356,136,175009,2,0,B|316:108|316:108|316:52,1,100,6|8,0:0|0:0,0:0:0:0:
196,56,175707,2,0,B|196:108|196:108|156:136,1,100,2|8,0:0|0:0,0:0:0:0:
112,248,176404,6,0,B|132:308|220:308|252:268|256:223|256:223|260:268|292:308|380:308|400:248,1,400,4|2,1:0|0:0,0:0:0:0:
328,20,178497,2,0,B|256:40|256:40|184:20,1,150,4|4,1:0|1:0,0:0:0:0:
256,192,179195,12,0,181986,0:0:0:0:
