osu file format v12

[General]
AudioFilename: 01 Best Song Ever.mp3
AudioLeadIn: 0
PreviewTime: 44164
Countdown: 0
SampleSet: Soft
StackLeniency: 0.7
Mode: 0
LetterboxInBreaks: 0
WidescreenStoryboard: 0

[Editor]
DistanceSpacing: 0.8
BeatDivisor: 4
GridSize: 4
TimelineZoom: 1

[Metadata]
Title:Best Song Ever
TitleUnicode:Best Song Ever
Artist:One Direction
ArtistUnicode:One Direction
Creator:Kenezz
Version:Easy
Source:
Tags:Zayn Malik Harry Styles Louis Tomlinson Niall Horan Liam Payne Midnight Memories
BeatmapID:297061
BeatmapSetID:109064

[Difficulty]
HPDrainRate:2
CircleSize:3
OverallDifficulty:2
ApproachRate:2
SliderMultiplier:1.4
SliderTickRate:1

[Events]
//Background and Video events
0,0,"BestBGEver.jpg",0,0
Video,50,"BestVideoEver.avi"
//Break Periods
2,69426,71717
2,118034,124375
//Storyboard Layer 0 (Background)
//Storyboard Layer 1 (Fail)
//Storyboard Layer 2 (Pass)
//Storyboard Layer 3 (Foreground)
//Storyboard Sound Samples
//Background Colour Transformations
3,100,163,162,255

[TimingPoints]
12518,506.329113924051,4,2,0,70,1,0
36948,-100,4,2,0,60,0,0
42771,-100,4,2,0,100,0,0
44923,-100,4,2,0,80,0,1
60619,-100,4,2,0,80,0,0
61125,-100,4,2,0,80,0,1
65176,-100,4,2,0,80,0,0
73150,-100,4,2,0,70,0,0
85555,-100,4,2,0,60,0,0
91378,-100,4,2,0,100,0,0
91631,-100,4,2,0,60,0,0
91758,-100,4,2,0,50,0,0
91885,-100,4,2,0,40,0,0
92011,-100,4,2,0,30,0,0
92138,-100,4,2,0,20,0,0
92264,-100,4,2,0,10,0,0
92391,-100,4,2,0,5,0,0
93530,-100,4,2,0,80,0,1
109226,-100,4,2,0,80,0,0
109733,-100,4,2,0,80,0,1
113783,-100,4,2,0,80,0,0
125809,-100,4,2,0,50,0,0
133910,-100,4,2,0,70,0,0
142138,-100,4,2,0,100,0,1
142264,-100,4,2,0,80,0,1
158214,-100,4,2,0,80,0,0
158340,-100,4,2,0,80,0,1
174416,-100,4,2,0,80,0,0
174543,-100,4,2,0,80,0,1
178593,-100,4,2,0,80,0,0

[Colours]
Combo1 : 55,55,55
Combo2 : 0,64,128
Combo3 : 163,163,163
Combo4 : 255,66,66

[HitObjects]
56,304,12517,6,0,P|112:340|188:328,1,140,4|8,0:0|1:0,0:0:0:0:
256,248,13530,1,0,1:0:0:0:
324,160,14036,1,8,1:0:0:0:
320,48,14543,2,0,P|256:24|192:48,1,140,4|8,0:2|1:0,0:0:0:0:
188,160,15556,1,0,1:0:0:0:
256,248,16062,1,8,1:0:0:0:
329,331,16568,6,0,P|397:340|456:304,2,140,4|8|0,0:2|1:0|1:0,0:0:0:0:
256,248,18087,1,8,1:0:0:0:
182,331,18593,2,0,P|114:340|56:304,2,140,4|8|0,0:2|1:0|1:0,0:0:0:0:
140,228,20112,1,10,1:0:0:0:
152,108,20619,6,0,B|228:124|256:192|256:192|284:124|360:108,1,280,4|0,2:0|1:0,0:0:0:0:
436,196,22138,1,8,1:0:0:0:
368,284,22644,2,0,P|255:354|144:282,1,280,2|0,0:0|1:0,0:0:0:0:
76,196,24163,1,8,1:0:0:0:
88,84,24669,6,0,P|156:88|216:52,1,140,2|8,0:0|1:0,0:0:0:0:
328,32,25682,1,0,1:0:0:0:
428,84,26188,1,8,1:0:0:0:
392,192,26695,2,0,B|312:236|256:192|200:148|120:192,1,280,2|0,0:0|1:0,0:0:0:0:
12,216,28214,1,8,1:0:0:0:
88,300,28720,6,0,P|156:296|216:332,1,140,4|10,0:0|1:0,0:0:0:0:
328,352,29733,1,0,1:0:0:0:
428,300,30239,1,8,1:0:0:0:
392,192,30746,2,0,B|312:147|256:191|200:235|120:192,1,280,2|0,0:0|1:0,0:0:0:0:
40,116,32264,1,8,1:0:0:0:
76,12,32771,6,0,P|140:44|165:108,1,140,2|10,0:0|1:0,0:0:0:0:
256,168,33783,1,0,1:0:0:0:
347,104,34290,2,0,P|374:41|436:12,1,140,8|2,1:0|0:0,0:0:0:0:
428,268,35809,5,0,1:0:0:0:
428,268,36316,1,8,1:0:0:0:
324,264,36821,2,0,P|412:364|524:300,2,280,4|0|2,0:0|1:0|0:0,0:0:0:0:
84,268,39859,5,0,1:0:0:0:
84,268,40366,1,8,1:0:0:0:
188,264,40871,2,0,P|100:364|-12:300,2,280,2|0|4,0:0|1:0|0:0,0:0:0:0:
52,320,44923,6,0,P|116:344|180:320,1,140,4|8,0:0|1:0,0:0:0:0:
256,236,45935,1,0,1:0:0:0:
256,236,46442,1,8,1:0:0:0:
320,144,46948,2,0,L|456:112,2,140,4|8|0,0:0|1:0|1:0,0:0:0:0:
256,52,48467,1,8,1:0:0:0:
192,144,48973,6,0,L|56:112,2,140,4|8|0,0:0|1:0|1:0,0:0:0:0:
256,236,50492,1,8,1:0:0:0:
331,319,50999,2,0,P|395:343|460:320,1,140,4|8,0:0|1:0,0:0:0:0:
464,208,52011,1,0,1:0:0:0:
464,208,52518,1,8,1:0:0:0:
376,140,53024,6,0,P|256:76|136:140,1,280,4|0,0:0|1:0,0:0:0:0:
64,224,54543,1,8,1:0:0:0:
136,308,55049,2,0,P|256:372|376:308,1,280,4|0,0:0|1:0,0:0:0:0:
448,224,56568,1,8,1:0:0:0:
360,152,57074,6,0,P|396:116|484:116,2,140,4|8|0,0:0|1:0|1:0,0:0:0:0:
256,192,58593,1,8,1:0:0:0:
152,232,59100,2,0,P|116:268|28:268,2,140,4|8|0,0:0|1:0|1:0,0:0:0:0:
64,160,60619,1,8,1:0:0:0:
72,44,61125,6,0,B|152:56|172:124|172:124|220:68|304:88,1,280,4|0,0:0|0:0,0:0:0:0:
256,192,62644,1,8,1:0:0:0:
208,296,63150,2,0,B|292:316|340:260|340:260|360:328|440:340,1,280,4|0,0:0|0:0,0:0:0:0:
448,224,64669,1,8,1:0:0:0:
440,112,65176,6,0,P|256:24|72:112,1,420,4|4,0:0|0:0,0:0:0:0:
132,204,67201,6,0,B|212:196|324:240|324:312|256:360|188:312|188:240|300:196|380:204,1,420,0|0,1:0|1:0,0:0:0:0:
472,272,69226,1,2,0:0:0:0:
84,256,73277,5,4,0:0:0:0:
168,332,73783,2,0,P|252:360|308:340,1,140,8|0,1:0|1:0,0:0:0:0:
376,264,74796,1,8,1:0:0:0:
484,252,75302,2,0,P|416:156|280:208,1,280,2|0,0:0|1:0,0:0:0:0:
176,196,76821,1,8,1:0:0:0:
84,128,77328,5,4,0:0:0:0:
168,52,77834,2,0,P|252:24|308:44,1,140,10|0,1:0|1:0,0:0:0:0:
376,120,78847,1,8,1:0:0:0:
484,132,79353,2,0,P|416:228|280:176,1,280,2|0,0:0|1:0,0:0:0:0:
176,196,80872,1,8,1:0:0:0:
160,308,81378,5,2,0:0:0:0:
260,360,81885,1,10,1:0:0:0:
352,308,82391,1,0,1:0:0:0:
400,208,82897,1,8,1:0:0:0:
384,96,83404,2,0,B|316:64|256:120|256:120|196:64|128:96,1,280,2|0,0:0|1:0,0:0:0:0:
112,208,84923,1,8,1:0:0:0:
176,300,85429,6,0,L|324:320,2,140,4|8|0,0:0|1:0|1:0,0:0:0:0:
68,268,86948,1,8,1:0:0:0:
32,160,87454,2,0,L|312:196,1,280,2|0,0:0|1:0,0:0:0:0:
416,160,88973,1,8,1:0:0:0:
336,84,89480,6,0,L|188:64,2,140,2|8|0,0:0|1:0|1:0,0:0:0:0:
444,116,90999,1,8,1:0:0:0:
480,224,91505,2,0,L|200:188,1,280,4|0,0:0|0:0,0:0:0:0:
191,351,93530,6,0,P|255:375|320:352,1,140,4|8,0:0|1:0,0:0:0:0:
256,260,94543,1,0,1:0:0:0:
256,260,95049,1,8,1:0:0:0:
316,168,95555,2,0,P|344:116|416:88,2,140,4|8|0,0:0|1:0|1:0,0:0:0:0:
256,260,97074,1,8,1:0:0:0:
196,168,97581,6,0,P|168:116|96:88,2,140,4|8|0,0:0|1:0|1:0,0:0:0:0:
88,204,99100,1,8,1:0:0:0:
136,304,99606,2,0,P|256:368|376:304,1,280,4|0,0:0|1:0,0:0:0:0:
424,204,101125,1,8,1:0:0:0:
360,112,101631,6,0,P|428:96|496:124,2,140,4|8|0,0:0|1:0|1:0,0:0:0:0:
256,64,103150,1,8,1:0:0:0:
152,112,103657,2,0,P|84:96|16:124,2,140,4|8|0,0:0|1:0|1:0,0:0:0:0:
88,204,105176,1,8,1:0:0:0:
124,308,105682,6,0,L|272:328,1,140,4|8,0:0|1:0,0:0:0:0:
364,276,106695,1,0,1:0:0:0:
420,180,107201,1,8,1:0:0:0:
388,76,107707,2,0,L|240:56,1,140,4|8,0:0|1:0,0:0:0:0:
148,108,108720,1,0,1:0:0:0:
92,204,109226,1,8,1:0:0:0:
112,316,109733,6,0,P|220:352|312:232,1,280,4|0,0:0|0:0,0:0:0:0:
256,140,111252,1,8,1:0:0:0:
199,236,111758,2,0,P|271:346|400:316,1,280,4|0,0:0|0:0,0:0:0:0:
468,228,113277,1,8,1:0:0:0:
432,124,113783,6,0,P|256:24|80:124,1,420,4|4,0:0|0:0,0:0:0:0:
168,196,115809,6,0,P|256:145|343:196,2,210,0|0|0,1:0|1:0|1:0,0:0:0:0:
256,268,117834,1,2,0:0:0:0:
53,69,125935,6,0,P|121:35|259:103,1,210,2|0,0:0|0:0,0:0:0:0:
458,314,127961,2,0,P|390:348|252:280,1,210,2|0,0:0|0:0,0:0:0:0:
269,78,129986,6,0,P|362:34|458:70,1,210,2|0,0:0|0:0,0:0:0:0:
242,305,132011,2,0,P|149:349|54:314,1,210,2|0,0:0|0:0,0:0:0:0:
136,56,134036,6,0,B|216:48|256:112|256:112|296:48|376:56,1,280,4|0,0:0|0:0,0:0:0:0:
468,124,135555,1,0,0:0:0:0:
376,188,136062,2,0,P|256:252|136:188,1,280,2|0,0:0|0:0,0:0:0:0:
44,124,137581,1,0,0:0:0:0:
144,76,138087,5,2,0:0:0:0:
368,76,139100,1,2,0:0:0:0:
400,296,140112,5,2,0:0:0:0:
312,368,140619,1,0,0:0:0:0:
200,368,141125,1,8,1:0:0:0:
112,296,141631,1,0,1:0:0:0:
156,192,142138,6,0,B|184:256|256:284|256:284|328:256|356:192,1,280,4|0,0:0|1:1,0:0:0:0:
408,96,143657,1,8,0:1:0:0:
320,24,144163,2,0,B|256:52|256:52|192:24,1,140,4|8,0:0|0:1,0:0:0:0:
104,96,145176,1,0,1:1:0:0:
56,196,145682,1,8,1:1:0:0:
148,260,146188,6,0,P|100:304|28:304,2,140,4|8|0,0:0|1:1|1:1,0:0:0:0:
256,296,147707,1,8,1:1:0:0:
364,260,148214,2,0,P|412:304|484:304,2,140,4|8|0,0:0|1:1|1:1,0:0:0:0:
456,196,149733,1,8,1:1:0:0:
416,92,150239,6,0,L|276:68,1,140,4|8,0:0|0:1,0:0:0:0:
208,156,151252,1,0,1:1:0:0:
304,228,151758,1,8,1:1:0:0:
233,315,152264,2,0,L|96:292,2,140,4|8|0,0:0|0:1|1:0,0:0:0:0:
256,208,153783,1,8,0:1:0:0:
192,116,154290,6,0,P|256:92|320:116,1,140,4|8,0:0|0:1,0:0:0:0:
384,208,155302,2,0,P|364:272|364:352,1,140,0|8,1:0|0:1,0:0:0:0:
256,312,156315,1,0,1:0:0:0:
149,344,156821,2,0,P|148:274|127:208,1,140,8|0,0:1|1:1,0:0:0:0:
88,104,157834,1,8,1:1:0:0:
196,80,158340,6,0,P|256:180|316:80,1,280,4|0,0:0|1:1,0:0:0:0:
424,104,159859,1,8,1:1:0:0:
380,208,160366,2,0,P|256:268|132:208,1,280,4|0,0:0|1:1,0:0:0:0:
24,196,161885,1,8,0:1:0:0:
28,308,162391,6,0,L|156:364,1,140,4|8,0:0|0:1,0:0:0:0:
256,312,163404,1,0,1:1:0:0:
256,312,163910,1,8,0:1:0:0:
356,364,164416,2,0,L|484:308,2,140,4|8|0,0:0|1:1|1:1,0:0:0:0:
256,312,165935,1,8,0:1:0:0:
200,212,166442,5,4,0:0:0:0:
312,172,166948,1,8,1:1:0:0:
320,60,167454,2,0,P|256:36|192:60,1,140,0|8,1:1|0:1,0:0:0:0:
200,172,168467,1,4,0:0:0:0:
312,212,168973,1,8,1:1:0:0:
320,324,169479,2,0,P|256:348|192:324,1,140,0|8,1:0|1:1,0:0:0:0:
80,304,170492,5,4,0:0:0:0:
24,208,170999,2,0,L|56:72,1,140,8|0,1:1|0:0,0:0:0:0:
152,16,172011,1,8,0:1:0:0:
156,128,172518,2,0,B|240:136|256:212|256:212|272:136|356:128,1,280,4|0,0:0|1:0,0:0:0:0:
412,224,174036,1,8,1:0:0:0:
340,312,174543,6,0,P|388:348|476:348,2,140,4|8|0,0:0|1:1|1:1,0:0:0:0:
256,236,176062,1,8,1:0:0:0:
172,312,176568,2,0,P|124:348|36:348,2,140,4|8|0,0:0|1:1|1:1,0:0:0:0:
108,216,178087,1,8,1:0:0:0:
124,116,178593,6,0,B|208:84|320:120|324:208|256:240|188:208|192:120|304:84|388:116,1,420,4|4,0:0|0:0,0:0:0:0:
344,224,180619,6,0,P|256:272|168:224,2,210,0|0|0,1:0|1:0|1:0,0:0:0:0:
256,156,182644,1,2,0:0:0:0:
