osu file format v7

[General]
AudioFilename: Keroro_Gunsou_-_PEKOPON_Shinryaku_O.mp3
AudioLeadIn: 0
PreviewTime: -1
Countdown: 1
SampleSet: Normal
StackLeniency: 0.7
Mode: 0
LetterboxInBreaks: 1

[Editor]
DistanceSpacing: 0.800000011920929
BeatDivisor: 6
GridSize: 8

[Metadata]
Title:PEKOPON Shinryaku Ondo
Artist:Ondo Girl meets Keroro Shoutai
Creator:koujiro nonomiya
Version:Long easy
Source:
Tags:

[Difficulty]
HPDrainRate:4
CircleSize:4
OverallDifficulty:4
SliderMultiplier:1.4
SliderTickRate:1

[Events]
//Background and Video events
0,0,"0.jpg"
//Break Periods
2,48170,55658
2,73811,82450
2,131893,136595
2,149334,156025
//Storyboard Layer 0 (Background)
//Storyboard Layer 1 (Fail)
//Storyboard Layer 2 (Pass)
//Storyboard Layer 3 (Foreground)
//Storyboard Sound Samples
//Background Colour Transformations
3,100,163,162,255

[TimingPoints]
17055,485.044462409054,4,1,0,100,1,0
33443,480,4,1,0,100,1,0
40771,480,4,1,0,100,1,0
56267,474.308300395257,4,1,0,100,1,0
63601,-100,4,1,0,100,0,0
63601,-100,4,1,0,100,0,0
64353,487.80487804878,4,1,0,100,1,0
71671,485.044462409054,4,1,0,100,1,0
76031,481.927710843374,4,1,0,100,1,0
83770,481.927710843374,4,1,0,100,1,0
91522,480,4,1,0,100,1,0
99260,480,4,1,0,100,1,0
106992,480,4,1,0,100,1,0
114763,474.308300395257,4,1,0,100,1,0
118621,473.9336492891,4,1,0,100,1,0
122437,487.80487804878,4,1,0,100,1,0
129750,485.82995951417,4,1,0,100,1,0
134099,481.927710843374,4,1,0,100,1,0
137915,487.80487804878,4,1,0,100,1,0
157500,468.75,4,1,0,100,1,0
170925,474.308300395257,4,1,0,100,1,0
178487,487.80487804878,4,1,0,100,1,0
185796,481.927710843374,4,1,0,100,1,0
190214,485.044462409054,4,1,0,100,1,0

[HitObjects]
48,80,17944,2,8,B|208:80,2,140
256,80,19904,1,8
352,80,20874,1,8
144,160,21824,6,8,B|304:160,2,140
352,160,23743,1,8
256,160,24734,1,8
256,256,25674,5,8
160,256,26639,1,8
64,256,27651,1,2
64,160,28114,1,2
64,256,28621,1,6
48,48,29565,5,8
144,48,30519,1,8
240,48,31498,1,2
240,144,31956,1,2
240,48,32471,1,6
49,46,33443,6,8,B|481:350,1,513.333333333333
464,272,35820,1,8
416,192,36163,2,8,L|480:192|480:192,1,46.6666666666667
256,192,36963,12,8,40243
192,192,41177,5,8
96,192,42151,1,8
96,112,43091,2,12,B|256:112,2,140,0|0|0
256,144,45091,5,8
176,144,46051,1,8
176,224,47011,2,12,B|336:224,2,140
208,176,56978,5,8
208,176,57136,1,8
304,176,58095,1,8
384,256,59047,1,8
304,256,60061,1,8
256,192,60535,12,10,63934
248,248,64434,5,8
192,192,65389,1,8
288,192,66365,2,12,L|448:192,2,140
208,192,68316,5,8
128,192,69231,1,8
128,112,70206,6,8,L|288:112,2,140,8|12|8
256,192,71671,12,2,73611
256,192,83770,5,8
256,288,84733,1,8
112,176,85697,2,14,L|256:176,2,140
112,256,87625,5,8
192,256,88589,1,8
192,176,89553,2,12,L|336:176,2,140
32,144,91522,5,8
176,144,92482,1,8
320,144,93442,1,8
464,144,94402,5,8
352,224,95362,1,8
192,272,96322,2,14,B|432:16,2,280
192,192,99260,5,8
192,112,100220,1,8
272,112,101180,2,12,L|432:112,2,140
272,192,103100,5,8
192,192,104120,1,8
272,192,105080,2,12,L|432:192,2,140
256,192,106992,12,10,108792
256,192,109872,5,8
256,96,110352,1,8
352,96,110832,1,8
352,192,111312,1,8
256,192,111792,5,10
256,96,112272,1,10
352,96,112752,1,10
352,192,113232,1,10
256,192,113712,1,10
256,192,114192,1,10
112,192,114732,6,8,B|386:58,4,280
144,112,119568,5,8
64,112,120575,1,8
70,192,121346,2,8,L|152:192,1,70
200,192,122057,1,8
256,192,122497,5,8
336,192,123473,1,8
448,96,124388,2,12,L|448:256,2,140
368,96,126339,5,8
288,96,127315,1,8
208,96,128290,2,0,L|208:240,2,140,12|0|0
256,192,129750,12,0,131693
112,192,137915,5,8
176,112,138890,1,8
240,192,139866,1,8
320,96,140841,1,8
320,192,141329,1,8
320,96,141817,1,8
320,192,142305,1,8
224,192,142793,5,8
224,96,143768,1,8
304,96,144744,1,8
400,96,145232,1,8
400,192,145719,1,8
304,192,146207,1,8
224,192,146695,5,8
224,272,147671,1,8
304,272,148646,1,8
304,272,149134,1,8
112,176,157345,6,10,B|413:177,11,280
256,192,168750,12,10,170156
160,112,170925,5,8
256,112,171873,1,8
352,112,172822,1,8
352,208,173798,1,8
256,208,174778,5,8
160,208,175727,1,8
48,208,176695,1,8
48,112,177486,2,0,L|128:112,1,70,8|0
184,144,178197,1,0
256,160,178649,5,8
256,80,179584,1,8
336,80,180519,2,8,L|480:80,2,140,12|8|8
256,80,182450,5,8
256,160,183446,1,8
176,160,184421,2,12,L|80:48,2,140
256,192,185804,12,0,187804
96,176,188285,5,8
176,176,188767,2,8,L|336:176,2,140
96,176,190274,6,8,L|96:320,1,140
176,320,191244,1,8
256,320,192154,1,8
256,240,193124,6,0,L|400:240,2,140,8|0|0
256,160,195064,1,8
320,160,196034,1,8
320,80,197004,2,0,L|464:80,2,140,0|0|0
240,80,198459,1,8
160,80,198944,1,8
160,224,199914,5,8
160,304,200399,1,8
240,304,200884,1,12
