osu file format v14

[General]
AudioFilename: Omnipotenx - PEACE BREAKER.mp3
AudioLeadIn: 0
PreviewTime: 53632
Countdown: 0
SampleSet: None
StackLeniency: 0.3
Mode: 0
LetterboxInBreaks: 0
WidescreenStoryboard: 1

[Editor]
Bookmarks: 128164
DistanceSpacing: 0.8
BeatDivisor: 2
GridSize: 4
TimelineZoom: 1.099999

[Metadata]
Title:Peace Breaker
TitleUnicode:Peace Breaker
Artist:Omnipotenx
ArtistUnicode:Omnipotenx
Creator:Wii2ZeeBro
Version:Easy
Source:BMS
Tags:symphonic schranz final champion xi parousia mutal faith
BeatmapID:965741
BeatmapSetID:450118

[Difficulty]
HPDrainRate:2
CircleSize:3
OverallDifficulty:2
ApproachRate:3
SliderMultiplier:0.900000005960469
SliderTickRate:1

[Events]
//Background and Video events
0,0,"[Week 10] - PEACE BREAKER-bg.png",0,0
Video,0,"PEACE BREAKER.avi"
//Break Periods
2,53738,64099
//Storyboard Layer 0 (Background)
//Storyboard Layer 1 (Fail)
//Storyboard Layer 2 (Pass)
//Storyboard Layer 3 (Foreground)
//Storyboard Sound Samples

[TimingPoints]
1039,375,4,1,0,100,1,0
14539,-100,4,1,0,100,0,1
17539,-100,4,1,0,100,0,0
41539,-100,4,1,0,100,0,1
53539,-100,4,1,0,100,0,0
65539,-100,4,1,0,100,0,1
74539,-100,4,1,0,100,0,0
101539,-100,4,1,0,100,0,1
125914,-100,4,1,0,100,0,0
128164,-100,4,1,0,5,0,0

[HitObjects]
256,192,1039,12,0,2539,0:0:0:0:
328,268,5351,6,0,L|384:292,1,45.0000002980235
332,120,6851,6,0,L|356:64,1,45.0000002980235
184,116,8351,6,0,L|128:92,1,45.0000002980235
180,264,9851,6,0,L|156:320,1,45.0000002980235
328,268,11351,6,0,L|384:292,1,45.0000002980235
464,232,12101,2,0,L|408:208,1,45.0000002980235
344,176,12664,1,0,0:0:0:0:
420,128,13039,2,0,B|372:72|320:80|268:100|256:168|256:168|196:192,1,270.000001788141
136,232,14539,6,0,P|124:172|232:108,1,180.000001192094
206,270,16039,2,0,P|280:227|278:142,1,180.000001192094
207,187,17164,1,0,0:0:0:0:
136,232,17539,6,0,B|96:276|64:300|64:300|124:316|156:360|156:360|208:336|304:332,1,360.000002384188
388,336,19414,1,0,0:0:0:0:
476,348,19789,2,0,P|464:284|432:264,1,90.0000005960469
360,252,20539,6,0,B|308:224|308:224|376:172|356:104|304:72|304:72|308:8,1,270.000001788141
206,45,22039,2,0,B|208:72|208:72|156:104|136:172|204:224|204:224|152:252,1,270.000001788141
164,336,23539,6,0,B|117:335|117:335|78:300,1,90.0000005960469
70,223,24289,2,0,B|93:263|93:263|82:314,1,90.0000005960469
19,360,25039,2,0,B|42:319|42:319|92:303,1,90.0000005960469
176,280,25789,2,0,L|284:248,1,90.0000005960469
352,232,26539,5,0,0:0:0:0:
272,112,27289,2,0,B|200:128|200:128|152:104|168:44|112:28|40:88|60:172|112:256,1,360.000002384188
272,200,29539,1,0,0:0:0:0:
344,144,29914,2,0,B|384:104|384:104|408:232,1,180.000001192094
332,280,31039,6,0,P|400:312|500:240,2,180.000001192094
264,220,32914,2,0,P|196:188|96:260,1,180.000001192094
188,284,34039,6,0,P|260:316|348:272,2,180.000001192094
264,220,35914,2,0,B|312:104|312:104|340:168,1,180.000001192094
356,244,37039,6,0,P|400:220|404:92,1,180.000001192094
344,40,38164,1,0,0:0:0:0:
248,48,38539,2,0,B|228:92|228:92|156:104|156:104|172:152|172:152|128:192|128:192|140:256|140:256|184:320,2,360.000002384188
336,44,41914,5,0,0:0:0:0:
304,128,42289,2,0,B|332:172|332:172|400:200,2,90.0000005960469
240,196,43414,1,0,0:0:0:0:
164,252,43789,2,0,B|132:296|132:296|128:352,2,90.0000005960469
252,288,44914,1,0,0:0:0:0:
340,320,45289,2,0,P|404:324|456:296,1,90.0000005960469
376,236,46039,6,0,B|328:228|328:228|432:200|448:116,1,180.000001192094
452,72,47164,2,0,P|396:76|352:124,1,90.0000005960469
292,144,47914,2,0,B|280:76|280:76|256:36|200:48,2,135.00000089407
200,140,49414,6,0,B|212:208|212:208|236:248|292:236,2,135.00000089407
128,84,50914,2,0,B|60:52|60:52|24:16,2,90.0000005960469
104,172,52039,2,0,B|88:248|88:248|36:320|64:360|160:348|160:348|204:324|284:344,1,360.000002384188
348,272,65539,5,0,0:0:0:0:
284,200,65914,2,0,P|368:176|428:224,2,135.00000089407
224,288,67601,2,0,P|176:320|136:328,2,90.0000005960469
184,188,68914,6,0,P|136:148|48:164,2,135.00000089407
244,100,70601,2,0,L|332:64,2,90.0000005960469
244,208,71914,6,0,P|312:232|392:192,1,135.00000089407
444,136,73039,1,0,0:0:0:0:
452,244,73601,2,0,P|424:304|396:324,2,90.0000005960469
256,192,74539,12,0,77539,0:0:0:0:
340,136,78289,6,0,P|316:208|400:284,1,180.000001192094
428,184,79601,2,0,P|440:116|412:76,2,90.0000005960469
468,284,80914,6,0,P|440:344|352:360,1,135.00000089407
280,320,82039,1,0,0:0:0:0:
180,284,82601,2,0,B|120:280|120:280|64:312,1,90.0000005960469
40,220,83351,2,0,L|80:192,1,45.0000002980235
164,192,83914,6,0,P|144:140|48:116,1,135.00000089407
40,220,85039,1,0,0:0:0:0:
164,192,85601,2,0,P|216:204|252:232,2,90.0000005960469
244,120,86914,2,0,B|280:20|280:20|236:36,2,135.00000089407
256,192,88226,12,0,89539,0:0:0:0:
368,264,90476,6,0,P|424:208|416:120,1,135.00000089407
324,172,91601,2,0,P|280:208|268:248,2,90.0000005960469
352,68,92914,6,0,P|292:72|220:132,1,135.00000089407
176,208,94039,1,0,0:0:0:0:
132,108,94601,2,0,B|92:48|92:48|64:44,1,90.0000005960469
36,128,95351,2,0,L|76:188,1,45.0000002980235
132,108,95914,6,0,P|196:96|264:136,1,135.00000089407
308,220,97039,2,0,P|244:232|176:192,1,135.00000089407
256,144,97976,1,0,0:0:0:0:
348,136,98351,2,0,L|396:160,1,45.0000002980235
400,244,98914,6,0,P|384:304|428:376,1,135.00000089407
500,296,100039,1,0,0:0:0:0:
400,244,100601,1,0,0:0:0:0:
312,220,100976,2,0,L|280:260,2,45.0000002980235
312,220,101539,5,0,0:0:0:0:
376,152,101914,2,0,P|292:132|224:196,1,180.000001192094
240,272,103039,2,0,B|214:345|135:352|135:352|191:381,2,180.000001192094
156,244,104914,2,0,P|100:268|8:184,1,180.000001192094
96,180,106039,6,0,B|107:80|107:80|80:46|-2:63,2,180.000001192094
184,156,107914,2,0,P|228:180|248:220,2,90.0000005960469
200,64,109039,2,0,B|248:88|248:88|320:88|372:28,2,180.000001192094
184,156,110914,2,0,P|192:200|252:256,1,90.0000005960469
272,168,111664,1,0,0:0:0:0:
360,156,112039,6,0,B|360:112|400:96|448:112|472:144|464:192|428:236|392:264|348:294|272:296,1,360.000002384188
200,320,113914,2,0,P|140:304|80:220,1,135.00000089407
192,212,115039,2,0,L|136:152,1,45.0000002980235
72,164,115601,2,0,P|104:108|148:92,1,90.0000005960469
216,104,116351,2,0,L|252:140,1,45.0000002980235
292,220,116914,6,0,B|356:192|344:116|344:116|408:156,1,180.000001192094
412,232,118039,1,0,0:0:0:0:
348,296,118414,2,0,L|304:312,1,45.0000002980235
216,280,118976,1,0,0:0:0:0:
204,192,119351,2,0,L|148:168,1,45.0000002980235
128,256,119914,2,0,P|88:224|84:136,1,135.00000089407
176,92,121039,5,0,0:0:0:0:
264,120,121414,2,0,L|272:64,1,45.0000002980235
176,92,121976,5,0,0:0:0:0:
264,120,122351,2,0,L|272:64,1,45.0000002980235
356,116,122914,2,0,P|336:180|264:208,1,135.00000089407
200,300,124039,2,0,P|220:236|292:208,1,135.00000089407
288,296,124976,2,0,L|332:336,2,45.0000002980235
364,216,125914,1,0,0:0:0:0:
256,192,126101,12,0,128164,0:0:0:0:
