osu file format v5

[General]
AudioFilename: 1. Mauve-iro no Sympathy.mp3
AudioLeadIn: 0
PreviewTime: 45661
Countdown: 1
SampleSet: Normal
StackLeniency: 0.3
Mode: 0
LetterboxInBreaks: 1
EditorBookmarks: 22053,90333,150358,168333

[Metadata]
Title:Mauve - Iro no Sympathy
Artist:Omigawa Chiaki & Uchiyama Kouki
Creator:Mohogany
Version:Death Scythe
Source:
Tags:Maka Soul Eater

[Difficulty]
HPDrainRate:7
CircleSize:6
OverallDifficulty:7
SliderMultiplier:1.4
SliderTickRate:1

[Events]
//Background and Video events
0,0,"Scan01.jpg"
//Break Periods
2,79032,90950
2,147031,149950
2,159724,168641
//Storyboard Layer 0 (Background)
//Storyboard Layer 1 (Failing)
//Storyboard Layer 2 (Passing)
//Storyboard Layer 3 (Foreground)
//Storyboard Sound Samples
//Background Colour Transformations
3,100,163,162,255

[TimingPoints]
24025,333.333333333333,4,1,0,100,1
168499,-200,4,2,0,100,0
177333,333.333333333333,4,1,0,100,0

[Colours]
Combo1 : 115,115,115
Combo2 : 255,163,70
Combo3 : 226,226,226

[HitObjects]
256,128,24025,6,0,B|184:128,1,70
128,128,24358,1,0
128,240,24691,2,0,B|198:240,1,70
256,240,25025,1,0
368,240,25358,1,0
400,192,25525,1,0
400,136,25691,1,0
368,88,25858,1,0
328,192,26191,1,0
160,192,26691,6,0,B|80:192,2,70
160,80,27358,2,0,B|80:80,2,70
272,80,28025,1,0
328,80,28191,1,0
384,80,28358,1,0
384,136,28525,1,0
408,248,28858,1,0
264,336,29358,5,0
208,336,29525,2,0,B|16:336|32:80|112:16|363:345,1,630
448,264,31358,1,0
448,152,31691,1,0
448,96,31858,1,0
360,168,32191,1,0
456,264,32691,2,2,B|360:88|360:88|280:216|280:216|200:88|200:88|57:285|57:285,1,700,2|0
176,320,34691,5,0
136,272,34858,1,0
104,224,35025,2,0,B|104:64,1,140
160,80,35525,1,0
216,80,35691,1,0
328,80,36025,1,0
296,128,36191,1,0
328,176,36358,1,0
328,232,36525,1,0
328,344,36858,1,0
160,344,37358,5,0
160,344,37525,1,0
160,288,37691,1,0
48,288,38025,1,0
48,232,38191,1,0
48,288,38358,1,0
48,176,38691,1,0
104,176,38858,1,0
160,176,39025,1,0
216,176,39191,1,0
328,176,39525,1,0
336,344,40025,5,0
280,344,40191,2,0,B|88:344|104:88|184:24|499:257,1,630
376,296,42025,1,0
488,296,42358,1,0
432,296,42525,1,0
320,272,42858,1,0
224,136,43358,2,2,B|224:104|224:104|64:104|64:104|64:216|64:216|224:216|224:216|224:328|224:328|64:328|64:328|64:272,1,770,2|0
176,160,45691,5,2
296,160,46025,1,2
200,88,46358,1,0
144,88,46525,1,0
24,88,46858,2,0,B|216:304,1,280
376,240,48025,1,0
248,240,48358,2,0,B|248:152,1,70
248,112,48691,1,0
248,56,48858,1,0
304,152,49191,1,0
192,152,49525,1,0
80,152,49858,1,0
72,88,50025,2,0,B|24:168|80:240,1,140
256,224,51025,5,0
224,176,51191,1,0
256,128,51358,1,0
296,88,51525,1,0
336,128,51691,1,0
360,176,51858,1,0
416,272,52191,6,0,B|272:272,1,140
216,272,52691,1,0
128,200,53025,1,0
80,232,53191,1,0
16,128,53525,5,0
128,128,53858,1,4
176,128,54025,1,8
224,128,54191,1,4
176,128,54358,1,8
224,128,54525,1,4
272,128,54691,1,8
272,176,54858,2,0,B|272:272,2,70,4|2|2
440,176,55691,2,0,B|440:272,2,70,2|2|0
392,144,56191,6,2,B|392:288,1,140
368,336,56691,1,0
256,336,57025,1,0
256,272,57191,1,0
256,336,57358,1,0
256,272,57525,2,0,B|116:196|372:164|252:28,1,280
80,272,59025,5,0
192,272,59358,1,0
192,208,59525,1,0
304,208,59858,1,0
416,208,60191,1,0
416,96,60525,1,0
360,96,60691,2,0,B|208:96,1,140
128,96,61358,5,0
128,152,61525,1,0
16,152,61858,2,0,B|16:232,1,70
16,280,62191,2,0,B|112:280,1,70
144,280,62525,2,0,B|224:280,1,70
272,280,62858,5,0
360,208,63191,1,0
304,208,63358,1,0
264,160,63525,1,0
232,112,63691,1,0
192,64,63858,1,0
48,64,64191,5,0
48,176,64525,1,4
48,232,64691,1,8
104,232,64858,1,4
104,176,65025,1,8
160,176,65191,1,4
160,232,65358,1,8
216,232,65525,1,4
216,176,65691,1,8
272,176,65858,1,4
272,232,66025,1,8
328,232,66191,1,4
384,232,66358,1,8
384,288,66525,1,4
272,288,66858,6,2,B|264:376|120:304,1,140
104,320,67358,1,0
104,208,67691,1,0
104,264,67858,1,0
152,240,68025,1,0
208,240,68191,2,0,B|512:240,1,280
256,72,69691,1,0
144,104,70025,1,0
112,152,70191,1,0
152,256,70525,1,0
248,312,70858,1,0
344,256,71191,1,0
376,208,71358,1,0
344,160,71525,1,0
416,320,72358,5,0
304,320,72691,1,0
192,320,73025,1,0
256,224,73358,1,0
312,224,73525,1,2
368,224,73691,2,2,B|368:144,1,70
368,96,74025,1,0
312,96,74191,1,2
368,96,74358,2,2,B|368:16,1,70
200,24,75025,5,8
200,80,75191,1,0
200,136,75358,1,8
144,136,75525,1,0
144,192,75691,1,8
248,240,76025,1,2
304,240,76191,2,4,B|256:80,1,140,2|4
320,96,76691,1,2
336,152,76858,2,4,B|480:104,1,140,2|4
472,160,77358,1,2
472,216,77525,2,6,B|400:296|40:296|40:16,1,560,2|4
256,128,92025,5,0
304,96,92191,1,0
352,128,92358,2,0,B|352:208,1,70
352,256,92691,1,0
304,288,92858,1,0
256,256,93025,2,0,B|176:256,1,70
128,256,93358,1,0
128,200,93525,1,0
72,200,93691,1,0
72,144,93858,1,0
184,144,94191,1,0
344,96,94691,5,0
344,40,94858,1,0
344,96,95025,1,0
344,208,95358,1,0
344,152,95525,1,0
344,208,95691,1,0
232,240,96025,1,0
232,184,96191,1,0
176,184,96358,1,0
176,240,96525,1,0
64,240,96858,1,0
200,336,97358,5,0
256,336,97525,2,0,B|448:336|432:80|352:16|255:37|61:113,1,630
72,224,99358,1,0
74,108,99691,1,0
72,160,99858,1,0
128,272,100191,1,0
296,224,100691,2,2,B|229:315|100:264|71:128|132:51|233:28|332:60|378:135|315:220|338:268|456:256,1,630,2|0
448,88,102691,6,0,B|448:176,1,70
448,216,103025,1,0
336,216,103358,2,0,B|336:304,1,70
280,288,103691,1,0
392,288,104025,1,0
448,288,104191,1,0
392,288,104358,1,0
392,344,104525,2,0,B|312:344,1,70
264,344,104858,1,0
144,224,105358,5,0
200,224,105525,1,0
232,176,105691,1,0
232,64,106025,1,0
232,120,106191,1,0
232,176,106358,1,0
320,248,106691,1,0
320,304,106858,1,0
264,304,107025,1,0
208,304,107191,1,0
208,192,107525,1,0
296,336,108025,5,0
352,336,108191,2,0,B|544:336|528:80|448:16|381:129|141:129,1,630
120,240,110025,1,0
232,240,110358,1,0
176,240,110525,1,0
80,176,110858,1,0
240,112,111358,2,2,B|432:112|432:112|432:320|432:320|240:320|240:320|240:128,1,770,2|0
72,136,113691,5,2
72,24,114025,1,2
72,136,114358,1,0
72,192,114525,1,0
72,304,114858,2,0,B|216:144|368:304,1,280
152,304,116025,1,0
264,304,116358,1,0
264,192,116691,1,0
264,136,116858,1,0
376,136,117191,1,0
376,248,117525,1,0
264,248,117858,1,0
208,248,118025,2,0,B|208:72,1,140
320,304,119025,5,0
320,248,119191,1,0
320,304,119358,1,0
320,248,119525,1,0
320,192,119691,1,0
264,192,119858,1,0
264,80,120191,5,0
152,80,120525,1,0
152,136,120691,1,0
152,192,120858,1,0
152,136,121025,1,0
152,192,121191,1,0
264,192,121525,5,0
272,80,121858,1,4
232,40,122025,1,8
192,80,122191,1,4
192,136,122358,1,8
232,176,122525,1,4
272,136,122691,1,8
328,136,122858,2,2,B|328:232,2,70,4|2|2
136,136,123691,2,2,B|136:232,2,70,2|2|0
168,88,124191,6,0,B|328:88,1,140,2|2
360,88,124691,1,0
408,192,125025,1,0
352,192,125191,1,0
296,192,125358,1,0
240,192,125525,2,0,B|144:104|40:200,1,210
48,248,126191,2,0,B|144:336|248:240,1,210
352,248,127025,1,0
464,248,127358,1,0
464,192,127525,1,0
464,80,127858,1,0
352,80,128191,1,0
352,192,128525,1,0
296,192,128691,1,0
456,320,129358,5,0
408,288,129525,2,0,B|336:360,1,70
304,312,129858,1,0
256,280,130025,1,0
208,248,130191,1,0
160,216,130358,1,0
112,184,130525,1,0
200,112,130858,6,0,B|352:112,1,140
392,112,131358,1,0
416,208,131691,1,0
416,264,131858,1,0
320,208,132191,5,0
320,320,132525,1,8
320,264,132691,1,4
264,264,132858,1,8
208,264,133025,1,4
208,208,133191,1,8
208,152,133358,1,4
208,96,133525,1,8
264,96,133691,1,4
320,96,133858,1,8
376,96,134025,1,4
376,152,134191,1,8
376,208,134358,1,4
320,208,134525,1,8
208,208,134858,5,6
80,96,135358,1,2
192,96,135691,1,0
248,96,135858,1,0
304,96,136025,1,0
360,96,136191,2,0,B|256:296|448:96|432:304,1,280
168,192,137691,1,0
168,80,138025,1,0
224,80,138191,2,0,B|296:80,1,70
352,80,138525,1,0
352,192,138858,1,0
240,192,139191,1,0
296,192,139358,1,0
352,192,139525,2,0,B|120:192,1,210
48,192,140358,5,0
48,80,140691,1,0
160,80,141025,1,0
272,80,141358,2,0,B|272:160,1,70,0|2
272,208,141691,1,2
384,208,142025,2,0,B|384:104,1,70,0|2
384,80,142358,1,2
384,304,143025,5,8
328,304,143191,1,0
272,304,143358,1,8
272,248,143525,1,0
272,192,143691,1,8
192,104,144025,1,2
136,104,144191,2,0,B|88:264,1,140,2|4
80,288,144691,1,2
136,288,144858,2,0,B|312:288,1,140,2|4
328,288,145358,1,2
384,288,145525,2,2,B|496:8|80:8|32:208,1,560,2|4
440,328,151025,6,0,B|288:328,1,140,0|4
416,256,151691,2,0,B|264:256,1,140,0|4
384,176,152358,2,0,B|232:176,1,140,0|4
360,104,153025,2,0,B|208:104,1,140,0|4
328,24,153691,2,0,B|176:24,1,140,0|4
80,104,154358,2,0,B|232:104,1,140,0|4
104,176,155025,2,0,B|256:176,1,140,0|4
136,256,155691,2,0,B|288:256,1,140,0|4
344,136,156358,5,2
344,136,156525,1,2
256,240,156858,1,2
256,240,157025,1,2
168,136,157358,1,2
168,136,157525,1,2
256,32,157858,1,2
256,32,158025,1,2
256,168,158358,5,0
256,168,158441,1,0
256,168,158525,1,0
256,168,158608,1,0
256,168,158691,1,0
256,168,158775,1,0
256,168,158858,2,2,B|232:64|320:32|400:64|376:184,1,280
64,80,169691,5,0
120,80,170025,1,0
64,80,170358,1,0
64,104,170525,1,0
64,160,170858,2,0,B|224:160,1,140
288,160,172025,1,0
344,160,172358,1,0
344,216,172691,1,0
344,240,172858,1,0
288,240,173191,1,0
232,240,173525,1,0
176,240,173858,1,0
176,208,174025,1,0
56,328,175025,5,2
40,304,175191,1,2
40,272,175358,1,2
40,240,175525,1,2
40,208,175691,1,2
64,192,175858,1,2
64,136,176191,5,2
120,136,176525,1,2
144,136,176691,1,2
200,136,177025,1,2
224,136,177191,1,2
336,136,177525,5,0
424,64,177858,1,4
368,64,178025,1,8
312,64,178191,1,4
256,64,178358,1,8
200,64,178525,1,4
144,64,178691,1,8
176,112,178858,1,4
232,112,179025,1,2
288,112,179191,1,2
256,280,179691,1,2
256,224,179858,1,2
256,192,180358,12,4,181358
256,248,181524,6,2,B|256:312|256:312|344:312|344:312|344:240,1,210
256,192,182358,1,0
200,192,182525,1,0
144,192,182691,1,0
88,192,182858,1,0
352,192,183525,1,0
120,368,184358,1,0
120,256,184691,1,0
176,256,184858,1,0
288,256,185191,1,0
400,256,185525,1,0
400,144,185858,1,0
344,144,186025,2,0,B|168:144,1,140
88,144,186691,5,0
144,144,186858,1,0
144,32,187191,1,0
200,32,187358,1,0
256,32,187525,1,0
256,88,187691,1,0
256,144,187858,1,0
256,256,188191,5,0
368,256,188525,1,0
368,200,188691,1,0
312,200,188858,1,0
256,200,189025,1,0
200,200,189191,1,0
88,200,189525,5,0
88,88,189858,1,4
144,88,190025,1,8
200,88,190191,1,4
144,88,190358,1,8
144,32,190525,1,4
144,88,190691,1,8
144,144,190858,1,4
144,200,191025,1,8
200,200,191191,1,4
256,200,191358,1,8
256,256,191525,1,4
256,312,191691,1,8
312,312,191858,1,4
424,312,192191,5,2
424,144,192691,1,2
312,144,193025,1,0
368,144,193191,1,0
312,144,193358,1,0
256,144,193525,1,0
32,144,194191,1,0
256,320,195025,5,0
256,208,195358,1,0
256,152,195525,1,0
368,152,195858,1,0
464,208,196191,1,0
464,320,196525,1,0
408,296,196691,1,0
352,272,196858,2,0,B|120:272,1,210
32,272,197691,5,0
32,160,198025,1,0
144,160,198358,1,0
256,160,198691,2,0,B|256:56,1,70,0|2
256,160,199025,2,0,B|256:256,1,70,2|2
256,160,199358,2,0,B|160:160,1,70,0|2
256,160,199691,2,0,B|336:160,1,70,2|0
152,160,200358,5,8
96,160,200525,1,0
40,160,200691,1,8
40,216,200858,1,0
96,216,201025,1,8
96,104,201358,1,2
152,104,201525,2,2,B|312:104,1,140,2|4
344,104,202025,1,2
344,160,202191,2,2,B|344:328,1,140,2|4
288,296,202691,1,2
232,296,202858,1,2
256,192,203025,12,4,204191
128,144,204691,5,0
184,144,204858,1,0
240,144,205025,1,0
352,144,205358,1,0
408,144,205525,1,0
184,144,206191,1,0
296,144,206525,1,0
296,200,206691,1,0
296,256,206858,1,2
184,256,207191,1,0
128,256,207358,1,0
72,256,207525,1,0
72,200,207691,1,2
72,40,208191,1,0
184,40,208525,1,0
240,40,208691,1,0
296,40,208858,1,0
408,40,209191,5,0
408,96,209358,1,0
408,152,209525,1,0
400,320,210025,1,0
344,320,210191,1,0
344,264,210358,1,0
232,264,210691,1,0
176,264,210858,1,0
288,264,211191,1,0
344,264,211358,1,0
344,208,211525,1,0
344,152,211691,1,0
288,152,211858,1,0
232,152,212025,1,0
176,152,212191,1,4
64,152,212525,5,2
64,208,212691,1,2
64,264,212858,1,2
64,320,213025,1,2
120,320,213191,1,2
120,264,213358,1,2
120,208,213525,1,2
176,208,213691,1,2
296,208,214025,5,2
408,208,214358,5,2
408,96,214691,5,2
480,32,215025,5,0
480,32,215191,1,0
32,32,215524,5,0
32,32,215690,1,0
256,352,216024,5,0
256,352,216190,1,0
320,192,217358,5,4
192,192,217525,5,4
