osu file format v13

[General]
AudioFilename: 10. Concentrate our attention.mp3
AudioLeadIn: 0
PreviewTime: 41579
Countdown: 0
SampleSet: Normal
StackLeniency: 0.7
Mode: 0
LetterboxInBreaks: 0
WidescreenStoryboard: 0

[Editor]
Bookmarks: 14151,15522,16894,18265,19636,41579,63522,74494,93694,95065,95751,96436,116322,129351,137579,140322
DistanceSpacing: 0.9
BeatDivisor: 2
GridSize: 4
TimelineZoom: 2.699999

[Metadata]
Title:Concentrate our attention
TitleUnicode:Concentrate our attention
Artist:Omega Quintet
ArtistUnicode:*ω* Quintet
Creator:Owntrolf
Version:Voltage 2
Source:Omega Quintet
Tags:w Omega Quintet JRPG OST voltage live mode
BeatmapID:539949
BeatmapSetID:231577

[Difficulty]
HPDrainRate:3
CircleSize:3
OverallDifficulty:3
ApproachRate:7
SliderMultiplier:1
SliderTickRate:1

[Events]
//Background and Video events
0,0,"Base2.png",0,0
//Break Periods
//Storyboard Layer 0 (Background)
//Storyboard Layer 1 (Fail)
//Storyboard Layer 2 (Pass)
//Storyboard Layer 3 (Foreground)
//Storyboard Sound Samples
//Background Colour Transformations
3,100,163,162,255

[TimingPoints]
426,517.241379310345,4,1,0,50,1,0
943,-100,4,1,0,55,0,0
1460,-100,4,1,0,60,0,0
1977,-100,4,1,0,65,0,0
2494,342.857142857143,4,1,0,40,1,0
3179,-100,4,1,0,40,0,0
14151,-100,4,1,0,35,0,0
15522,-100,4,1,0,40,0,0
16894,-100,4,1,0,45,0,0
18265,-100,4,1,0,50,0,0
18608,-100,4,1,0,45,0,0
18779,-100,4,1,0,40,0,0
18951,-100,4,1,0,35,0,0
19122,-100,4,1,0,40,0,0
19294,-100,4,1,0,45,0,0
19465,-100,4,1,0,50,0,0
19636,-100,4,1,0,55,0,0
19808,-100,4,1,0,40,0,0
31636,-100,4,1,0,40,0,0
32151,-100,4,1,0,40,0,0
34722,-100,4,1,0,40,0,0
35408,-100,4,1,0,40,0,0
41579,-100,4,2,0,40,0,1
56494,-100,4,2,0,50,0,1
57179,-100,4,2,0,55,0,1
58036,-100,4,2,0,60,0,1
62665,-100,4,1,0,60,0,0
63522,-100,4,3,0,45,0,0
66265,-100,4,3,0,55,0,0
69008,-100,4,3,0,55,0,0
71751,-100,4,1,0,40,0,0
72436,-100,4,1,0,50,0,0
73122,-100,4,1,0,60,0,0
73808,-100,4,1,0,50,0,0
85465,-100,4,3,0,55,0,0
96436,-100,4,2,0,55,0,1
105351,-100,4,2,0,60,0,1
106722,-100,4,2,0,57,0,1
107408,-100,4,2,0,62,0,1
108265,-100,4,2,0,65,0,1
110151,-100,4,2,0,60,0,1
111008,-100,4,2,0,65,0,1
112036,-100,4,2,0,65,0,1
112894,-100,4,2,0,70,0,1
114094,-100,4,2,0,65,0,1
115636,-100,4,2,0,55,0,1
118379,-100,4,3,0,55,0,0
129351,-100,4,2,0,65,0,0
130722,-100,4,2,0,60,0,0
131408,-100,4,2,0,55,0,0
132094,-100,4,2,0,50,0,0
132951,-100,4,2,0,55,0,0
133122,-100,4,2,0,58,0,0
133294,-100,4,2,0,61,0,0
133979,-100,4,2,0,55,0,0
134836,-100,4,2,0,65,0,0
136208,-100,4,2,0,60,0,0
136894,-100,4,2,0,55,0,0
137579,-100,4,2,0,40,0,0
137922,-100,4,2,0,45,0,0
138265,-100,4,2,0,50,0,0
138608,-100,4,2,0,55,0,0
138951,-100,4,2,0,60,0,0
139294,-100,4,2,0,65,0,0
139636,-100,4,2,0,70,0,0
140322,-100,4,2,0,60,0,0
148551,-100,4,2,0,55,0,0
149065,-100,4,2,0,50,0,0
149579,-100,4,2,0,45,0,0
150094,-100,4,2,0,40,0,0
150436,-100,4,2,0,35,0,0
150951,-100,4,2,0,30,0,0
151294,-100,4,2,0,25,0,0

[Colours]
Combo1 : 250,205,112
Combo2 : 255,102,102
Combo3 : 168,81,255
Combo4 : 89,172,255
Combo5 : 79,247,133

[HitObjects]
192,255,426,5,0,0:0:0:0:
193,128,943,1,0,0:0:0:0:
319,129,1460,1,0,0:0:0:0:
318,255,1977,1,0,0:0:0:0:
208,176,2494,6,0,P|136:88|36:120,1,200,0|8,0:0|0:0,0:0:0:0:
40,188,3522,1,8,0:0:0:0:
112,244,3865,2,0,P|216:280|320:228,1,200,8|8,0:0|0:0,0:0:0:0:
336,168,4894,5,0,0:0:0:0:
417,206,5236,2,0,P|467:252|527:267,1,100,8|8,0:0|0:0,0:0:0:0:
496,174,5922,2,0,P|485:93|459:55,1,100,8|8,0:0|0:0,0:0:0:0:
388,64,6608,6,0,P|316:92|252:84,1,100,8|8,0:0|0:0,0:0:0:0:
204,96,7294,2,0,P|192:200|120:296,1,200,8|8,0:0|0:0,0:0:0:0:
96,200,8322,1,8,0:0:0:0:
44,276,8665,6,0,P|92:352|200:360,1,200,8|8,0:0|0:0,0:0:0:0:
280,328,9694,1,8,0:0:0:0:
364,356,10036,2,0,P|362:306|341:261,1,100,8|8,0:0|0:0,0:0:0:0:
308,232,10551,1,0,0:0:0:0:
272,256,10722,2,0,P|211:303|152:320,1,100,8|8,0:0|0:0,0:0:0:0:
100,304,11408,6,0,P|76:252|80:176,1,100,8|8,0:0|0:0,0:0:0:0:
80,120,12094,2,0,P|136:92|196:92,2,100,8|8|0,0:0|0:0|0:0,0:0:0:0:
73,210,13122,1,0,0:0:0:0:
56,300,13465,6,0,B|164:336|256:264,1,200,8|8,0:0|0:0,0:0:0:0:
308,204,14494,1,0,0:0:0:0:
232,156,14836,2,0,P|160:204|120:220,1,100,8|0,0:0|0:0,0:0:0:0:
56,216,15522,6,0,P|76:160|128:92,1,100,8|0,0:0|0:0,0:0:0:0:
176,84,16208,2,0,P|232:156|332:136,1,200,8|8,0:0|0:0,0:0:0:0:
356,52,17236,1,0,0:0:0:0:
416,120,17579,1,8,0:0:0:0:
372,200,17922,1,0,0:0:0:0:
293,156,18265,6,0,B|293:263|183:284|183:284|130:241|130:241|157:169|136:81,1,400,0|0,0:0|0:0,0:0:0:0:
71,37,19979,1,8,0:0:0:0:
49,76,20151,1,8,0:0:0:0:
40,120,20322,6,0,P|24:184|40:264,2,100,0|8|0,0:0|0:0|0:0,0:0:0:0:
84,120,21179,2,0,P|120:168|220:192,1,150,8|8,0:0|0:0,0:0:0:0:
260,124,22036,1,8,0:0:0:0:
292,208,22379,6,0,P|328:256|468:252,2,200,8|0|0,0:0|0:0|0:0,0:0:0:0:
276,164,23922,2,0,L|360:124,2,50,8|8|0,0:0|0:0|0:0,0:0:0:0:
252,124,24436,2,0,P|191:88|128:103,1,100,8|8,0:0|0:0,0:0:0:0:
120,104,24951,1,0,0:0:0:0:
108,148,25122,6,0,P|130:203|282:299,1,200,8|8,0:0|0:0,0:0:0:0:
327,289,26151,1,8,0:0:0:0:
416,268,26494,2,0,P|474:235|512:176,2,100,0|8|0,0:0|0:0|0:0,0:0:0:0:
352,204,27522,5,0,0:0:0:0:
320,235,27694,1,0,0:0:0:0:
288,266,27865,2,0,P|197:300|112:254,2,200,8|0|0,0:0|0:0|0:0,0:0:0:0:
288,175,29579,1,0,0:0:0:0:
288,84,29922,6,0,L|368:84,2,50,0|0|0,0:0|0:0|0:0,0:0:0:0:
204,116,30608,1,8,0:0:0:0:
140,52,30951,1,8,0:0:0:0:
96,36,31122,1,8,0:0:0:0:
52,36,31294,6,0,P|37:105|58:157,1,100,0|8,0:0|0:0,0:0:0:0:
136,132,31979,1,0,0:0:0:0:
88,208,32322,2,0,P|112:284|151:330,1,100,8|8,0:0|0:0,0:0:0:0:
201,346,33008,1,8,0:0:0:0:
196,256,33351,5,8,0:0:0:0:
227,224,33522,1,8,0:0:0:0:
195,192,33694,1,8,0:0:0:0:
224,160,33865,2,0,P|268:210|344:216,1,100,0|0,0:0|0:0,0:0:0:0:
340,232,34379,2,0,P|332:292|284:348,2,100,8|0|0,0:0|0:0|0:0,0:0:0:0:
280,168,35408,5,8,0:0:0:0:
236,176,35579,2,0,L|164:188,2,50,8|8|8,0:0|0:0|0:0,0:0:0:0:
244,220,36094,2,0,P|300:268|360:280,1,100,0|8,0:0|0:0,0:0:0:0:
368,288,36608,6,0,P|312:336|252:348,1,100,8|0,0:0|0:0,0:0:0:0:
244,352,37122,2,0,P|175:346|108:295,2,150,0|0|8,0:0|0:0|0:0,0:0:0:0:
256,264,38494,5,8,0:0:0:0:
336,228,38836,2,0,P|431:240|493:167,1,200,8|0,0:0|0:0,0:0:0:0:
472,80,39865,5,8,0:0:0:0:
428,76,40036,1,2,0:2:0:0:
384,84,40208,2,0,P|384:172|272:236,1,200,0|2,0:2|0:2,0:0:0:0:
120,248,41579,6,0,P|188:316|316:352,1,200,8|10,0:2|0:0,0:0:0:0:
340,280,42608,1,2,0:0:0:0:
296,264,42779,1,0,0:0:0:0:
256,248,42951,2,0,P|188:316|60:352,1,200,8|10,0:0|0:0,0:0:0:0:
48,272,43979,1,0,0:0:0:0:
84,188,44322,6,0,P|144:164|224:56,1,200,10|2,0:0|0:0,0:0:0:0:
264,80,45179,1,8,0:0:0:0:
304,100,45350,1,8,0:0:0:0:
344,120,45522,6,0,P|370:214|440:271,1,150,8|8,0:0|0:2,0:0:0:0:
412,296,46208,2,0,P|360:292|304:248,1,100,8|8,0:2|0:2,0:0:0:0:
274,267,46722,2,0,P|231:292|181:295,1,100,8|8,0:2|0:0,0:0:0:0:
176,204,47408,6,0,P|96:208|44:228,2,100,8|8|0,0:0|0:0|0:0,0:0:0:0:
176,113,48436,1,0,0:0:0:0:
251,163,48779,2,0,P|301:151|371:177,2,100,8|8|0,0:0|0:0|0:0,0:0:0:0:
238,252,49808,6,0,P|302:308|446:272,1,200,8|8,0:0|0:0,0:0:0:0:
447,273,50665,1,2,0:0:0:0:
466,232,50836,1,10,0:0:0:0:
439,195,51008,2,0,P|355:170|303:118,1,150,10|8,0:0|0:0,0:0:0:0:
245,65,51865,6,0,P|125:53|77:17,1,150,8|0,0:0|0:0,0:0:0:0:
68,69,52551,2,0,P|71:167|145:239,1,200,8|8,0:0|0:0,0:0:0:0:
182,248,53408,2,0,L|262:285,2,50,8|8|8,0:2|0:0|0:2,0:0:0:0:
180,292,53922,2,0,L|106:342,2,50,8|8|8,0:0|0:2|0:0,0:0:0:0:
208,327,54436,2,0,P|282:360|374:340,1,150,8|0,0:2|0:0,0:0:0:0:
404,281,55294,6,0,P|399:207|355:146,1,150,8|8,0:0|0:0,0:0:0:0:
312,138,55979,2,0,L|252:142,2,50,8|8|8,0:0|0:0|0:0,0:0:0:0:
312,183,56494,2,0,P|272:235|172:247,1,150,8|8,0:0|0:0,0:0:0:0:
148,260,57179,6,0,P|180:308|304:324,1,150,8|8,0:0|0:0,0:0:0:0:
352,320,58036,6,0,P|411:276|424:140,1,200,8|8,0:0|0:0,0:0:0:0:
408,120,58894,2,0,L|348:136,1,50,8|8,0:0|0:0,0:0:0:0:
316,140,59236,2,0,P|297:224|208:216,1,150,8|8,0:0|0:0,0:0:0:0:
160,200,60094,5,0,0:0:0:0:
224,140,60436,1,8,0:0:0:0:
316,140,60779,6,0,P|348:200|272:304,2,200,10|0|12,0:0|0:0|0:0,0:0:0:0:
240,92,62494,1,0,0:0:0:0:
196,104,62665,2,0,P|200:180|176:232,1,100,12|12,0:2|0:2,0:0:0:0:
72,260,63522,6,0,L|-16:161,1,100,2|2,0:0|0:0,0:0:0:0:
76,132,64208,2,0,L|137:200,2,50,4|4|8,0:0|0:0|0:0,0:0:0:0:
46,99,64722,1,8,0:0:0:0:
13,129,64894,2,0,P|0:171|28:232,1,100,4|8,0:0|0:0,0:0:0:0:
64,220,65407,1,8,0:0:0:0:
52,263,65579,2,0,P|70:318|134:361,1,100,4|0,0:0|0:0,0:0:0:0:
142,266,66265,6,0,L|126:133,1,100,2|2,0:0|0:0,0:0:0:0:
219,163,66951,2,0,L|229:253,2,50,4|4|8,0:0|0:0|0:0,0:0:0:0:
214,119,67465,1,8,0:0:0:0:
169,124,67637,2,0,P|133:151|122:216,1,100,4|8,0:0|0:0,0:0:0:0:
160,228,68150,1,8,0:0:0:0:
124,256,68322,2,0,P|107:311|134:383,1,100,4|0,0:0|0:0,0:0:0:0:
192,306,69008,6,0,L|255:188,1,100,2|2,0:0|0:0,0:0:0:0:
314,265,69694,2,0,L|270:345,2,50,4|4|8,0:0|0:0|0:0,0:0:0:0:
335,226,70208,1,8,0:0:0:0:
295,204,70380,2,0,P|250:206|202:253,1,100,4|8,0:0|0:0,0:0:0:0:
227,284,70893,1,8,0:0:0:0:
181,284,71065,2,0,P|134:247|116:173,1,100,4|0,0:0|0:0,0:0:0:0:
182,147,71751,6,0,L|306:179,2,100,12|4|12,0:2|0:0|0:2,0:0:0:0:
118,83,72779,2,0,L|-6:115,2,100,0|12|0,0:0|0:2|0:0,0:0:0:0:
208,83,73808,2,0,B|253:109|253:109|300:88|300:88|303:136|303:136|344:195,1,200,8|2,0:3|0:3,0:0:0:0:
240,188,74836,6,0,P|208:236|136:256,1,100,0|0,0:0|0:0,0:0:0:0:
124,268,75351,1,0,0:0:0:0:
124,312,75522,2,0,P|180:356|272:380,2,150,0|0|0,0:0|0:0|0:0,0:0:0:0:
124,221,76894,1,0,0:0:0:0:
187,157,77236,2,0,L|319:213,1,100,8|0,0:0|0:0,0:0:0:0:
260,284,77922,6,0,L|152:276,2,100,0|0|0,0:0|0:0|0:0,0:0:0:0:
321,217,78951,2,0,L|381:113,2,100,0|0|0,0:0|0:0|0:0,0:0:0:0:
288,188,79808,1,8,0:0:0:0:
252,160,79979,1,8,0:0:0:0:
160,160,80322,6,0,P|178:211|242:251,1,100,4|0,0:3|0:0,0:0:0:0:
296,272,81008,2,0,P|343:257|377:222,1,100,0|0,0:0|0:0,0:0:0:0:
420,208,81522,2,0,L|436:264|436:264,2,50,0|0|0,0:0|0:0|0:0,0:0:0:0:
392,172,82036,6,0,L|304:100,1,100,0|0,0:0|0:0,0:0:0:0:
276,88,82551,1,8,0:0:0:0:
232,80,82722,1,8,0:0:0:0:
140,80,83065,6,0,P|184:160|220:168,1,100,4|0,0:3|0:0,0:0:0:0:
276,176,83751,1,0,0:0:0:0:
307,207,83922,1,4,0:0:0:0:
338,238,84094,2,0,P|296:292|280:304,2,50,0|0|0,0:0|0:0|0:0,0:0:0:0:
369,269,84608,2,0,P|384:249|397:228,2,50,0|2|2,0:0|0:3|0:3,0:0:0:0:
400,300,85122,6,0,P|352:344|288:360,1,100,2|6,0:3|0:3,0:0:0:0:
284,328,85636,2,0,L|224:372,2,50,2|2|6,0:0|0:0|0:0,0:0:0:0:
260,292,86151,2,0,P|200:280|132:296,2,100,6|0|2,0:0|0:0|0:0,0:0:0:0:
284,252,87008,6,0,P|336:204|424:196,1,150,2|6,0:0|0:0,0:0:0:0:
412,148,87694,1,2,0:0:0:0:
412,103,87865,2,0,P|352:96|288:140,1,100,4|2,0:0|0:0,0:0:0:0:
276,128,88379,5,2,0:0:0:0:
236,148,88551,1,2,0:0:0:0:
204,176,88722,2,0,P|232:232|304:240,1,100,10|6,0:0|0:0,0:0:0:0:
308,252,89236,1,0,0:0:0:0:
352,252,89408,1,0,0:0:0:0:
358,297,89579,2,0,P|334:353|242:365,1,150,6|2,0:0|0:0,0:0:0:0:
208,356,90265,6,0,P|182:343|146:310,2,50,2|6|6,0:0|0:0|0:0,0:0:0:0:
231,317,90779,1,4,0:0:0:0:
261,283,90951,2,0,P|349:235|381:155,1,150,6|6,0:0|0:0,0:0:0:0:
386,151,91636,2,0,P|454:127|502:87,2,100,0|0|0,0:0|0:0|0:0,0:0:0:0:
341,161,92494,6,0,P|248:157|180:118,1,150,6|6,0:0|0:0,0:0:0:0:
114,97,93351,1,0,0:0:0:0:
67,173,93694,2,0,P|107:237|239:257,1,200,6|6,0:0|0:0,0:0:0:0:
299,215,94722,5,0,0:0:0:0:
332,184,94894,1,0,0:0:0:0:
353,144,95065,2,0,P|301:124|209:124,1,100,6|6,0:0|0:0,0:0:0:0:
203,189,95751,2,0,P|255:209|347:209,1,100,6|14,0:2|0:0,0:0:0:0:
388,213,96436,6,0,P|356:301|228:361,2,200,8|0|8,0:0|0:0|0:0,0:0:0:0:
396,123,98151,1,0,0:0:0:0:
325,66,98494,2,0,P|261:170|245:182,1,100,8|0,0:0|0:0,0:0:0:0:
231,230,99179,2,0,P|215:326|103:330,1,200,8|8,0:0|0:0,0:0:0:0:
89,317,100036,6,0,L|33:277,1,50,8|8,0:0|0:0,0:0:0:0:
29,246,100379,2,0,P|93:202|121:102,1,150,8|2,0:0|0:0,0:0:0:0:
145,99,101065,2,0,P|209:107|281:191,1,150,2|8,0:0|0:0,0:0:0:0:
229,183,101751,1,2,0:0:0:0:
185,193,101922,6,0,P|213:241|289:253,1,100,8|0,0:0|0:0,0:0:0:0:
297,252,102436,1,10,0:0:0:0:
339,237,102608,2,0,P|355:313|323:361,2,100,8|0|0,0:0|0:0|0:0,0:0:0:0:
332,192,103465,6,0,L|416:144,1,50,8|8,0:0|0:0,0:0:0:0:
365,123,103808,2,0,P|313:75|293:15,1,100,8|8,0:0|0:0,0:0:0:0:
255,52,104322,1,8,0:0:0:0:
210,58,104494,6,0,P|138:78|82:118,1,100,8|10,0:0|0:0,0:0:0:0:
117,135,105008,2,0,P|153:167|177:207,1,50,0|10,0:0|0:0,0:0:0:0:
157,213,105351,2,0,L|205:265,2,50,0|8|0,0:0|0:0|0:0,0:0:0:0:
113,224,105865,2,0,P|125:319|181:351,1,150,0|0,0:0|0:0,0:0:0:0:
254,353,106722,6,0,P|326:341|365:281,1,100,8|0,0:0|0:0,0:0:0:0:
356,281,107236,1,8,0:0:0:0:
394,256,107408,2,0,P|482:264|478:160,1,200,10|0,0:0|0:0,0:0:0:0:
466,134,108265,6,0,L|526:106,2,50,8|8|8,0:0|0:0|0:0,0:0:0:0:
420,134,108779,2,0,L|374:112,2,50,8|8|8,0:0|0:0|0:0,0:0:0:0:
420,179,109294,2,0,P|384:260|300:260,1,150,8|8,0:2|0:0,0:0:0:0:
330,181,110151,6,0,P|262:204|241:273,1,150,8|2,0:0|0:0,0:0:0:0:
272,305,110836,1,2,0:0:0:0:
310,328,111008,2,0,P|378:324|390:316,1,50,8|8,0:0|0:0,0:0:0:0:
401,316,111351,2,0,P|421:232|381:164,1,150,0|8,0:0|0:0,0:0:0:0:
355,156,112036,6,0,P|299:208|223:200,1,150,8|8,0:0|0:0,0:0:0:0:
150,160,112894,2,0,P|77:156|25:207,2,100,8|8|0,0:0|0:0|0:0,0:0:0:0:
191,180,113751,1,0,0:0:0:0:
229,204,113922,1,8,0:0:0:0:
267,226,114094,6,0,P|247:282|187:314,1,100,8|8,0:0|0:0,0:0:0:0:
174,323,114608,1,0,0:0:0:0:
138,295,114779,2,0,P|58:319|-14:279,1,150,8|0,0:0|0:0,0:0:0:0:
23,206,115636,6,0,P|79:188|114:129,1,100,8|2,0:0|0:0,0:0:0:0:
136,125,116151,2,0,P|109:45|123:8,1,100,0|8,0:0|0:0,0:0:0:0:
156,31,116665,1,8,0:0:0:0:
200,28,116836,1,0,0:0:0:0:
256,192,117008,12,0,118036,0:0:0:0:
236,192,118379,6,0,P|296:224|360:200,2,100,4|4|0,0:0|0:0|0:0,0:0:0:0:
128,48,119751,2,0,P|92:80|24:76,2,100,4|4|0,0:0|0:0|0:0,0:0:0:0:
236,192,121122,2,0,P|264:244|256:304,2,100,2|2|0,0:0|0:0|0:0,0:0:0:0:
364,64,122494,2,0,P|396:44|500:60,2,100,2|2|0,0:0|0:0|0:0,0:0:0:0:
324,240,123865,6,0,P|372:260|460:236,2,100,4|4|0,0:0|0:0|0:0,0:0:0:0:
164,156,125236,2,0,P|116:136|28:160,2,100,4|4|0,0:0|0:0|0:0,0:0:0:0:
344,144,126608,2,0,P|300:92|288:56,2,100,2|2|0,0:0|0:0|0:0,0:0:0:0:
172,196,127979,2,0,P|228:252|244:300,2,100,2|2|0,0:0|0:0|0:0,0:0:0:0:
252,32,129351,6,0,P|348:50|408:128,1,200,12|0,0:0|0:0,0:0:0:0:
424,172,130208,2,0,L|492:176,2,50,8|8|0,0:0|0:0|0:0,0:0:0:0:
408,216,130722,2,0,P|360:248|296:248,1,100,8|8,0:0|0:0,0:0:0:0:
256,188,131408,6,0,P|248:120|216:80,1,100,8|8,0:0|0:0,0:0:0:0:
148,60,132094,2,0,P|84:120|128:224,1,200,8|8,0:0|0:0,0:0:0:0:
156,236,132951,2,0,L|216:244,2,50,0|8|8,0:0|0:0|0:0,0:0:0:0:
148,280,133465,2,0,P|192:348|372:256,1,300,0|0,0:0|0:0,0:0:0:0:
368,200,134836,6,0,P|320:216|192:140,1,200,8|0,0:0|0:0,0:0:0:0:
168,116,135694,2,0,P|136:136|116:160,2,50,0|8|8,0:0|0:0|0:0,0:0:0:0:
212,100,136208,2,0,P|268:92|324:96,1,100,8|0,0:0|0:0,0:0:0:0:
356,108,136722,1,0,0:0:0:0:
388,140,136894,6,0,P|336:216|224:244,1,200,8|8,0:0|0:0,0:0:0:0:
144,240,137922,2,0,P|81:224|42:192,2,100,8|8|8,0:0|0:0|0:0,0:0:0:0:
228,208,138951,5,8,0:0:0:0:
264,180,139122,1,8,0:0:0:0:
288,140,139294,1,8,0:0:0:0:
300,96,139465,1,8,0:0:0:0:
344,104,139636,2,0,P|352:176|444:212,1,150,8|8,0:0|0:0,0:0:0:0:
452,236,140322,6,0,P|404:288|344:304,1,100,12|0,0:0|0:0,0:0:0:0:
340,276,140836,1,8,0:0:0:0:
312,260,141008,2,0,P|252:288|216:284,2,100,0|8|8,0:0|0:0|0:0,0:0:0:0:
312,216,141865,6,0,P|280:168|172:156,1,150,8|0,0:0|0:0,0:0:0:0:
108,168,142722,1,0,0:0:0:0:
104,260,143065,2,0,P|140:315|265:329,1,200,0|0,0:0|0:0,0:0:0:0:
312,252,144094,1,0,0:0:0:0:
288,164,144436,5,0,0:0:0:0:
324,140,144608,2,0,L|380:96,2,50,2|2|2,0:0|0:0|0:0,0:0:0:0:
324,94,145122,2,0,L|380:50,2,50,0|0|2,0:0|0:0|0:0,0:0:0:0:
280,108,145636,1,2,0:0:0:0:
244,136,145808,6,0,P|196:156|120:152,1,100,2|0,0:0|0:0,0:0:0:0:
136,200,146322,2,0,P|168:240|240:252,2,100,0|2|0,0:0|0:0|0:0,0:0:0:0:
128,156,147179,2,0,P|184:124|248:156,1,100,0|0,0:0|0:0,0:0:0:0:
256,152,147694,2,0,L|364:228,1,100,2|0,0:0|0:0,0:0:0:0:
360,248,148208,5,0,0:0:0:0:
340,288,148379,1,2,0:0:0:0:
296,296,148551,2,0,L|188:220,1,100,2|0,0:0|0:0,0:0:0:0:
188,200,149065,2,0,P|247:163|269:97,1,100,2|0,0:0|0:0,0:0:0:0:
288,104,149579,6,0,P|322:56|402:47,1,100,2|0,0:0|0:0,0:0:0:0:
388,76,150094,2,0,P|381:127|365:153,1,50,2|0,0:0|0:0,0:0:0:0:
372,168,150436,2,0,L|340:228,2,50,2|2|2,0:0|0:0|0:0,0:0:0:0:
416,152,150951,2,0,P|463:178|516:178,1,100,2|2,0:0|0:0,0:0:0:0:
